osu file format v14

[General]
AudioFilename: audio.mp3
AudioLeadIn: 0
PreviewTime: 151681
Countdown: 0
SampleSet: Normal
StackLeniency: 0.7
Mode: 0
LetterboxInBreaks: 0
WidescreenStoryboard: 1

[Editor]
DistanceSpacing: 0.7
BeatDivisor: 2
GridSize: 4
TimelineZoom: 1

[Metadata]
Title:Dissambiguation
TitleUnicode:Dissambiguation
Artist:Yamine Renri
ArtistUnicode:Yamine Renri
Creator:Yoratama
Version:Normal
Source:Vocaloid
Tags:UTAU
BeatmapID:938232
BeatmapSetID:435129

[Difficulty]
HPDrainRate:4
CircleSize:3.5
OverallDifficulty:5
ApproachRate:6
SliderMultiplier:1.3
SliderTickRate:2

[Events]
//Background and Video events
0,0,"37593_anime_girls_anime_girl_in_snow.jpg",0,0
//Break Periods
2,140373,147874
//Storyboard Layer 0 (Background)
//Storyboard Layer 1 (Fail)
//Storyboard Layer 2 (Pass)
//Storyboard Layer 3 (Foreground)
//Storyboard Sound Samples

[TimingPoints]
1960,357.142857142857,4,2,0,100,1,0
1960,-133.333333333333,4,2,0,100,0,0
16781,-100,4,1,0,100,0,0
17852,-100,4,1,0,100,0,0
24817,-100,4,2,0,100,0,0
26245,-100,4,1,0,100,0,0
31424,-100,4,2,0,100,0,0
31959,-100,4,1,0,100,0,0
37674,-100,4,1,0,100,0,1
49013,-100,4,1,0,100,0,0
49102,-100,4,1,0,100,0,1
60531,-133.333333333333,4,2,0,100,0,0
71959,-100,4,1,0,100,0,0
83388,-100,4,1,0,100,0,0
91959,-200,4,1,0,100,0,0
93745,-100,4,1,0,100,0,0
94817,-100,4,1,0,100,0,1
106156,-100,4,1,0,100,0,0
106245,-100,4,1,0,100,0,1
117674,-100,4,1,0,100,0,0
140531,-200,4,1,0,100,0,0
149102,-133.333333333333,4,1,0,100,0,0
150174,-100,4,1,0,100,0,1
150263,-100,4,1,0,100,0,0
151959,-100,4,1,0,100,0,1
163299,-100,4,1,0,100,0,0
163388,-100,4,1,0,100,0,1
186245,-100,4,1,0,100,0,0

[Colours]
Combo1 : 204,40,191
Combo2 : 111,172,255
Combo3 : 239,29,145
Combo4 : 29,180,197

[HitObjects]
92,68,2495,6,0,L|160:68,1,48.750001859665,0|2,0:0|0:0,0:0:0:0:
188,73,2852,2,0,L|240:92,1,48.750001859665,0|2,0:0|0:0,0:0:0:0:
320,132,3388,6,0,P|368:176|384:216,1,97.50000371933,2|0,0:0|0:0,0:0:0:0:
392,252,3924,1,2,0:0:0:0:
320,316,4281,2,0,P|280:336|216:344,1,97.50000371933,2|0,0:0|0:0,0:0:0:0:
180,344,4817,1,2,0:0:0:0:
56,192,5531,2,0,L|56:96,2,48.750001859665,8|0|0,0:0|0:0|0:0,0:0:0:0:
56,288,6245,6,0,P|96:276|140:228,1,97.50000371933,2|0,0:0|0:0,0:0:0:0:
164,200,6781,1,2,0:0:0:0:
172,104,7138,2,0,P|216:52|256:32,1,97.50000371933,2|0,0:0|0:0,0:0:0:0:
288,32,7674,1,2,0:0:0:0:
484,36,8388,2,0,L|484:-16,2,48.750001859665,8|0|0,0:0|0:0|0:0,0:0:0:0:
476,132,9102,6,0,P|440:172|376:196,1,97.50000371933,2|0,0:0|0:0,0:0:0:0:
352,200,9638,1,2,0:0:0:0:
272,144,9995,2,0,P|248:212|260:248,1,97.50000371933,2|0,0:0|0:0,0:0:0:0:
284,272,10531,1,2,0:0:0:0:
460,192,11245,2,0,L|460:120,2,48.750001859665,8|0|0,0:0|0:0|0:0,0:0:0:0:
464,288,11959,6,0,P|384:292|336:264,1,97.50000371933,2|0,0:0|0:0,0:0:0:0:
324,268,12495,1,2,0:0:0:0:
228,244,12852,2,0,P|164:216|128:164,1,97.50000371933
116,160,13388,2,0,P|92:112|92:64,1,97.50000371933,2|0,0:0|0:0,0:0:0:0:
180,104,14102,2,2,P|200:176|112:248,1,195.00000743866,2|0,0:0|0:0,0:0:0:0:
120,156,15174,5,0,0:0:0:0:
120,60,15531,1,8,0:0:0:0:
216,64,15888,2,0,L|328:64,1,97.50000371933,0|2,0:0|0:0,0:0:0:0:
484,260,16959,1,8,0:0:0:0:
368,240,17317,1,6,0:0:0:0:
324,328,17674,6,0,B|276:296|276:296|208:328|132:304|136:192,1,260,2|8,0:0|0:0,0:0:0:0:
224,224,18745,2,0,P|200:152|120:128,1,130
64,132,19459,2,0,P|16:192|40:264,1,130,0|8,0:0|0:0,0:0:0:0:
80,312,20174,1,0,0:0:0:0:
160,352,20531,1,2,0:0:0:0:
248,340,20888,6,0,P|328:316|360:280,1,130,0|8,0:0|0:0,0:0:0:0:
444,252,21602,2,0,P|396:212|316:208,1,130
248,164,22317,2,0,P|236:228|272:280,1,130,0|8,0:0|0:0,0:0:0:0:
356,308,23031,1,0,0:0:0:0:
444,324,23388,6,0,P|500:188|444:104,1,260,2|8,0:0|0:0,0:0:0:0:
360,68,24459,1,0,0:0:0:0:
268,56,24817,2,0,L|192:96,1,65,0|2,0:0|0:0,0:0:0:0:
172,108,25174,1,0,0:0:0:0:
92,148,25531,2,2,P|92:252|240:356,1,260,2|0,0:0|0:0,0:0:0:0:
292,352,26602,6,0,P|344:332|388:268,1,130,0|8,0:0|0:0,0:0:0:0:
400,184,27317,2,0,P|380:112|336:68,1,130
252,60,28031,1,0,0:0:0:0:
168,96,28388,1,8,0:0:0:0:
108,160,28745,6,0,P|84:232|120:308,1,130
98,281,29459,2,8,P|168:264|244:304,1,130,0|8,0:0|0:0,0:0:0:0:
220,282,30174,2,0,P|248:208|224:160,1,130
156,220,30888,2,0,P|132:152|176:80,1,130,0|8,0:0|0:0,0:0:0:0:
184,68,31424,5,2,0:0:0:0:
224,52,31602,1,2,0:0:0:0:
316,40,31959,6,0,B|364:56|364:56|408:124,1,130
448,204,32674,1,8,0:0:0:0:
480,288,33031,1,0,0:0:0:0:
396,320,33388,2,0,B|320:348|320:348|264:264|156:272,1,260
76,280,34459,1,0,0:0:0:0:
256,192,34817,12,0,36602,0:0:0:0:
400,64,37495,5,0,0:0:0:0:
400,64,37674,2,0,P|408:144|264:208,1,260,6|8,0:0|0:0,0:0:0:0:
312,132,38745,2,0,L|192:56,1,130
116,32,39459,2,0,P|68:72|48:156,1,130,0|8,0:0|0:0,0:0:0:0:
48,176,39995,1,0,0:0:0:0:
184,148,40352,5,0,0:0:0:0:
184,148,40531,2,0,B|200:236|200:236|264:276,1,130,2|0,0:0|0:0,0:0:0:0:
320,288,41245,1,8,0:0:0:0:
404,256,41602,1,0,0:0:0:0:
476,200,41959,2,0,B|488:112|488:112|448:60,1,130
376,48,42674,1,8,0:0:0:0:
376,48,42852,1,0,0:0:0:0:
256,112,43209,5,0,0:0:0:0:
256,112,43388,2,0,P|316:172|324:228,1,130,2|0,0:0|0:0,0:0:0:0:
324,260,43924,1,0,0:0:0:0:
192,272,44459,1,0,0:0:0:0:
192,272,44638,2,0,P|92:236|60:148,1,195,2|0,0:0|0:0,0:0:0:0:
64,116,45352,1,0,0:0:0:0:
200,132,45888,6,0,L|200:64,2,65,0|0|2,0:0|0:0|0:0,0:0:0:0:
204,224,46602,2,0,P|240:288|312:312,1,130,0|8,0:0|0:0,0:0:0:0:
380,304,47317,2,0,B|440:272|440:272|456:220|456:220|516:160|460:88,1,260,2|0,0:0|0:0,0:0:0:0:
380,60,48388,1,8,0:0:0:0:
380,60,48567,1,8,0:0:0:0:
288,72,48924,5,0,0:0:0:0:
288,72,49102,2,0,B|192:72|192:72|72:80|72:160,1,260,6|8,0:0|0:0,0:0:0:0:
76,248,50174,2,0,P|96:312|168:344,1,130
156,252,50888,2,0,P|216:280|292:248,1,130,0|8,0:0|0:0,0:0:0:0:
312,240,51424,1,0,0:0:0:0:
392,192,51781,5,0,0:0:0:0:
392,192,51959,2,0,P|392:108|360:76,1,130,2|0,0:0|0:0,0:0:0:0:
272,84,52674,1,8,0:0:0:0:
192,128,53031,2,0,B|116:164|116:164|232:224|232:224|264:256,1,260
328,320,54102,1,8,0:0:0:0:
328,320,54281,1,0,0:0:0:0:
444,244,54638,5,0,0:0:0:0:
444,244,54817,2,0,B|448:142|448:142|412:116,1,130,2|0,0:0|0:0,0:0:0:0:
384,104,55352,1,0,0:0:0:0:
248,104,55888,1,0,0:0:0:0:
248,104,56067,2,0,B|180:100|180:100|160:148|80:208,1,195,2|0,0:0|0:0,0:0:0:0:
56,216,56781,1,0,0:0:0:0:
140,324,57317,6,0,L|140:388,2,65,0|0|2,0:0|0:0|0:0,0:0:0:0:
140,232,58031,2,0,P|156:152|204:100,1,130
240,44,58745,2,0,B|296:76|288:188|216:184|208:204|244:304,1,260,2|0,0:0|0:0,0:0:0:0:
264,316,59638,1,0,0:0:0:0:
304,340,59817,1,8,0:0:0:0:
348,348,59995,1,0,0:0:0:0:
320,252,60531,6,0,P|368:208|384:168,1,97.50000371933,2|0,0:0|0:0,0:0:0:0:
392,132,61067,1,2,0:0:0:0:
320,68,61424,2,0,P|280:48|216:40,1,97.50000371933,2|0,0:0|0:0,0:0:0:0:
180,40,61960,1,2,0:0:0:0:
56,192,62674,2,0,L|56:288,2,48.750001859665,8|0|0,0:0|0:0|0:0,0:0:0:0:
56,96,63388,6,0,P|96:108|140:156,1,97.50000371933,2|0,0:0|0:0,0:0:0:0:
164,184,63924,1,2,0:0:0:0:
172,280,64281,2,0,P|216:332|256:352,1,97.50000371933,2|0,0:0|0:0,0:0:0:0:
288,352,64817,1,2,0:0:0:0:
484,348,65531,2,0,L|484:400,2,48.750001859665,8|0|0,0:0|0:0|0:0,0:0:0:0:
476,252,66245,6,0,P|440:212|376:188,1,97.50000371933,2|0,0:0|0:0,0:0:0:0:
352,184,66781,1,2,0:0:0:0:
272,240,67138,2,0,P|248:172|260:136,1,97.50000371933,2|0,0:0|0:0,0:0:0:0:
284,112,67674,1,2,0:0:0:0:
460,192,68388,2,0,L|460:264,2,48.750001859665,8|0|0,0:0|0:0|0:0,0:0:0:0:
464,96,69102,6,0,P|384:92|336:120,1,97.50000371933,2|0,0:0|0:0,0:0:0:0:
324,116,69638,1,2,0:0:0:0:
228,140,69995,2,0,P|164:168|128:220,1,97.50000371933
116,224,70531,2,0,P|92:272|92:320,1,97.50000371933,2|0,0:0|0:0,0:0:0:0:
180,280,71245,2,2,P|200:208|112:136,1,195.00000743866,2|0,0:0|0:0,0:0:0:0:
120,228,72317,5,0,0:0:0:0:
120,324,72674,1,8,0:0:0:0:
216,320,73031,2,0,L|364:316,1,130,0|2,0:0|0:0,0:0:0:0:
412,252,73745,1,0,0:0:0:0:
468,180,74102,1,8,0:0:0:0:
396,124,74460,1,2,0:0:0:0:
324,56,74817,6,0,B|276:88|276:88|208:56|132:80|136:192,1,260,2|8,0:0|0:0,0:0:0:0:
224,160,75888,2,0,P|200:232|120:256,1,130
64,252,76602,2,0,P|16:192|40:120,1,130,0|8,0:0|0:0,0:0:0:0:
80,72,77317,1,0,0:0:0:0:
160,32,77674,1,2,0:0:0:0:
248,44,78031,6,0,P|328:68|360:104,1,130,0|8,0:0|0:0,0:0:0:0:
444,132,78745,2,0,P|396:172|316:176,1,130
248,220,79460,2,0,P|236:156|272:104,1,130,0|8,0:0|0:0,0:0:0:0:
356,76,80174,1,0,0:0:0:0:
444,60,80531,6,0,P|500:196|444:280,1,260,2|8,0:0|0:0,0:0:0:0:
360,316,81602,1,0,0:0:0:0:
268,328,81960,2,0,L|192:288,1,65
172,276,82317,1,0,0:0:0:0:
92,236,82674,2,2,P|92:132|240:28,1,260,2|0,0:0|0:0,0:0:0:0:
292,32,83745,6,0,P|344:52|388:116,1,130,0|8,0:0|0:0,0:0:0:0:
400,200,84460,2,0,P|380:272|336:316,1,130
252,324,85174,1,0,0:0:0:0:
168,288,85531,1,8,0:0:0:0:
108,224,85888,6,0,P|84:152|120:76,1,130
98,103,86602,2,8,P|168:120|244:80,1,130,0|8,0:0|0:0,0:0:0:0:
220,102,87317,2,0,P|248:176|224:224,1,130
156,164,88031,2,0,P|132:232|176:304,1,130,0|8,0:0|0:0,0:0:0:0:
312,340,88745,5,2,0:0:0:0:
312,340,88923,1,2,0:0:0:0:
316,344,89102,6,0,B|364:328|364:328|408:260,1,130
448,180,89817,1,8,0:0:0:0:
480,96,90174,1,0,0:0:0:0:
396,64,90531,2,0,B|320:36|320:36|264:120|156:112,1,260
76,104,91602,1,0,0:0:0:0:
256,192,91960,12,0,93745,0:0:0:0:
400,320,94638,5,0,0:0:0:0:
400,320,94817,2,0,P|408:240|264:176,1,260,6|8,0:0|0:0,0:0:0:0:
312,252,95888,2,0,L|192:328,1,130
116,352,96602,2,0,P|68:312|48:228,1,130,0|8,0:0|0:0,0:0:0:0:
56,208,97138,1,0,0:0:0:0:
184,236,97495,5,0,0:0:0:0:
184,236,97674,2,0,B|200:148|200:148|264:108,1,130,2|0,0:0|0:0,0:0:0:0:
320,96,98388,1,8,0:0:0:0:
404,128,98745,1,0,0:0:0:0:
476,184,99102,2,0,B|488:272|488:272|448:324,1,130
376,336,99817,1,8,0:0:0:0:
376,336,99995,1,0,0:0:0:0:
256,272,100352,5,0,0:0:0:0:
256,272,100531,2,0,P|316:212|324:156,1,130,2|0,0:0|0:0,0:0:0:0:
320,124,101067,1,0,0:0:0:0:
196,92,101602,1,0,0:0:0:0:
196,92,101781,2,0,P|96:128|64:216,1,195,2|0,0:0|0:0,0:0:0:0:
64,252,102495,1,0,0:0:0:0:
200,252,103031,6,0,L|200:320,2,65,0|0|2,0:0|0:0|0:0,0:0:0:0:
204,160,103745,2,0,P|240:96|312:72,1,130,0|8,0:0|0:0,0:0:0:0:
380,80,104460,2,0,B|440:112|440:112|456:164|456:164|516:224|460:296,1,260,2|0,0:0|0:0,0:0:0:0:
380,324,105531,1,8,0:0:0:0:
380,324,105710,1,8,0:0:0:0:
288,312,106067,5,0,0:0:0:0:
288,312,106245,2,0,B|192:312|192:312|72:304|72:224,1,260,6|8,0:0|0:0,0:0:0:0:
76,136,107317,2,0,P|96:72|168:40,1,130
156,132,108031,2,0,P|216:104|292:136,1,130,0|8,0:0|0:0,0:0:0:0:
364,104,108745,5,0,0:0:0:0:
392,192,109102,2,0,P|392:276|360:308,1,130,2|0,0:0|0:0,0:0:0:0:
272,300,109817,1,8,0:0:0:0:
192,256,110174,2,0,B|116:220|116:220|232:160|232:160|264:128,1,260
328,64,111245,1,8,0:0:0:0:
328,64,111424,1,0,0:0:0:0:
444,140,111781,5,0,0:0:0:0:
444,140,111960,2,0,B|448:241|448:241|412:268,1,130,2|0,0:0|0:0,0:0:0:0:
384,280,112495,1,0,0:0:0:0:
248,280,113031,1,0,0:0:0:0:
248,280,113210,2,0,B|180:284|180:284|160:236|80:176,1,195,2|0,0:0|0:0,0:0:0:0:
56,168,113924,1,0,0:0:0:0:
116,0,114459,5,0,0:0:0:0:
116,0,114638,2,0,L|124:64,1,65
140,152,115174,2,0,P|156:232|204:284,1,130
240,340,115888,2,0,B|296:308|288:196|216:200|208:180|244:80,1,260,2|0,0:0|0:0,0:0:0:0:
264,68,116781,1,0,0:0:0:0:
300,40,116960,1,8,0:0:0:0:
344,32,117138,1,0,0:0:0:0:
484,36,117674,6,0,P|488:132|396:264,1,260,6|0,0:0|0:0,0:0:0:0:
356,276,118567,1,0,0:0:0:0:
268,296,118924,2,0,P|164:284|96:200,1,195
76,136,119817,1,0,0:0:0:0:
116,56,120174,2,0,P|196:40|256:64,1,130
176,176,121067,2,0,P|240:232|336:176,1,195
472,104,122495,5,0,0:0:0:0:
472,192,122852,1,0,0:0:0:0:
476,280,123209,2,0,B|372:320|372:320|288:320,1,195,2|0,0:0|0:0,0:0:0:0:
196,324,124102,1,8,0:0:0:0:
152,316,124281,2,0,P|76:276|48:244,1,130
48,108,125174,2,0,P|120:148|160:216,1,130,0|8,0:0|0:0,0:0:0:0:
164,228,125709,1,0,0:0:0:0:
180,324,126067,6,0,B|268:308|268:308|304:264,1,130,2|0,0:0|0:0,0:0:0:0:
320,240,126602,1,0,0:0:0:0:
372,168,126959,1,8,0:0:0:0:
436,104,127317,2,0,P|388:84|308:112,1,130
276,188,128031,2,0,P|188:184|144:152,1,130,0|8,0:0|0:0,0:0:0:0:
92,96,128745,1,8,0:0:0:0:
84,188,129102,6,0,B|76:316|236:232|272:282|272:282|304:312,1,260,2|8,0:0|0:0,0:0:0:0:
360,344,130174,1,0,0:0:0:0:
440,304,130531,2,0,P|468:236|456:172,1,130
412,104,131245,1,8,0:0:0:0:
336,52,131602,1,0,0:0:0:0:
336,52,131781,1,0,0:0:0:0:
336,52,131959,6,0,P|224:64|144:120,1,195,2|0,0:0|0:0,0:0:0:0:
124,140,132674,1,8,0:0:0:0:
120,232,133031,2,0,P|151:288|207:318,1,130
300,316,133745,2,0,P|364:286|395:230,1,130,0|8,0:0|0:0,0:0:0:0:
384,148,134459,1,0,0:0:0:0:
372,48,134817,6,0,P|296:112|388:232,1,260,2|8,0:0|0:0,0:0:0:0:
456,252,135888,2,0,B|468:328|468:328|416:344,1,130
328,340,136602,2,0,P|252:312|208:264,1,130,0|8,0:0|0:0,0:0:0:0:
56,196,137674,6,0,L|60:112,1,65,0|8,0:0|0:0,0:0:0:0:
152,132,138209,2,0,L|152:204,1,65,0|8,0:0|0:0,0:0:0:0:
152,244,138567,1,8,0:0:0:0:
152,288,138745,1,6,0:0:0:0:
264,212,139281,5,0,0:0:0:0:
348,168,139638,2,8,L|416:116,1,65
396,84,139995,2,0,L|336:24,1,65,0|8,0:0|0:0,0:0:0:0:
256,192,148924,12,0,149817,0:0:0:0:
256,192,150174,12,0,151245,0:0:0:0:
104,192,151781,5,0,0:0:0:0:
104,192,151959,2,0,P|116:264|232:328,1,195,6|0,0:0|0:0,0:0:0:0:
256,336,152674,1,8,0:0:0:0:
348,332,153031,2,0,P|416:308|444:252,1,130
444,168,153745,1,0,0:0:0:0:
404,88,154102,1,8,0:0:0:0:
404,88,154281,1,0,0:0:0:0:
272,56,154638,5,0,0:0:0:0:
272,56,154817,2,0,P|120:104|136:224,1,260,2|8,0:0|0:0,0:0:0:0:
120,228,155709,1,0,0:0:0:0:
140,268,155888,2,0,P|216:320|387:298,1,260
446,245,156959,1,8,0:0:0:0:
440,110,157495,5,0,0:0:0:0:
440,110,157674,2,2,B|371:89|371:89|292:103,1,130,2|0,0:0|0:0,0:0:0:0:
269,109,158209,1,0,0:0:0:0:
160,195,158745,1,0,0:0:0:0:
160,195,158923,2,0,B|252:194|252:194|350:242,1,195,2|0,0:0|0:0,0:0:0:0:
378,270,159638,1,0,0:0:0:0:
256,332,160174,6,0,L|180:333,2,65
346,332,160888,2,0,B|436:302|436:302|417:262,1,130,0|8,0:0|0:0,0:0:0:0:
379,189,161602,2,0,P|300:149|136:195,1,260
112,226,162495,1,8,0:0:0:0:
90,266,162674,1,8,0:0:0:0:
266,308,163388,6,0,B|198:294|198:294|173:242|102:226|102:226|61:164,1,260,6|8,0:0|0:0,0:0:0:0:
57,78,164459,2,0,B|92:39|92:39|177:39,1,130
170,130,165174,2,0,B|250:130|250:130|313:89,1,130,0|8,0:0|0:0,0:0:0:0:
363,46,165888,1,0,0:0:0:0:
453,46,166245,1,2,0:0:0:0:
461,227,166959,6,0,B|439:291|439:291|357:317,1,130,8|0,0:0|0:0,0:0:0:0:
288,315,167674,1,0,0:0:0:0:
212,263,168031,1,0,0:0:0:0:
159,188,168388,2,0,B|211:133|211:133|267:114,2,130,8|0|2,0:0|0:0|0:0,0:0:0:0:
92,252,169459,6,0,B|48:296|48:296|104:340,1,130,0|8,0:0|0:0,0:0:0:0:
192,336,170174,1,0,0:0:0:0:
280,308,170531,1,0,0:0:0:0:
356,256,170888,1,0,0:0:0:0:
412,184,171245,1,8,0:0:0:0:
476,120,171602,2,0,P|472:60|392:20,1,130
328,24,172317,6,0,B|268:36|268:36|224:96,1,130,0|8,0:0|0:0,0:0:0:0:
136,104,173031,2,0,P|172:168|292:152,2,195,0|0|8,0:0|0:0|0:0,0:0:0:0:
204,44,174459,1,8,0:0:0:0:
292,68,174817,6,0,B|360:82|360:82|385:134|456:150|456:150|493:207,1,260,6|8,0:0|0:0,0:0:0:0:
501,298,175888,2,0,B|466:337|466:337|388:337,1,130
388,246,176603,2,0,B|308:246|308:246|266:273,1,130,0|8,0:0|0:0,0:0:0:0:
195,330,177317,1,0,0:0:0:0:
105,330,177674,1,2,0:0:0:0:
97,149,178388,6,0,B|119:85|119:85|178:66,1,130,8|0,0:0|0:0,0:0:0:0:
270,61,179103,1,0,0:0:0:0:
346,113,179460,1,0,0:0:0:0:
399,188,179817,2,0,B|347:243|347:243|295:260,2,130,8|0|2,0:0|0:0|0:0,0:0:0:0:
466,124,180888,6,0,B|510:80|510:80|456:38,1,130,0|8,0:0|0:0,0:0:0:0:
366,40,181603,1,0,0:0:0:0:
278,68,181960,1,0,0:0:0:0:
202,120,182317,1,0,0:0:0:0:
146,192,182674,1,8,0:0:0:0:
81,256,183031,2,0,P|86:318|137:355,1,130
230,352,183746,6,0,B|290:340|290:340|330:284,1,130,0|8,0:0|0:0,0:0:0:0:
422,272,184460,2,0,P|366:197|275:213,2,195,0|0|8,0:0|0:0|0:0,0:0:0:0:
354,332,185888,1,8,0:0:0:0:
264,324,186245,6,6,B|204:300|204:300|204:176|204:176|272:148,1,260,6|8,0:0|0:0,0:0:0:0:
356,116,187317,2,0,B|440:80|440:80|444:136,1,130
452,208,188031,2,0,B|424:268|424:268|348:292,1,130,0|8,0:0|0:0,0:0:0:0:
272,296,188745,1,0,0:0:0:0:
180,296,189102,6,0,P|68:200|128:104,1,260,2|8,0:0|0:0,0:0:0:0:
156,196,190174,2,0,L|276:132,1,130
352,92,190888,2,0,B|436:48|436:48|440:92,1,130,0|8,0:0|0:0,0:0:0:0:
436,172,191602,1,6,0:0:0:0:
436,264,191959,6,0,B|376:268|376:268|340:344|244:296|244:296|200:308,1,260,2|8,0:0|0:0,0:0:0:0:
112,324,193031,2,0,P|60:280|52:220,1,130
52,132,193745,2,0,P|76:64|132:40,1,130,0|8,0:0|0:0,0:0:0:0:
216,40,194459,2,0,B|288:80|288:80|312:128,1,130,2|0,0:0|0:0,0:0:0:0:
324,164,194995,1,8,0:0:0:0:
352,312,195531,6,8,B|268:304|268:304|224:268,1,130,8|0,0:0|0:0,0:0:0:0:
204,240,196067,1,0,0:0:0:0:
116,136,196602,2,0,P|140:68|196:44,1,130,0|8,0:0|0:0,0:0:0:0:
236,44,197138,1,8,0:0:0:0:
280,44,197317,1,6,0:0:0:0:
256,192,197495,12,0,200531,0:0:0:0:
