osu file format v14

[General]
AudioFilename: audio.ogg
AudioLeadIn: 0
PreviewTime: 668
Countdown: 0
SampleSet: Soft
StackLeniency: 0.7
Mode: 0
LetterboxInBreaks: 0
WidescreenStoryboard: 1

[Editor]
Bookmarks: 8668,16668,27335,38001,43334,51334,72667,80667,91334,102001,107334,115334,136667,147334,155334,160667,168667,174001,179334,200667,216667,222084
DistanceSpacing: 0.8
BeatDivisor: 4
GridSize: 8
TimelineZoom: 2

[Metadata]
Title:Kenkoi Itteki
TitleUnicode:拳恋一擲
Artist:Yamazaki Moe
ArtistUnicode:山崎もえ
Creator:pnky
Version:Promise
Source:クナド国記
Tags:kunado kokuki eroge purple software パープルソフトウェア visual novel japanese pop j-pop jpop insert song 挿入歌 vn video game videogame female vocals vocalist
BeatmapID:3890057
BeatmapSetID:1888849

[Difficulty]
HPDrainRate:6
CircleSize:4.2
OverallDifficulty:8.5
ApproachRate:9.4
SliderMultiplier:1.8
SliderTickRate:1

[Events]
//Background and Video events
0,0,"bg3.jpg",0,0
//Break Periods
2,169751,173461
//Storyboard Layer 0 (Background)
//Storyboard Layer 1 (Fail)
//Storyboard Layer 2 (Pass)
//Storyboard Layer 3 (Foreground)
//Storyboard Layer 4 (Overlay)
//Storyboard Sound Samples

[TimingPoints]
668,333.333333333333,4,2,1,40,1,0
668,-142.857142857143,4,2,1,40,0,0
8334,-142.857142857143,4,2,1,5,0,0
8417,-142.857142857143,4,2,1,40,0,0
8667,-100,4,2,2,75,0,0
9501,-80,4,2,2,75,0,0
10084,-80,4,2,2,5,0,0
10167,-100,4,2,2,75,0,0
11334,-90.9090909090909,4,2,2,75,0,0
12501,-80,4,2,2,75,0,0
12751,-80,4,2,2,5,0,0
12834,-80,4,2,2,75,0,0
14001,-66.6666666666667,4,2,2,75,0,0
14501,-80,4,2,2,75,0,0
14751,-80,4,2,2,5,0,0
14834,-80,4,2,2,75,0,0
14917,-80,4,2,2,5,0,0
15001,-80,4,2,2,75,0,0
15084,-80,4,2,2,5,0,0
15167,-142.857142857143,4,2,2,75,0,0
15834,-142.857142857143,4,2,2,55,0,0
16084,-142.857142857143,4,2,2,55,0,0
16667,-142.857142857143,4,2,2,50,0,0
27001,-166.666666666667,4,2,2,50,0,0
27334,-117.647058823529,4,2,4,60,0,0
27917,-117.647058823529,4,2,3,60,0,0
28001,-117.647058823529,4,2,4,60,0,0
29251,-117.647058823529,4,2,3,60,0,0
29334,-117.647058823529,4,2,4,60,0,0
30584,-117.647058823529,4,2,3,60,0,0
30667,-117.647058823529,4,2,4,60,0,0
31917,-117.647058823529,4,2,3,60,0,0
32001,-117.647058823529,4,2,4,60,0,0
33251,-117.647058823529,4,2,3,60,0,0
33334,-117.647058823529,4,2,4,60,0,0
34584,-117.647058823529,4,2,3,60,0,0
34667,-117.647058823529,4,2,4,60,0,0
35334,-105.263157894737,4,2,4,60,0,0
35667,-117.647058823529,4,2,4,60,0,0
35834,-117.647058823529,4,2,3,60,0,0
36001,-117.647058823529,4,2,4,60,0,0
36834,-117.647058823529,4,2,3,60,0,0
37001,-117.647058823529,4,2,4,60,0,0
38001,-111.111111111111,4,2,2,70,0,0
39917,-111.111111111111,4,2,3,70,0,0
40084,-111.111111111111,4,2,2,70,0,0
40334,-111.111111111111,4,2,4,70,0,0
40417,-111.111111111111,4,2,2,70,0,0
41501,-99.9999999999999,4,2,2,70,0,0
42584,-99.9999999999999,4,2,3,70,0,0
42667,-99.9999999999999,4,2,2,70,0,0
43001,-125,4,2,2,70,0,0
43334,-111.111111111111,4,2,4,65,0,0
43917,-111.111111111111,4,2,3,65,0,0
44001,-111.111111111111,4,2,4,65,0,0
44501,-111.111111111111,4,2,3,65,0,0
44667,-111.111111111111,4,2,4,65,0,0
46001,-99.9999999999999,4,2,2,65,0,0
46584,-99.9999999999999,4,2,3,65,0,0
46667,-99.9999999999999,4,2,2,65,0,0
47917,-99.9999999999999,4,2,3,65,0,0
48001,-99.9999999999999,4,2,2,65,0,0
48667,-83.3333333333333,4,2,2,75,0,0
49417,-83.3333333333333,4,2,2,5,0,0
49501,-83.3333333333333,4,2,2,75,0,0
49751,-83.3333333333333,4,2,3,75,0,0
49834,-83.3333333333333,4,2,2,75,0,0
50251,-83.3333333333333,4,2,3,75,0,0
50334,-83.3333333333333,4,2,2,75,0,0
50501,-83.3333333333333,4,2,3,75,0,0
50667,-83.3333333333333,4,2,2,75,0,0
51251,-83.3333333333333,4,2,2,5,0,0
51334,-90.9090909090909,4,2,2,80,0,1
51584,-90.9090909090909,4,2,2,5,0,1
51667,-90.9090909090909,4,2,2,80,0,1
53917,-90.9090909090909,4,2,3,80,0,1
54001,-90.9090909090909,4,2,2,80,0,1
54334,-90.9090909090909,4,2,4,80,0,1
54417,-90.9090909090909,4,2,2,80,0,1
54584,-90.9090909090909,4,2,3,80,0,1
54667,-90.9090909090909,4,2,2,80,0,1
55001,-90.9090909090909,4,2,4,80,0,1
55084,-90.9090909090909,4,2,2,80,0,1
55251,-90.9090909090909,4,2,3,80,0,1
55334,-90.9090909090909,4,2,2,80,0,1
56167,-83.3333333333333,4,2,2,80,0,1
56334,-76.9230769230769,4,2,4,80,0,1
56417,-76.9230769230769,4,2,2,80,0,1
56584,-76.9230769230769,4,2,3,80,0,1
56667,-90.9090909090909,4,2,2,80,0,1
56917,-90.9090909090909,4,2,2,5,0,1
57001,-90.9090909090909,4,2,2,80,0,1
57917,-90.9090909090909,4,2,3,80,0,1
58001,-90.9090909090909,4,2,2,80,0,1
58751,-90.9090909090909,4,2,3,80,0,1
58834,-90.9090909090909,4,2,2,80,0,1
59001,-90.9090909090909,4,2,4,80,0,1
59084,-90.9090909090909,4,2,2,80,0,1
59251,-90.9090909090909,4,2,3,80,0,1
59334,-90.9090909090909,4,2,2,80,0,1
60584,-90.9090909090909,4,2,3,80,0,1
60667,-90.9090909090909,4,2,2,80,0,1
61667,-90.9090909090909,4,2,3,80,0,1
62001,-90.9090909090909,4,2,2,80,0,1
62251,-90.9090909090909,4,2,2,5,0,1
62334,-90.9090909090909,4,2,2,80,0,1
63917,-90.9090909090909,4,2,3,80,0,1
64001,-90.9090909090909,4,2,2,80,0,1
64334,-90.9090909090909,4,2,4,80,0,1
64417,-90.9090909090909,4,2,2,80,0,1
64667,-90.9090909090909,4,2,4,80,0,1
64751,-90.9090909090909,4,2,2,80,0,1
64917,-90.9090909090909,4,2,2,5,0,1
65001,-90.9090909090909,4,2,2,80,0,1
65167,-76.9230769230769,4,2,2,80,0,1
65251,-76.9230769230769,4,2,3,80,0,1
65334,-76.9230769230769,4,2,2,80,0,1
65667,-76.9230769230769,4,2,4,80,0,1
65751,-76.9230769230769,4,2,2,80,0,1
65834,-76.9230769230769,4,2,2,80,0,1
66584,-90.9090909090909,4,2,3,80,0,1
66667,-76.9230769230769,4,2,2,80,0,1
67167,-76.9230769230769,4,2,3,80,0,1
67334,-90.9090909090909,4,2,2,80,0,1
67917,-90.9090909090909,4,2,3,80,0,1
68001,-90.9090909090909,4,2,2,80,0,1
68334,-90.9090909090909,4,2,4,80,0,1
68417,-90.9090909090909,4,2,2,80,0,1
68584,-90.9090909090909,4,2,3,80,0,1
68667,-90.9090909090909,4,2,2,80,0,1
69001,-71.4285714285714,4,2,2,80,0,1
69167,-71.4285714285714,4,2,3,80,0,1
69334,-90.9090909090909,4,2,2,80,0,1
69667,-90.9090909090909,4,2,4,80,0,1
69751,-90.9090909090909,4,2,2,80,0,1
70584,-90.9090909090909,4,2,3,80,0,1
70667,-76.9230769230769,4,2,2,80,0,1
70834,-90.9090909090909,4,2,2,80,0,1
71001,-76.9230769230769,4,2,2,80,0,1
71251,-76.9230769230769,4,2,3,80,0,1
71334,-90.9090909090909,4,2,2,80,0,1
72001,-71.4285714285714,4,2,2,80,0,1
72167,-71.4285714285714,4,2,2,80,0,1
72334,-71.4285714285714,4,2,3,80,0,1
72667,-100,4,2,2,75,0,0
73501,-80,4,2,2,75,0,0
74084,-80,4,2,2,5,0,0
74167,-100,4,2,2,75,0,0
75334,-90.9090909090909,4,2,2,75,0,0
76501,-80,4,2,2,75,0,0
76751,-80,4,2,2,5,0,0
76834,-80,4,2,2,75,0,0
78001,-66.6666666666667,4,2,2,75,0,0
78501,-80,4,2,2,75,0,0
78751,-80,4,2,2,5,0,0
78834,-80,4,2,2,75,0,0
78917,-80,4,2,2,5,0,0
79001,-80,4,2,2,75,0,0
79084,-80,4,2,2,5,0,0
79167,-142.857142857143,4,2,2,75,0,0
79834,-142.857142857143,4,2,2,55,0,0
80084,-142.857142857143,4,2,2,55,0,0
80667,-142.857142857143,4,2,2,45,0,0
90751,-142.857142857143,4,2,3,45,0,0
90917,-142.857142857143,4,2,2,45,0,0
91001,-142.857142857143,4,2,3,45,0,0
91167,-142.857142857143,4,2,2,45,0,0
91334,-117.647058823529,4,2,4,60,0,0
91584,-117.647058823529,4,2,4,5,0,0
91667,-117.647058823529,4,2,4,60,0,0
91917,-117.647058823529,4,2,3,60,0,0
92001,-117.647058823529,4,2,4,60,0,0
93251,-117.647058823529,4,2,3,60,0,0
93334,-117.647058823529,4,2,4,60,0,0
93917,-117.647058823529,4,2,4,5,0,0
94001,-117.647058823529,4,2,4,60,0,0
94584,-117.647058823529,4,2,3,60,0,0
94667,-117.647058823529,4,2,4,60,0,0
95917,-117.647058823529,4,2,3,60,0,0
96001,-117.647058823529,4,2,4,60,0,0
96917,-117.647058823529,4,2,4,5,0,0
97001,-117.647058823529,4,2,4,60,0,0
97251,-117.647058823529,4,2,3,60,0,0
97334,-117.647058823529,4,2,4,60,0,0
98584,-117.647058823529,4,2,3,60,0,0
98667,-117.647058823529,4,2,4,60,0,0
99334,-105.263157894737,4,2,4,60,0,0
99501,-117.647058823529,4,2,4,60,0,0
99834,-117.647058823529,4,2,3,60,0,0
100001,-117.647058823529,4,2,4,60,0,0
100834,-117.647058823529,4,2,3,60,0,0
101001,-117.647058823529,4,2,4,60,0,0
102001,-111.111111111111,4,2,2,70,0,0
103917,-111.111111111111,4,2,3,70,0,0
104084,-111.111111111111,4,2,2,70,0,0
104334,-111.111111111111,4,2,4,70,0,0
104501,-111.111111111111,4,2,2,70,0,0
105501,-99.9999999999999,4,2,2,70,0,0
106779,-99.9999999999999,4,2,3,70,0,0
106890,-99.9999999999999,4,2,4,70,0,0
107334,-111.111111111111,4,2,4,65,0,0
107917,-111.111111111111,4,2,3,65,0,0
108001,-111.111111111111,4,2,4,65,0,0
108501,-111.111111111111,4,2,3,65,0,0
108667,-111.111111111111,4,2,4,65,0,0
110001,-99.9999999999999,4,2,2,65,0,0
110584,-99.9999999999999,4,2,3,65,0,0
110667,-99.9999999999999,4,2,2,65,0,0
111917,-99.9999999999999,4,2,3,65,0,0
112001,-99.9999999999999,4,2,2,65,0,0
112667,-83.3333333333333,4,2,2,75,0,0
113417,-83.3333333333333,4,2,2,5,0,0
113501,-83.3333333333333,4,2,2,75,0,0
113751,-83.3333333333333,4,2,3,75,0,0
113834,-83.3333333333333,4,2,2,75,0,0
114251,-83.3333333333333,4,2,3,75,0,0
114334,-83.3333333333333,4,2,2,75,0,0
114501,-83.3333333333333,4,2,3,75,0,0
114667,-83.3333333333333,4,2,2,75,0,0
115251,-83.3333333333333,4,2,2,5,0,0
115334,-95.2380952380952,4,2,2,80,0,1
115834,-95.2380952380952,4,2,3,80,0,1
116001,-95.2380952380952,4,2,2,80,0,1
116667,-95.2380952380952,4,2,4,80,0,1
116751,-95.2380952380952,4,2,2,80,0,1
117001,-95.2380952380952,4,2,4,80,0,1
117084,-95.2380952380952,4,2,2,80,0,1
117334,-95.2380952380952,4,2,4,80,0,1
117417,-95.2380952380952,4,2,2,80,0,1
119167,-95.2380952380952,4,2,3,80,0,1
119334,-95.2380952380952,4,2,4,80,0,1
119417,-95.2380952380952,4,2,2,80,0,1
119667,-95.2380952380952,4,2,4,80,0,1
119751,-95.2380952380952,4,2,2,80,0,1
120001,-95.2380952380952,4,2,4,80,0,1
120084,-95.2380952380952,4,2,2,80,0,1
120334,-95.2380952380952,4,2,4,80,0,1
120417,-95.2380952380952,4,2,2,80,0,1
120501,-95.2380952380952,4,2,3,80,0,1
120667,-80,4,2,2,80,0,1
121001,-95.2380952380952,4,2,2,80,0,1
121917,-95.2380952380952,4,2,3,80,0,1
122001,-80,4,2,2,80,0,1
122584,-80,4,2,3,80,0,1
122667,-80,4,2,2,80,0,1
122751,-80,4,2,3,80,0,1
122834,-80,4,2,2,80,0,1
123251,-80,4,2,3,80,0,1
123334,-80,4,2,2,80,0,1
123667,-80,4,2,4,80,0,1
123751,-80,4,2,2,80,0,1
123917,-80,4,2,3,80,0,1
124001,-80,4,2,2,80,0,1
124334,-117.647058823529,4,2,4,80,0,1
124417,-117.647058823529,4,2,2,80,0,1
124501,-117.647058823529,4,2,3,80,0,1
124667,-95.2380952380952,4,2,2,80,0,1
125251,-95.2380952380952,4,2,3,80,0,1
125334,-95.2380952380952,4,2,2,80,0,1
125584,-95.2380952380952,4,2,3,80,0,1
125834,-95.2380952380952,4,2,2,80,0,1
126001,-95.2380952380952,4,2,5,80,0,1
126084,-95.2380952380952,4,2,2,80,0,1
126167,-95.2380952380952,4,2,2,80,0,1
126584,-95.2380952380952,4,2,3,80,0,1
126667,-95.2380952380952,4,2,2,80,0,1
127251,-95.2380952380952,4,2,3,80,0,1
127334,-95.2380952380952,4,2,2,80,0,1
127917,-95.2380952380952,4,2,3,80,0,1
128001,-95.2380952380952,4,2,2,80,0,1
128584,-95.2380952380952,4,2,3,80,0,1
128667,-95.2380952380952,4,2,2,80,0,1
129834,-80,4,2,2,80,0,1
130167,-95.2380952380952,4,2,2,80,0,1
131167,-95.2380952380952,4,2,3,80,0,1
131334,-95.2380952380952,4,2,2,80,0,1
131917,-95.2380952380952,4,2,3,80,0,1
132001,-95.2380952380952,4,2,2,80,0,1
132584,-95.2380952380952,4,2,3,80,0,1
132667,-95.2380952380952,4,2,2,80,0,1
133251,-95.2380952380952,4,2,3,80,0,1
133334,-95.2380952380952,4,2,2,80,0,1
133417,-95.2380952380952,4,2,3,80,0,1
133501,-95.2380952380952,4,2,2,80,0,1
133834,-95.2380952380952,4,2,3,80,0,1
134001,-80,4,2,2,80,0,1
134251,-95.2380952380952,4,2,2,80,0,1
134584,-95.2380952380952,4,2,3,80,0,1
134667,-95.2380952380952,4,2,2,80,0,1
135167,-95.2380952380952,4,2,3,80,0,1
135334,-68.9655172413793,4,2,2,80,0,1
136334,-68.9655172413793,4,2,3,80,0,1
136667,-95.2380952380952,4,2,2,75,0,0
139167,-95.2380952380952,4,2,3,75,0,0
139334,-95.2380952380952,4,2,2,75,0,0
139584,-95.2380952380952,4,2,2,5,0,0
139667,-95.2380952380952,4,2,2,75,0,0
141167,-86.9565217391304,4,2,2,75,0,0
141334,-68.9655172413793,4,2,2,75,0,0
141667,-80,4,2,2,75,0,0
141834,-80,4,2,3,75,0,0
142001,-86.9565217391304,4,2,2,75,0,0
142334,-95.2380952380952,4,2,2,75,0,0
143334,-86.9565217391304,4,2,2,75,0,0
143667,-95.2380952380952,4,2,2,75,0,0
143917,-95.2380952380952,4,2,3,75,0,0
144001,-95.2380952380952,4,2,2,75,0,0
144501,-95.2380952380952,4,2,3,75,0,0
144667,-80,4,2,2,75,0,0
145001,-95.2380952380952,4,2,2,75,0,0
145167,-95.2380952380952,4,2,3,75,0,0
145251,-95.2380952380952,4,2,2,75,0,0
145834,-95.2380952380952,4,2,3,75,0,0
146001,-95.2380952380952,4,2,2,75,0,0
147001,-80,4,2,2,75,0,0
147334,-100,4,2,2,75,0,0
148167,-80,4,2,2,75,0,0
148834,-100,4,2,2,75,0,0
150001,-90.9090909090909,4,2,2,75,0,0
150501,-100,4,2,2,75,0,0
150667,-90.9090909090909,4,2,2,75,0,0
151167,-80,4,2,2,75,0,0
152667,-66.6666666666667,4,2,2,75,0,0
153167,-80,4,2,2,75,0,0
153417,-80,4,2,2,5,0,0
153501,-80,4,2,2,75,0,0
153584,-80,4,2,2,5,0,0
153667,-80,4,2,2,75,0,0
153751,-80,4,2,2,5,0,0
153834,-142.857142857143,4,2,2,75,0,0
154501,-142.857142857143,4,2,2,55,0,0
154751,-142.857142857143,4,2,2,55,0,0
155334,-100,4,2,2,70,0,0
157251,-100,4,2,3,70,0,0
157417,-100,4,2,2,70,0,0
157667,-100,4,2,4,70,0,0
157751,-100,4,2,2,70,0,0
159917,-100,4,2,3,70,0,0
160001,-100,4,2,2,70,0,0
160667,-111.111111111111,4,2,4,65,0,0
161251,-111.111111111111,4,2,3,65,0,0
161334,-111.111111111111,4,2,4,65,0,0
161834,-111.111111111111,4,2,3,65,0,0
162001,-111.111111111111,4,2,4,65,0,0
163334,-99.9999999999999,4,2,2,65,0,0
163917,-99.9999999999999,4,2,3,65,0,0
164001,-99.9999999999999,4,2,2,65,0,0
165251,-99.9999999999999,4,2,3,65,0,0
165334,-99.9999999999999,4,2,2,65,0,0
166001,-83.3333333333333,4,2,2,75,0,0
166751,-83.3333333333333,4,2,2,5,0,0
166834,-83.3333333333333,4,2,2,75,0,0
167084,-83.3333333333333,4,2,3,75,0,0
167167,-83.3333333333333,4,2,2,75,0,0
167417,-83.3333333333333,4,2,2,5,0,0
167501,-83.3333333333333,4,2,2,75,0,0
167584,-83.3333333333333,4,2,3,75,0,0
167667,-83.3333333333333,4,2,2,75,0,0
168001,-83.3333333333333,4,2,3,75,0,0
168167,-83.3333333333333,4,2,2,75,0,0
168584,-83.3333333333333,4,2,2,5,0,0
168667,-83.3333333333333,4,2,6,60,0,0
168751,-83.3333333333333,4,2,2,60,0,0
174001,-111.111111111111,4,2,2,60,0,0
174251,-111.111111111111,4,2,2,5,0,0
174334,-111.111111111111,4,2,2,60,0,0
174445,-111.111111111111,4,2,3,60,0,0
174667,-111.111111111111,4,2,2,60,0,0
175112,-111.111111111111,4,2,3,60,0,0
175334,-111.111111111111,4,2,2,60,0,0
175779,-111.111111111111,4,2,3,60,0,0
176001,-111.111111111111,4,2,2,60,0,0
176445,-111.111111111111,4,2,3,60,0,0
176667,-111.111111111111,4,2,2,60,0,0
177112,-111.111111111111,4,2,3,60,0,0
177334,-111.111111111111,4,2,2,60,0,0
177779,-111.111111111111,4,2,3,60,0,0
178001,-111.111111111111,4,2,2,60,0,0
178667,-111.111111111111,4,2,2,75,0,0
178834,-83.3333333333333,4,2,2,75,0,0
179251,-83.3333333333333,4,2,2,5,0,0
179334,-90.9090909090909,4,2,2,80,0,1
179584,-90.9090909090909,4,2,2,5,0,1
179667,-90.9090909090909,4,2,2,80,0,1
181251,-90.9090909090909,4,2,2,5,0,1
181334,-90.9090909090909,4,2,2,80,0,1
181917,-90.9090909090909,4,2,3,80,0,1
182001,-90.9090909090909,4,2,2,80,0,1
182334,-90.9090909090909,4,2,4,80,0,1
182417,-90.9090909090909,4,2,2,80,0,1
182584,-90.9090909090909,4,2,3,80,0,1
182667,-90.9090909090909,4,2,2,80,0,1
183001,-90.9090909090909,4,2,4,80,0,1
183084,-90.9090909090909,4,2,2,80,0,1
183251,-90.9090909090909,4,2,3,80,0,1
183334,-90.9090909090909,4,2,2,80,0,1
184167,-83.3333333333333,4,2,2,80,0,1
184334,-76.9230769230769,4,2,4,80,0,1
184417,-76.9230769230769,4,2,2,80,0,1
184584,-76.9230769230769,4,2,3,80,0,1
184667,-80,4,2,2,80,0,1
184917,-80,4,2,2,5,0,1
185001,-90.9090909090909,4,2,2,80,0,1
185917,-90.9090909090909,4,2,3,80,0,1
186001,-90.9090909090909,4,2,2,80,0,1
186751,-90.9090909090909,4,2,3,80,0,1
186834,-90.9090909090909,4,2,2,80,0,1
187001,-90.9090909090909,4,2,4,80,0,1
187084,-90.9090909090909,4,2,2,80,0,1
187251,-90.9090909090909,4,2,3,80,0,1
187334,-90.9090909090909,4,2,2,80,0,1
188584,-90.9090909090909,4,2,3,80,0,1
188667,-90.9090909090909,4,2,2,80,0,1
189667,-90.9090909090909,4,2,3,80,0,1
190001,-90.9090909090909,4,2,2,80,0,1
190251,-90.9090909090909,4,2,2,5,0,1
190334,-90.9090909090909,4,2,2,80,0,1
191917,-90.9090909090909,4,2,3,80,0,1
192001,-90.9090909090909,4,2,2,80,0,1
192334,-90.9090909090909,4,2,4,80,0,1
192417,-90.9090909090909,4,2,2,80,0,1
192667,-90.9090909090909,4,2,4,80,0,1
192751,-90.9090909090909,4,2,2,80,0,1
192917,-90.9090909090909,4,2,2,5,0,1
193001,-90.9090909090909,4,2,2,80,0,1
193167,-76.9230769230769,4,2,2,80,0,1
193251,-76.9230769230769,4,2,3,80,0,1
193334,-90.9090909090909,4,2,2,80,0,1
193667,-90.9090909090909,4,2,4,80,0,1
193751,-76.9230769230769,4,2,2,80,0,1
194584,-90.9090909090909,4,2,3,80,0,1
194667,-76.9230769230769,4,2,2,80,0,1
195167,-76.9230769230769,4,2,3,80,0,1
195334,-90.9090909090909,4,2,2,80,0,1
195917,-90.9090909090909,4,2,3,80,0,1
196001,-90.9090909090909,4,2,2,80,0,1
196334,-90.9090909090909,4,2,4,80,0,1
196417,-90.9090909090909,4,2,2,80,0,1
196584,-90.9090909090909,4,2,3,80,0,1
196667,-90.9090909090909,4,2,2,80,0,1
197001,-71.4285714285714,4,2,2,80,0,1
197167,-90.9090909090909,4,2,3,80,0,1
197334,-90.9090909090909,4,2,2,80,0,1
198251,-90.9090909090909,4,2,2,5,0,1
198334,-90.9090909090909,4,2,2,80,0,1
198584,-90.9090909090909,4,2,3,80,0,1
198667,-76.9230769230769,4,2,2,80,0,1
198834,-90.9090909090909,4,2,2,80,0,1
199001,-76.9230769230769,4,2,2,80,0,1
199251,-76.9230769230769,4,2,3,80,0,1
199334,-90.9090909090909,4,2,2,80,0,1
200001,-90.9090909090909,4,2,3,80,0,1
200334,-90.9090909090909,4,2,2,80,0,1
200667,-100,4,2,2,75,0,0
201501,-80,4,2,2,75,0,0
202084,-80,4,2,2,5,0,0
202167,-100,4,2,2,75,0,0
203334,-90.9090909090909,4,2,2,75,0,0
204501,-80,4,2,2,75,0,0
204751,-80,4,2,2,5,0,0
204834,-80,4,2,2,75,0,0
206001,-76.9230769230769,4,2,2,75,0,0
206167,-100,4,2,2,75,0,0
207334,-90.9090909090909,4,2,2,75,0,0
207501,-90.9090909090909,4,2,3,75,0,0
207667,-76.9230769230769,4,2,2,75,0,0
207834,-71.4285714285714,4,2,3,75,0,0
208001,-71.4285714285714,4,2,2,75,0,0
208167,-100,4,2,3,75,0,0
208334,-100,4,2,2,75,0,0
208417,-100,4,2,3,75,0,0
208667,-100,4,2,2,75,0,0
209501,-80,4,2,2,75,0,0
210167,-100,4,2,2,75,0,0
211334,-90.9090909090909,4,2,2,75,0,0
212501,-80,4,2,2,75,0,0
213501,-76.9230769230769,4,2,2,75,0,0
214001,-66.6666666666667,4,2,2,75,0,0
214501,-80,4,2,2,75,0,0
215167,-142.857142857143,4,2,2,75,0,0
216084,-142.857142857143,4,2,2,55,0,0
216667,-256.410256410256,4,2,6,50,0,0
216751,-256.410256410256,4,2,6,30,0,0
218334,-256.410256410256,4,2,6,20,0,0
219667,-256.410256410256,4,2,6,10,0,0
221667,-256.410256410256,4,2,6,5,0,0
221834,-256.410256410256,4,2,3,30,0,0
222084,-256.410256410256,4,2,2,30,0,0

[Colours]
Combo1 : 150,185,220
Combo2 : 240,140,140
Combo3 : 150,233,160
Combo4 : 240,205,163

[HitObjects]
124,59,668,6,0,P|95:117|108:176,1,125.999996154785,2|0,3:2|3:2,0:0:0:0:
204,215,1167,1,2,3:2:0:0:
204,215,1501,1,0,0:0:0:0:
74,289,1667,1,2,0:0:0:0:
74,289,2001,5,0,3:2:0:0:
155,338,2167,2,0,P|189:344|218:350,1,62.9999980773926,2|0,3:2|3:2,0:0:0:0:
286,289,2501,1,0,3:2:0:0:
448,335,2667,2,0,P|373:332|330:387,1,125.999996154785,2|2,3:2|0:0,0:0:0:0:
123,213,3167,5,2,0:0:0:0:
122,213,3251,1,2,0:0:0:0:
122,213,3334,2,0,B|102:197|103:171|103:171|130:124|132:76,1,125.999996154785,2|0,3:2|3:2,0:0:0:0:
50,26,3834,1,2,3:2:0:0:
50,26,4167,1,2,3:2:0:0:
140,112,4334,1,0,0:0:0:0:
256,67,4501,1,2,0:0:0:0:
256,67,4834,5,2,3:2:0:0:
189,189,5001,1,2,3:2:0:0:
267,268,5167,1,2,3:2:0:0:
267,268,5251,1,2,0:0:0:0:
267,268,5334,1,2,0:0:0:0:
330,210,5501,1,0,3:2:0:0:
169,184,5667,2,0,P|130:175|98:169,1,62.9999980773926,2|0,0:0|0:0,0:0:0:0:
34,328,6001,6,0,P|34:364|65:392,1,62.9999980773926,2|0,0:0|0:0,0:0:0:0:
147,297,6334,2,0,P|164:322|162:353,1,62.9999980773926,2|0,0:0|0:0,0:0:0:0:
360,384,6667,5,2,0:0:0:0:
456,343,6834,1,0,0:0:0:0:
446,239,7001,1,2,0:0:0:0:
346,217,7167,1,0,0:0:0:0:
292,306,7334,1,2,0:0:0:0:
256,192,7417,12,0,8334,0:0:0:0:
292,306,8667,6,0,P|271:266|290:202,1,90,6|0,1:1|0:0,0:0:0:0:
396,99,9001,1,8,0:0:0:0:
290,19,9167,1,2,1:2:0:0:
290,19,9251,1,2,0:0:0:0:
290,19,9334,1,10,0:0:0:0:
411,111,9501,2,0,P|430:139|436:167,1,56.25,0|0,1:2|0:0,0:0:0:0:
281,317,9667,1,10,0:0:0:0:
431,363,9834,6,0,P|358:313|272:320,1,168.75,6|0,1:2|0:0,0:0:0:0:
237,384,10167,1,0,1:2:0:0:
302,202,10334,1,8,0:0:0:0:
208,271,10501,1,0,1:2:0:0:
175,286,10584,1,0,1:2:0:0:
140,280,10667,1,10,0:0:0:0:
397,131,10834,2,0,P|407:100|419:77,1,45,0|0,1:2|1:2,0:0:0:0:
338,7,11001,1,10,0:0:0:0:
157,118,11167,5,0,1:2:0:0:
157,118,11251,1,2,0:0:0:0:
157,118,11334,2,0,P|108:133|48:142,1,99.0000030212403,6|0,1:1|0:0,0:0:0:0:
339,230,11667,1,8,0:0:0:0:
255,284,11834,2,0,P|228:274|206:270,1,49.5000015106202,2|0,1:2|0:0,0:0:0:0:
389,356,12001,1,8,0:0:0:0:
170,254,12168,1,2,1:2:0:0:
133,262,12251,1,0,1:2:0:0:
108,292,12335,1,10,0:0:0:0:
0,44,12501,6,0,B|16:61|40:63|40:63|101:13|190:34,1,168.75,6|0,1:2|0:0,0:0:0:0:
230,80,12834,1,2,1:2:0:0:
433,10,13001,1,10,0:0:0:0:
358,84,13167,5,2,1:2:0:0:
358,84,13251,1,2,0:0:0:0:
358,84,13334,1,10,0:0:0:0:
476,260,13501,2,0,P|498:239|515:210,1,56.25,2|2,1:2|1:2,0:0:0:0:
297,276,13667,2,0,P|321:290|349:298,1,56.25,10|0,0:0|0:0,0:0:0:0:
435,178,13834,5,6,2:3:0:0:
437,149,13917,1,4,2:3:0:0:
431,122,14001,2,0,P|417:91|388:68,1,67.5000025749208,6|0,1:2|0:0,0:0:0:0:
227,197,14167,1,2,0:0:0:0:
108,100,14334,1,10,0:0:0:0:
118,383,14501,6,0,P|151:328|144:226,1,168.75,2|0,1:2|0:0,0:0:0:0:
97,154,14834,2,0,P|98:126|108:100,1,56.25,2|0,1:2|0:0,0:0:0:0:
275,133,15001,2,0,P|273:165|264:188,1,56.25,4|0,2:3|0:0,0:0:0:0:
131,240,15167,6,0,B|200:208|254:270|248:275|243:280|289:336|364:313,1,251.999992309571,6|0,3:1|0:0,0:0:0:0:
489,293,16084,5,2,0:0:0:0:
489,293,16223,6,0,P|442:316|441:373,1,104.999996795654,2|0,0:0|0:0,0:0:0:0:
395,244,16667,6,0,P|377:175|353:127,1,125.999996154785,0|0,1:2|1:2,0:0:0:0:
364,48,17167,1,2,0:0:0:0:
271,134,17334,2,0,B|244:151|244:151|213:147,1,62.9999980773926,2|2,1:2|0:0,0:0:0:0:
86,182,17667,1,2,1:2:0:0:
137,119,17834,1,2,0:0:0:0:
208,227,18001,2,0,L|227:351,1,125.999996154785,0|0,1:2|1:2,0:0:0:0:
391,97,18667,1,2,1:2:0:0:
391,97,19001,6,0,P|409:70|408:36,1,62.9999980773926,2|0,1:2|0:0,0:0:0:0:
376,210,19334,2,0,P|415:174|498:167,1,125.999996154785,2|2,1:2|1:2,0:0:0:0:
236,56,19834,2,0,P|259:114|309:152,1,125.999996154785,2|0,0:0|3:2,0:0:0:0:
391,97,20334,1,0,1:2:0:0:
292,236,20501,1,0,3:2:0:0:
357,298,20667,5,0,1:2:0:0:
228,366,21000,1,0,1:2:0:0:
292,236,21334,1,0,1:2:0:0:
318,378,21668,1,0,1:2:0:0:
213,279,22001,6,0,P|186:228|200:153,1,125.999996154785,0|0,1:2|1:2,0:0:0:0:
381,12,22667,1,2,1:2:0:0:
381,12,23001,1,2,1:2:0:0:
306,78,23167,1,2,0:0:0:0:
207,62,23334,2,0,P|194:31|196:-4,1,62.9999980773926,0|0,1:2|0:0,0:0:0:0:
307,154,23667,2,0,P|320:123|318:88,1,62.9999980773926,2|0,1:2|0:0,0:0:0:0:
156,204,24001,6,0,B|94:194|94:242|36:233,1,125.999996154785,2|2,1:2|1:2,0:0:0:0:
37,233,24667,2,0,P|51:193|51:164,1,62.9999980773926,2|0,1:2|0:0,0:0:0:0:
148,287,25001,1,2,1:2:0:0:
230,251,25167,1,2,0:0:0:0:
85,382,25334,2,0,P|69:348|68:306,2,62.9999980773926,0|0|0,1:2|0:0|1:2,0:0:0:0:
148,287,25834,1,0,0:0:0:0:
294,355,26001,5,2,1:2:0:0:
381,339,26167,1,2,2:3:0:0:
392,251,26334,1,2,1:3:0:0:
312,212,26501,2,0,L|321:277,1,62.9999980773926,2|2,0:0|1:3,0:0:0:0:
461,378,26834,1,0,0:0:0:0:
490,147,27001,2,0,L|495:91,1,53.9999983520508,6|2,1:3|0:0,0:0:0:0:
294,355,27334,6,0,P|235:320|181:324,1,114.750002188683,4|0,1:2|0:0,0:0:0:0:
138,380,27667,1,8,0:0:0:0:
2,275,27834,1,2,0:0:0:0:
2,275,27917,1,0,1:2:0:0:
2,275,28001,1,0,2:0:0:0:
118,193,28167,1,2,1:2:0:0:
53,384,28334,2,0,P|61:347|73:311,1,76.5000014591217,8|0,0:0|0:0,0:0:0:0:
241,179,28667,5,2,1:2:0:0:
294,99,28834,1,0,1:2:0:0:
174,15,29001,2,0,P|185:51|193:88,1,76.5000014591217,8|2,0:0|0:0,0:0:0:0:
193,88,29251,1,0,1:2:0:0:
193,88,29334,1,0,2:2:0:0:
345,23,29501,1,0,1:2:0:0:
240,179,29667,2,0,P|223:233|212:289,1,114.750002188683,8|0,0:0|0:0,0:0:0:0:
270,347,30001,6,0,P|318:348|343:324,1,76.5000014591217,2|0,1:2|1:2,0:0:0:0:
198,282,30334,1,10,0:0:0:0:
115,324,30501,1,2,0:0:0:0:
115,324,30584,1,0,1:2:0:0:
115,324,30667,1,0,2:2:0:0:
226,186,30834,1,2,1:2:0:0:
77,125,31001,2,0,P|87:156|99:203,1,76.5000014591217,8|2,0:0|0:0,0:0:0:0:
98,198,31334,5,0,1:2:0:0:
0,153,31501,1,0,1:2:0:0:
161,86,31667,2,0,P|170:48|182:12,1,76.5000014591217,10|2,0:0|0:0,0:0:0:0:
182,12,31917,1,0,1:2:0:0:
182,12,32001,1,0,2:2:0:0:
89,32,32167,1,2,1:2:0:0:
205,164,32334,2,0,B|243:159|243:159|281:182,1,76.5000014591217,10|0,0:0|0:0,0:0:0:0:
512,5,32667,6,0,B|462:35|462:35|406:27,1,114.750002188683,6|0,1:1|0:0,0:0:0:0:
324,0,33001,1,8,0:0:0:0:
457,138,33167,1,2,0:0:0:0:
457,138,33251,1,0,1:2:0:0:
457,138,33334,2,0,P|477:176|473:210,1,76.5000014591217,0|0,2:2|1:2,0:0:0:0:
264,289,33667,1,10,0:0:0:0:
327,349,33834,2,0,P|332:323|344:305,1,38.2500007295609
208,188,34001,6,0,P|243:153|270:143,1,76.5000014591217,6|0,1:1|1:2,0:0:0:0:
180,78,34334,1,8,0:0:0:0:
52,236,34501,1,2,0:0:0:0:
52,236,34584,1,0,1:2:0:0:
52,236,34667,2,0,P|94:260|123:263,1,76.5000014591217,0|0,0:0|1:2,0:0:0:0:
353,193,35001,1,8,0:0:0:0:
292,265,35167,1,0,0:0:0:0:
497,150,35334,6,0,P|449:122|418:119,1,85.4999977169037,6|0,1:1|1:2,0:0:0:0:
292,265,35667,1,10,0:0:0:0:
291,134,35834,1,2,1:2:0:0:
291,134,35917,1,0,1:2:0:0:
291,134,36001,1,2,0:0:0:0:
426,264,36167,1,0,1:2:0:0:
239,338,36334,2,0,L|150:322,1,76.5000014591217,10|2,0:0|0:0,0:0:0:0:
44,139,36667,5,2,1:2:0:0:
4,239,36834,1,2,1:2:0:0:
69,323,37001,1,10,0:0:0:0:
228,111,37167,5,6,1:3:0:0:
228,111,37251,1,4,1:3:0:0:
228,111,37334,1,4,1:3:0:0:
253,295,37500,5,10,1:3:0:0:
293,195,37667,1,0,1:2:0:0:
228,111,37834,1,12,1:3:0:0:
442,20,38001,6,0,P|424:110|412:184,1,161.999995056153,4|8,1:1|0:0,0:0:0:0:
504,342,38501,2,0,B|533:315|518:254|481:242|481:242|462:267|427:273,1,161.999995056153,4|8,1:1|0:0,0:0:0:0:
263,314,39001,2,0,P|241:307|210:301,1,40.4999987640381,8|0,0:0|0:0,0:0:0:0:
107,353,39167,6,0,P|186:325|276:314,1,161.999995056153,4|0,1:1|1:2,0:0:0:0:
372,197,39667,1,10,0:0:0:0:
238,96,39834,1,0,1:2:0:0:
238,96,39917,1,0,1:2:0:0:
238,96,40001,1,2,1:2:0:0:
271,184,40167,2,0,P|279:207|286:235,1,40.4999987640381,8|0,0:0|0:0,0:0:0:0:
137,103,40334,2,0,P|141:60|164:23,1,80.9999975280763,10|4,1:3|1:3,0:0:0:0:
61,314,40667,6,0,P|25:289|5:250,1,80.9999975280763,4|8,1:1|1:3,0:0:0:0:
7,256,40917,1,8,1:3:0:0:
7,256,41001,1,0,1:2:0:0:
209,376,41167,2,0,P|189:385|167:384,2,40.4999987640381,4|4|0,1:3|1:3|1:2,0:0:0:0:
315,211,41501,2,0,P|255:188|214:191,1,90,2|2,3:2|1:2,0:0:0:0:
512,349,41834,6,0,B|422:340|427:399|322:382,1,180,4|0,1:1|1:2,0:0:0:0:
457,197,42334,2,0,P|467:172|472:144,1,45,8|0,0:0|0:0,0:0:0:0:
286,51,42501,1,4,1:3:0:0:
260,65,42584,1,0,1:2:0:0:
239,87,42667,1,8,1:3:0:0:
227,114,42751,1,8,1:3:0:0:
223,144,42834,1,4,1:3:0:0:
229,172,42917,1,4,1:3:0:0:
244,199,43001,2,0,P|285:212|315:204,1,72,4|0,1:1|0:0,0:0:0:0:
99,5,43334,6,0,P|17:48|9:132,1,161.999995056153,4|0,1:2|3:2,0:0:0:0:
0,128,43834,2,0,P|19:119|51:115,1,40.4999987640381,0|0,1:2|1:2,0:0:0:0:
213,178,44001,2,0,B|300:180|289:216|370:224,1,161.999995056153,8|0,1:2|3:2,0:0:0:0:
484,142,44501,5,0,1:2:0:0:
484,142,44584,1,0,1:2:0:0:
484,142,44667,1,0,1:2:0:0:
353,237,44834,1,4,1:3:0:0:
468,301,45001,2,0,P|462:251|454:211,1,80.9999975280763,0|4,3:2|1:3,0:0:0:0:
288,34,45334,1,8,0:0:0:0:
187,116,45501,1,4,1:3:0:0:
62,84,45667,1,0,3:2:0:0:
62,84,46001,6,0,P|26:153|66:249,1,180,6|8,1:1|0:0,0:0:0:0:
202,256,46501,2,0,P|176:250|158:242,1,45,2|0,0:0|1:2,0:0:0:0:
24,359,46667,2,0,P|76:340|113:330,1,90,0|0,1:3|1:3,0:0:0:0:
396,205,47001,1,10,0:0:0:0:
313,137,47167,1,0,0:0:0:0:
473,164,47334,5,0,1:3:0:0:
295,252,47501,1,2,1:3:0:0:
473,164,47667,2,0,P|480:124|461:79,1,90,10|0,0:0|0:0,0:0:0:0:
461,79,47917,1,0,1:2:0:0:
461,79,48001,1,2,1:2:0:0:
313,137,48167,1,0,1:3:0:0:
118,70,48334,2,0,P|163:77|207:88,1,90,10|0,0:0|0:0,0:0:0:0:
498,272,48667,5,6,1:2:0:0:
458,37,48834,1,4,1:3:0:0:
263,311,49001,1,10,0:0:0:0:
223,77,49167,2,0,B|254:65|254:65|291:83|313:143|284:188,1,161.999995056153,6|0,1:2|0:0,0:0:0:0:
202,237,49501,5,8,1:2:0:0:
488,139,49667,1,2,0:0:0:0:
202,237,49834,6,0,B|97:219|101:310|-10:286,1,215.999993408203,6|2,1:2|0:0,0:0:0:0:
380,368,50334,5,10,0:0:0:0:
381,351,50417,1,0,0:0:0:0:
383,335,50500,1,2,1:2:0:0:
387,320,50584,1,2,1:2:0:0:
393,305,50667,2,0,P|405:267|403:240,1,53.9999983520508,10|8,0:0|0:0,0:0:0:0:
246,62,50834,5,8,1:3:0:0:
246,62,50917,1,8,1:3:0:0:
246,62,51001,2,0,B|207:102|207:102|336:70,1,161.999995056153,8|0,0:0|0:0,0:0:0:0:
403,131,51334,6,0,P|440:191|405:253,1,148.50000453186,6|0,1:2|0:0,0:0:0:0:
320,225,51667,2,0,B|270:219|270:219|215:253,1,99.0000030212403,10|0,0:0|0:0,0:0:0:0:
6,164,52001,1,2,1:2:0:0:
120,289,52167,1,0,1:2:0:0:
120,289,52251,1,0,1:2:0:0:
120,289,52334,1,10,0:0:0:0:
213,59,52501,1,2,0:0:0:0:
112,181,52667,6,0,P|87:135|98:82,1,99.0000030212403,0|0,1:2|0:0,0:0:0:0:
327,277,53001,2,0,P|263:350|206:347,1,148.50000453186,10|0,0:0|0:0,0:0:0:0:
141,290,53334,1,2,1:2:0:0:
396,384,53501,1,0,1:2:0:0:
396,384,53584,1,0,1:2:0:0:
396,384,53667,1,10,0:0:0:0:
512,299,53834,1,2,0:0:0:0:
424,137,54001,6,0,P|373:151|386:192,1,99.0000030212403,2|0,1:2|1:2,0:0:0:0:
498,116,54334,2,0,P|498:84|475:57,1,49.5000015106202,8|0,3:2|0:0,0:0:0:0:
287,208,54501,2,0,P|327:250|375:265,1,99.0000030212403,2|0,0:0|1:2,0:0:0:0:
364,263,54751,1,0,1:0:0:0:
364,263,54834,1,0,1:2:0:0:
188,376,55001,6,0,B|171:350|135:352|135:352|92:388|30:386,1,148.50000453186,8|0,3:2|1:2,0:0:0:0:
0,315,55334,1,0,1:2:0:0:
125,247,55501,1,2,0:0:0:0:
125,247,55584,1,2,0:0:0:0:
125,247,55667,1,8,0:0:0:0:
4,173,55834,1,2,0:0:0:0:
137,352,56001,1,2,1:2:0:0:
238,250,56167,6,0,P|242:227|253:192,1,53.9999983520508,0|0,1:2|0:0,0:0:0:0:
155,43,56334,2,0,P|154:100|201:133,1,116.999994644165,8|2,3:2|0:0,0:0:0:0:
259,184,56584,5,0,1:2:0:0:
335,164,56667,2,0,P|409:136|492:121,1,148.50000453186,6|0,1:1|0:0,0:0:0:0:
512,50,57001,1,8,0:0:0:0:
398,225,57167,2,0,P|392:279|432:305,1,99.0000030212403,2|0,0:0|1:2,0:0:0:0:
423,303,57501,1,0,1:2:0:0:
193,343,57667,2,0,B|123:319|120:381|44:361,1,148.50000453186,10|0,0:0|1:2,0:0:0:0:
36,269,58001,6,0,P|5:226|31:173,1,99.0000030212403,6|0,1:1|0:0,0:0:0:0:
207,128,58334,1,10,0:0:0:0:
0,96,58501,1,2,0:0:0:0:
0,96,58584,1,2,0:0:0:0:
0,96,58667,2,0,P|17:76|51:76,1,49.5000015106202,2|0,1:2|1:2,0:0:0:0:
222,120,58834,1,0,1:2:0:0:
17,185,59001,1,10,3:2:0:0:
199,247,59167,5,2,0:0:0:0:
199,247,59251,1,0,1:2:0:0:
199,247,59334,2,0,P|302:233|413:225,1,198.000006042481,6|8,1:1|0:0,0:0:0:0:
484,114,59834,2,0,P|504:89|507:67,1,49.5000015106202,2|2,0:0|0:0,0:0:0:0:
445,17,60001,1,6,1:1:0:0:
392,242,60167,5,0,1:2:0:0:
389,258,60250,1,2,0:0:0:0:
386,274,60334,2,0,P|358:313|423:306,1,148.50000453186,10|0,0:0|1:2,0:0:0:0:
405,169,60667,5,4,1:1:0:0:
168,149,60834,1,0,1:2:0:0:
405,169,61001,5,8,0:0:0:0:
168,149,61167,1,0,1:2:0:0:
502,186,61334,6,0,L|451:178,1,49.5000015106202,10|0,0:0|0:0,0:0:0:0:
74,131,61501,1,0,1:2:0:0:
214,323,61667,5,0,1:2:0:0:
201,287,61750,1,0,1:2:0:0:
206,250,61834,1,0,1:2:0:0:
224,219,61917,1,0,1:2:0:0:
255,198,62001,6,0,B|273:152|273:152|231:112|246:47,1,148.50000453186,6|0,1:2|0:0,0:0:0:0:
357,40,62334,2,0,P|329:95|369:100,1,99.0000030212403,10|0,0:0|0:0,0:0:0:0:
168,149,62667,1,2,1:2:0:0:
58,64,62834,1,0,1:2:0:0:
58,64,62917,1,0,1:2:0:0:
58,64,63001,1,10,0:0:0:0:
206,250,63167,1,2,0:0:0:0:
46,335,63334,6,0,P|98:320|150:311,1,99.0000030212403,0|0,1:2|0:0,0:0:0:0:
395,175,63667,2,0,P|398:141|389:112,1,49.5000015106202,10|2,0:0|0:0,0:0:0:0:
441,253,63834,2,0,P|467:232|481:204,1,49.5000015106202,2|2,0:0|1:2,0:0:0:0:
418,341,64001,1,0,1:2:0:0:
308,153,64167,1,0,1:2:0:0:
441,253,64334,1,10,3:2:0:0:
227,358,64501,5,2,0:0:0:0:
247,324,64584,1,2,0:0:0:0:
286,326,64667,2,0,B|220:324|221:379|150:377,1,148.50000453186,2|0,3:2|0:0,0:0:0:0:
68,333,65001,1,10,0:0:0:0:
243,214,65167,2,0,P|228:240|202:256,1,58.4999973220826,2|0,0:0|1:2,0:0:0:0:
63,195,65334,5,0,1:2:0:0:
13,122,65501,1,0,1:2:0:0:
51,43,65667,1,10,3:2:0:0:
331,145,65834,6,0,B|356:129|372:97|372:97|290:151|200:134,1,233.999989288331,6|0,1:1|1:2,0:0:0:0:
288,41,66334,1,10,0:0:0:0:
478,185,66501,1,0,1:2:0:0:
478,185,66584,1,0,1:2:0:0:
478,185,66667,2,0,P|480:221|459:259,1,58.4999973220826,2|0,1:2|0:0,0:0:0:0:
288,353,66834,2,0,P|322:364|364:353,1,58.4999973220826,0|0,1:2|0:0,0:0:0:0:
456,350,67001,1,10,0:0:0:0:
182,240,67167,5,2,1:2:0:0:
182,240,67251,1,0,1:2:0:0:
182,240,67334,2,0,B|137:262|104:298|104:298|51:280|-10:282,1,198.000006042481,6|10,1:1|0:0,0:0:0:0:
77,189,67834,1,2,0:0:0:0:
53,41,68001,2,0,P|4:66|7:106,1,99.0000030212403,0|0,1:2|1:2,0:0:0:0:
182,240,68334,1,10,3:2:0:0:
61,180,68501,1,2,0:0:0:0:
280,64,68667,5,4,1:1:0:0:
320,188,68834,2,0,P|305:207|299:232,1,49.5000015106202,0|0,1:2|0:0,0:0:0:0:
465,257,69001,2,0,P|449:197|398:164,1,125.999996154785,8|0,0:0|1:2,0:0:0:0:
298,257,69251,1,0,1:2:0:0:
304,279,69334,1,0,1:2:0:0:
446,321,69501,2,0,P|462:299|470:278,1,49.5000015106202,0|0,1:2|0:0,0:0:0:0:
292,82,69667,1,10,3:2:0:0:
189,205,69834,5,2,0:0:0:0:
189,205,69917,1,2,0:0:0:0:
189,205,70001,2,0,B|121:174|97:252|42:234,1,148.50000453186,6|0,1:1|0:0,0:0:0:0:
0,172,70334,1,10,0:0:0:0:
160,282,70501,1,2,0:0:0:0:
18,381,70667,6,0,L|33:306,1,58.4999973220826,4|0,1:1|0:0,0:0:0:0:
72,102,70834,1,0,1:2:0:0:
0,172,71001,2,0,P|7:234|53:236,1,116.999994644165,10|0,0:0|0:0,0:0:0:0:
112,186,71251,5,0,1:2:0:0:
188,196,71334,2,0,P|240:210|292:217,1,99.0000030212403,6|0,1:1|1:2,0:0:0:0:
512,115,71667,5,10,0:0:0:0:
455,277,71834,2,0,L|475:223,1,49.5000015106202,2|2,0:0|0:0,0:0:0:0:
408,32,72001,6,0,L|385:100,1,62.9999980773926,10|0,0:0|0:0,0:0:0:0:
317,292,72167,2,0,L|340:229,1,62.9999980773926,0|0,1:2|1:2,0:0:0:0:
152,29,72334,5,0,1:2:0:0:
116,57,72417,1,0,1:2:0:0:
112,103,72500,1,0,1:2:0:0:
143,137,72583,1,0,1:2:0:0:
189,137,72667,6,0,P|236:122|286:111,1,90,6|0,1:1|0:0,0:0:0:0:
47,290,73001,1,8,0:0:0:0:
160,344,73167,1,2,1:2:0:0:
160,344,73251,1,2,0:0:0:0:
160,344,73334,1,10,0:0:0:0:
0,319,73501,2,0,P|20:300|46:289,1,56.25,0|0,1:2|0:0,0:0:0:0:
333,282,73667,1,10,0:0:0:0:
180,226,73834,6,0,P|249:272|337:281,1,168.75,6|0,1:2|0:0,0:0:0:0:
414,223,74167,1,0,1:2:0:0:
308,384,74334,1,8,0:0:0:0:
426,323,74501,1,0,1:2:0:0:
453,296,74584,1,0,1:2:0:0:
490,290,74667,1,10,0:0:0:0:
209,346,74834,2,0,P|189:358|164:368,1,45,0|0,1:2|1:2,0:0:0:0:
62,384,75001,1,10,0:0:0:0:
218,178,75167,5,0,1:2:0:0:
218,178,75251,1,2,0:0:0:0:
218,178,75334,2,0,P|228:123|202:77,1,99.0000030212403,6|0,1:1|0:0,0:0:0:0:
348,337,75667,1,8,0:0:0:0:
444,363,75834,2,0,P|467:359|501:334,1,49.5000015106202,2|0,1:2|0:0,0:0:0:0:
261,384,76001,1,8,0:0:0:0:
502,316,76167,1,2,1:2:0:0:
501,283,76251,1,0,1:2:0:0:
486,254,76334,1,10,0:0:0:0:
217,264,76501,6,0,B|133:251|138:314|53:296,1,168.75,6|0,1:2|0:0,0:0:0:0:
0,384,76834,1,2,1:2:0:0:
70,170,77001,1,10,0:0:0:0:
0,82,77167,5,2,1:2:0:0:
0,82,77251,1,2,0:0:0:0:
0,82,77334,1,10,0:0:0:0:
217,264,77501,2,0,P|206:234|207:208,1,56.25,2|2,1:2|1:2,0:0:0:0:
386,231,77667,2,0,P|386:203|376:177,1,56.25,10|0,0:0|0:0,0:0:0:0:
155,129,77834,5,6,2:3:0:0:
166,103,77917,1,4,2:3:0:0:
186,83,78001,2,0,P|226:56|260:49,1,67.5000025749208,6|0,1:2|0:0,0:0:0:0:
489,189,78167,1,2,0:0:0:0:
393,64,78334,1,10,0:0:0:0:
452,353,78501,6,0,P|473:234|491:183,1,168.75,2|0,1:2|0:0,0:0:0:0:
372,262,78834,2,0,P|356:237|345:210,1,56.25,2|0,1:2|0:0,0:0:0:0:
335,384,79001,2,0,P|306:377|279:366,1,56.25,4|0,2:3|0:0,0:0:0:0:
68,227,79167,6,0,B|37:242|17:278|17:278|99:235|190:240,1,251.999992309571,6|0,3:1|0:0,0:0:0:0:
317,246,80084,5,2,0:0:0:0:
317,246,80223,2,0,P|330:215|267:204,1,104.999996795654,2|0,0:0|0:0,0:0:0:0:
170,118,80667,6,0,B|155:178|199:183|189:239,1,125.999996154785,0|0,3:2|3:2,0:0:0:0:
175,242,81167,2,0,B|185:186|141:181|156:121,1,125.999996154785,2|2,3:2|0:0,0:0:0:0:
380,81,81667,2,0,P|422:120|504:119,1,125.999996154785,2|0,3:2|0:0,0:0:0:0:
484,137,82167,2,0,P|422:133|375:92,1,125.999996154785,0|0,3:2|0:0,0:0:0:0:
196,0,82667,1,2,3:2:0:0:
135,45,82834,2,0,P|118:48|99:54,1,31.4999990386963
75,44,83001,2,0,P|41:57|53:82,1,62.9999980773926,2|0,3:2|0:0,0:0:0:0:
0,246,83334,6,0,P|73:228|139:217,1,125.999996154785,2|2,3:2|3:2,0:0:0:0:
186,166,83834,1,2,3:2:0:0:
118,301,84167,2,0,P|87:306|56:314,2,62.9999980773926,0|0|0,3:2|0:0|3:2,0:0:0:0:
256,210,84667,5,0,3:2:0:0:
237,290,85001,1,0,3:2:0:0:
471,384,85334,5,0,3:2:0:0:
452,304,85668,1,0,3:2:0:0:
218,370,86001,6,0,B|160:360|154:390|91:380,1,125.999996154785,0|0,3:2|0:0,0:0:0:0:
16,324,86501,1,0,0:0:0:0:
16,324,86667,2,0,P|2:282|12:270,1,62.9999980773926,2|0,0:0|3:2,0:0:0:0:
157,198,87001,2,0,P|149:228|142:264,1,62.9999980773926,2|2,0:0|3:2,0:0:0:0:
0,91,87334,5,0,3:2:0:0:
30,162,87501,2,0,P|23:131|15:100,1,62.9999980773926,0|2,3:2|0:0,0:0:0:0:
127,269,87834,1,0,3:2:0:0:
157,198,88001,2,0,P|150:228|142:259,1,62.9999980773926,2|0,3:2|0:0,0:0:0:0:
257,116,88334,1,2,3:2:0:0:
257,116,88667,6,0,B|271:133|297:131|297:131|341:106|378:114,1,125.999996154785,2|2,3:2|0:0,0:0:0:0:
478,29,89167,2,0,P|469:44|462:65,1,31.4999990386963,2|0,3:2|0:0,0:0:0:0:
459,80,89334,1,0,0:0:0:0:
461,233,89501,2,0,P|452:184|442:156,1,62.9999980773926,0|0,3:2|0:0,0:0:0:0:
331,0,89834,1,8,0:0:0:0:
134,305,90667,5,8,2:0:0:0:
112,311,90751,1,0,1:2:0:0:
134,79,90917,5,8,2:0:0:0:
112,73,91001,1,0,1:2:0:0:
0,209,91167,5,8,0:0:0:0:
0,209,91251,1,8,0:0:0:0:
0,209,91334,2,0,P|59:199|122:192,1,114.750002188683,4|0,1:2|0:0,0:0:0:0:
185,147,91667,1,8,0:0:0:0:
385,249,91834,1,2,0:0:0:0:
385,249,91917,1,0,1:2:0:0:
385,249,92001,1,0,2:0:0:0:
240,324,92167,1,2,1:2:0:0:
290,85,92334,2,0,P|279:124|271:163,1,76.5000014591217,8|0,0:0|0:0,0:0:0:0:
419,378,92667,5,2,1:2:0:0:
391,268,92834,1,0,1:2:0:0:
221,330,93001,2,0,P|210:291|202:252,1,76.5000014591217,8|2,0:0|0:0,0:0:0:0:
202,255,93251,1,0,1:2:0:0:
202,255,93334,1,0,2:2:0:0:
323,345,93501,1,0,1:2:0:0:
258,142,93667,2,0,P|274:84|285:27,1,114.750002188683,8|0,0:0|0:0,0:0:0:0:
211,0,94001,6,0,B|177:19|177:19|139:10,1,76.5000014591217,2|0,1:2|1:2,0:0:0:0:
0,136,94334,1,10,0:0:0:0:
54,54,94501,1,2,0:0:0:0:
54,54,94584,1,0,1:2:0:0:
54,54,94667,1,0,0:0:0:0:
197,186,94834,1,2,1:2:0:0:
44,225,95001,2,0,P|90:213|118:207,1,76.5000014591217,8|2,0:0|0:0,0:0:0:0:
118,206,95334,5,0,1:2:0:0:
318,124,95501,1,0,1:2:0:0:
256,244,95667,2,0,P|292:253|330:262,1,76.5000014591217,10|2,0:0|0:0,0:0:0:0:
330,262,95917,1,0,1:2:0:0:
330,262,96001,1,0,2:2:0:0:
434,224,96167,1,2,1:2:0:0:
257,345,96334,2,0,P|209:346|184:376,1,76.5000014591217,10|0,0:0|0:0,0:0:0:0:
19,166,96667,6,0,P|18:91|52:72,1,114.750002188683,6|0,1:1|0:0,0:0:0:0:
96,11,97001,1,8,0:0:0:0:
240,134,97167,1,2,0:0:0:0:
240,134,97251,1,0,1:2:0:0:
240,134,97334,2,0,L|225:212,1,76.5000014591217,0|0,2:2|1:2,0:0:0:0:
66,308,97667,1,10,0:0:0:0:
46,233,97834,2,0,L|57:278,1,38.2500007295609
234,362,98001,6,0,L|248:286,1,76.5000014591217,6|0,1:1|1:2,0:0:0:0:
137,381,98334,1,8,0:0:0:0:
336,349,98501,1,2,0:0:0:0:
336,349,98584,1,0,1:2:0:0:
336,349,98667,2,0,B|373:345|370:368|414:368,1,76.5000014591217,0|0,0:0|1:2,0:0:0:0:
499,155,99001,1,8,0:0:0:0:
412,202,99167,1,0,0:0:0:0:
247,111,99334,6,0,P|206:102|155:98,1,85.4999977169037,6|0,1:1|1:2,0:0:0:0:
76,37,99667,1,10,0:0:0:0:
0,185,99834,1,2,1:2:0:0:
0,185,99917,1,0,1:2:0:0:
0,185,100001,1,2,0:0:0:0:
225,228,100167,1,0,1:2:0:0:
39,335,100334,2,0,P|77:330|114:322,1,76.5000014591217,10|2,0:0|0:0,0:0:0:0:
347,173,100667,5,2,1:2:0:0:
225,228,100834,1,2,1:2:0:0:
334,307,101001,1,10,0:0:0:0:
471,90,101167,1,6,1:3:0:0:
471,90,101251,1,4,1:3:0:0:
471,90,101334,1,4,1:3:0:0:
271,0,101501,5,10,1:3:0:0:
199,90,101667,1,0,1:2:0:0:
314,106,101834,1,12,1:3:0:0:
149,384,102001,6,0,P|135:287|121:214,1,161.999995056153,4|8,1:1|0:0,0:0:0:0:
363,384,102501,2,0,P|374:303|388:224,1,161.999995056153,4|8,1:1|0:0,0:0:0:0:
263,23,103001,2,0,L|257:70,1,40.4999987640381,8|0,0:0|0:0,0:0:0:0:
256,221,103167,6,0,B|224:151|288:135|256:59,1,161.999995056153,4|0,1:1|1:2,0:0:0:0:
120,15,103667,1,10,0:0:0:0:
33,131,103835,1,0,1:2:0:0:
33,131,103917,1,0,1:2:0:0:
33,131,104001,1,2,1:2:0:0:
170,179,104167,2,0,P|160:152|152:133,1,40.4999987640381,8|0,0:0|0:0,0:0:0:0:
0,296,104334,2,0,P|49:275|92:265,1,80.9999975280763,10|4,1:3|1:3,0:0:0:0:
289,160,104667,6,0,P|338:181|381:191,1,80.9999975280763,4|8,1:1|1:3,0:0:0:0:
364,188,104917,1,8,1:3:0:0:
364,188,105001,1,0,1:2:0:0:
173,348,105167,2,0,P|197:337|219:332,2,40.4999987640381,4|4|0,1:3|1:3|1:2,0:0:0:0:
347,384,105501,2,0,P|333:339|323:296,1,90,2|2,3:2|1:2,0:0:0:0:
492,20,105834,6,0,P|522:105|474:174,1,180,4|0,1:1|1:2,0:0:0:0:
320,80,106334,2,0,P|297:75|261:71,1,45,8|0,0:0|0:0,0:0:0:0:
150,147,106501,1,4,1:3:0:0:
150,147,106584,1,0,1:2:0:0:
150,147,106667,5,8,1:3:0:0:
112,116,106779,5,0,1:2:0:0:
65,125,106890,5,8,0:0:0:0:
96,212,107001,5,0,1:2:0:0:
153,165,107113,5,8,1:3:0:0:
223,179,107224,5,4,1:3:0:0:
258,243,107334,6,0,B|215:283|230:338|230:338|260:324|259:285,1,161.999995056153,4|0,1:2|3:2,0:0:0:0:
258,243,107834,2,0,P|246:212|247:196,1,40.4999987640381,0|0,1:2|1:2,0:0:0:0:
365,65,108001,2,0,P|407:107|525:114,1,161.999995056153,8|0,1:2|3:2,0:0:0:0:
264,125,108501,5,0,1:2:0:0:
264,125,108584,1,0,1:2:0:0:
264,125,108667,1,0,1:2:0:0:
161,27,108834,1,4,1:3:0:0:
56,94,109001,2,0,P|66:131|73:179,1,80.9999975280763,0|4,3:2|1:3,0:0:0:0:
264,360,109334,1,8,0:0:0:0:
353,289,109501,1,4,1:3:0:0:
461,322,109667,1,0,3:2:0:0:
461,322,110001,6,0,P|504:266|478:163,1,180,6|8,1:1|0:0,0:0:0:0:
449,26,110501,2,0,P|440:51|435:69,1,45,2|0,0:0|1:2,0:0:0:0:
284,175,110667,2,0,P|332:166|375:154,1,90,0|0,1:3|1:3,0:0:0:0:
142,35,111001,1,10,0:0:0:0:
181,154,111167,1,0,0:0:0:0:
58,124,111334,5,0,1:3:0:0:
8,313,111501,1,2,1:3:0:0:
58,124,111667,1,10,0:0:0:0:
188,161,111834,1,0,0:0:0:0:
188,161,111917,1,0,1:2:0:0:
188,161,112001,1,2,1:2:0:0:
142,35,112167,1,0,1:3:0:0:
282,186,112334,2,0,P|296:135|308:100,1,90,10|0,0:0|0:0,0:0:0:0:
500,337,112667,5,6,1:2:0:0:
250,384,112834,1,4,1:3:0:0:
451,87,113001,1,10,0:0:0:0:
201,134,113167,2,0,B|116:111|106:194|36:173,1,161.999995056153,6|0,1:2|0:0,0:0:0:0:
20,100,113501,1,8,1:2:0:0:
20,100,113834,6,0,P|92:106|103:237,1,215.999993408203,6|2,1:2|0:0,0:0:0:0:
303,44,114334,1,10,0:0:0:0:
315,29,114417,1,0,0:0:0:0:
331,19,114500,1,2,1:2:0:0:
349,14,114583,1,2,1:2:0:0:
367,14,114667,2,0,P|398:22|424:46,1,53.9999983520508,10|8,0:0|0:0,0:0:0:0:
490,266,114834,5,8,1:3:0:0:
490,266,114917,1,8,1:3:0:0:
490,266,115001,2,0,B|447:295|447:295|475:188,1,161.999995056153,8|0,0:0|0:0,0:0:0:0:
354,312,115334,6,0,B|326:281|286:299|286:299|238:345|179:338,1,188.999994232178,6|10,1:2|0:0,0:0:0:0:
117,166,115834,1,0,1:2:0:0:
117,166,115917,1,0,1:2:0:0:
117,166,116001,2,0,P|75:186|83:237,1,94.499997116089,2|0,1:2|1:2,0:0:0:0:
63,372,116334,2,0,P|20:358|16:314,1,94.499997116089,10|2,0:0|0:0,0:0:0:0:
195,348,116667,5,0,3:2:0:0:
294,292,116834,1,2,0:0:0:0:
215,157,117001,1,10,3:2:0:0:
293,379,117167,1,2,0:0:0:0:
497,258,117334,2,0,P|511:205|486:147,1,94.499997116089,10|0,3:3|1:2,0:0:0:0:
500,167,117584,1,0,1:0:0:0:
500,167,117667,1,10,0:0:0:0:
294,292,117834,1,2,0:0:0:0:
197,236,118001,5,2,1:2:0:0:
356,205,118167,1,2,0:0:0:0:
166,77,118334,1,10,0:0:0:0:
325,46,118501,1,2,0:0:0:0:
178,262,118667,5,2,1:2:0:0:
140,58,118834,1,2,1:2:0:0:
382,224,119001,1,10,0:0:0:0:
344,20,119167,5,2,1:2:0:0:
344,20,119251,1,2,1:2:0:0:
344,20,119334,2,0,L|332:82,1,47.2499985580445,2|0,3:2|0:0,0:0:0:0:
318,174,119501,1,2,0:0:0:0:
300,281,119667,1,10,3:2:0:0:
335,66,119834,1,2,0:0:0:0:
85,246,120001,5,10,3:3:0:0:
120,31,120167,1,2,1:2:0:0:
300,281,120334,1,10,3:2:0:0:
14,382,120501,5,2,1:2:0:0:
14,382,120584,1,2,1:2:0:0:
14,382,120667,2,0,P|-20:301|20:158,1,225,6|8,1:1|0:0,0:0:0:0:
281,35,121167,5,2,0:0:0:0:
251,74,121250,1,2,0:0:0:0:
264,121,121334,1,2,1:2:0:0:
235,159,121417,1,2,0:0:0:0:
248,205,121501,1,2,1:2:0:0:
219,243,121584,1,2,0:0:0:0:
231,290,121668,1,10,0:0:0:0:
498,382,121834,5,2,0:0:0:0:
498,382,121917,1,2,1:2:0:0:
498,382,122001,2,0,P|532:301|492:158,1,225,6|8,1:1|0:0,0:0:0:0:
281,35,122501,1,2,0:0:0:0:
415,124,122667,2,0,P|426:105|458:85,1,56.25,0|0,1:2|1:2,0:0:0:0:
235,113,122834,2,0,P|211:98|195:75,1,56.25,0|0,1:2|0:0,0:0:0:0:
364,7,123001,1,10,0:0:0:0:
290,242,123167,1,0,0:0:0:0:
55,168,123334,6,0,B|3:222|3:222|166:190,1,225,6|8,1:2|3:2,0:0:0:0:
338,327,123834,1,2,0:0:0:0:
338,327,123917,1,2,1:2:0:0:
338,327,124001,2,0,L|465:346,1,112.5,6|0,1:2|1:2,0:0:0:0:
449,343,124251,1,0,0:0:0:0:
449,343,124334,2,0,P|484:326|477:250,1,114.750002188683,8|0,3:2|1:2,0:0:0:0:
512,166,124667,5,6,1:2:0:0:
0,218,125001,5,10,0:0:0:0:
512,166,125334,5,14,1:2:0:0:
258,107,125501,1,0,1:2:0:0:
426,23,125667,2,0,L|431:74,1,47.2499985580445,2|0,1:2|1:2,0:0:0:0:
389,256,125834,2,0,L|384:208,1,47.2499985580445,8|8,0:0|0:0,0:0:0:0:
191,49,126001,6,0,P|130:20|84:32,2,94.499997116089,6|2|10,1:1|0:0|0:0,0:0:0:0:
59,140,126501,1,2,0:0:0:0:
255,221,126667,2,0,P|264:153|271:115,1,94.499997116089,0|0,1:2|1:2,0:0:0:0:
56,359,127001,1,10,0:0:0:0:
150,198,127167,1,2,0:0:0:0:
311,292,127334,5,0,1:2:0:0:
212,362,127501,1,2,0:0:0:0:
212,362,127584,1,2,0:0:0:0:
212,362,127667,2,0,L|204:310,1,47.2499985580445,10|2,0:0|0:0,0:0:0:0:
324,282,127834,1,0,0:0:0:0:
140,186,128001,2,0,P|149:118|156:80,1,94.499997116089,0|0,1:2|1:2,0:0:0:0:
358,8,128334,1,10,0:0:0:0:
460,93,128501,1,2,0:0:0:0:
234,53,128667,5,2,1:2:0:0:
437,223,128834,1,2,0:0:0:0:
358,8,129001,1,10,0:0:0:0:
312,268,129167,5,0,0:0:0:0:
312,268,129251,1,10,3:2:0:0:
312,268,129334,1,2,1:2:0:0:
210,182,129501,1,2,1:2:0:0:
437,223,129667,1,10,0:0:0:0:
212,357,129834,6,0,P|98:309|-24:327,1,225,6|2,1:1|1:2,0:0:0:0:
0,318,130251,1,2,0:0:0:0:
0,318,130334,1,10,0:0:0:0:
210,182,130501,1,2,0:0:0:0:
88,91,130667,1,0,1:2:0:0:
88,91,130834,1,0,1:2:0:0:
162,280,131001,1,10,0:0:0:0:
372,149,131167,5,2,1:2:0:0:
372,149,131251,1,0,1:2:0:0:
372,149,131334,2,0,B|401:133|427:128|427:128|388:198|386:271,1,188.999994232178,6|10,1:1|0:0,0:0:0:0:
512,112,131834,1,2,0:0:0:0:
301,201,132001,2,0,P|260:194|207:170,1,94.499997116089,0|0,1:2|1:2,0:0:0:0:
66,0,132334,1,10,0:0:0:0:
123,92,132501,1,2,0:0:0:0:
0,296,132667,5,4,1:1:0:0:
41,130,132834,1,2,0:0:0:0:
166,337,133001,1,8,0:0:0:0:
207,171,133167,1,2,0:0:0:0:
207,171,133251,1,0,1:2:0:0:
207,171,133334,2,0,B|250:150|250:150|310:158,1,94.499997116089,2|0,1:2|1:2,0:0:0:0:
445,95,133667,1,10,0:0:0:0:
253,305,133834,5,2,1:2:0:0:
253,305,133917,1,0,1:2:0:0:
253,305,134001,2,0,B|339:287|328:361|422:344,1,168.75,6|0,1:1|0:0,0:0:0:0:
479,282,134334,1,10,0:0:0:0:
378,179,134501,1,2,0:0:0:0:
512,54,134667,5,4,1:1:0:0:
395,260,134834,1,0,1:2:0:0:
189,143,135001,2,0,P|195:91|205:47,1,94.499997116089,10|0,0:0|1:2,0:0:0:0:
14,179,135334,5,6,1:1:0:0:
14,179,135501,1,0,1:2:0:0:
364,107,135667,5,10,0:0:0:0:
364,107,135834,1,0,1:2:0:0:
146,6,136001,6,0,P|159:41|167:76,1,65.250001991272,10|0,0:0|0:0,0:0:0:0:
286,267,136167,1,0,1:2:0:0:
302,221,136250,1,0,1:2:0:0:
300,177,136333,1,2,1:2:0:0:
280,134,136417,1,0,1:2:0:0:
235,143,136500,1,2,1:2:0:0:
197,172,136583,1,0,1:2:0:0:
175,213,136667,6,0,B|165:245|182:275|182:275|210:283|229:318|229:318|221:352|227:382,2,188.999994232178,6|8|0,1:1|0:0|1:2,0:0:0:0:
276,136,137501,1,0,1:2:0:0:
81,65,137667,2,0,P|124:57|168:18,1,94.499997116089,10|0,0:0|0:0,0:0:0:0:
6,171,137917,5,2,0:0:0:0:
6,171,138001,2,0,B|102:141|95:232|194:201,1,188.999994232178,2|10,1:2|0:0,0:0:0:0:
343,82,138501,1,0,0:0:0:0:
468,201,138667,2,0,P|480:181|482:149,1,47.2499985580445,2|0,1:2|0:0,0:0:0:0:
483,157,138834,1,0,1:2:0:0:
291,305,139001,2,0,P|270:254|272:204,1,94.499997116089,10|2,0:0|1:2,0:0:0:0:
404,361,139251,1,0,1:2:0:0:
421,347,139334,6,0,B|352:333|350:392|283:384,1,141.749995674133,2|0,1:2|0:0,0:0:0:0:
213,343,139667,1,10,0:0:0:0:
25,384,139834,1,2,0:0:0:0:
181,261,140001,1,0,1:2:0:0:
46,223,140167,1,0,1:2:0:0:
126,329,140334,2,0,P|133:281|142:236,1,94.499997116089,10|0,0:0|0:0,0:0:0:0:
201,23,140667,5,2,1:2:0:0:
64,125,140834,1,2,0:0:0:0:
64,125,140917,1,2,0:0:0:0:
64,125,141001,1,10,0:0:0:0:
300,115,141167,6,0,P|275:102|237:98,1,51.7500009870529,2|0,0:0|0:0,0:0:0:0:
155,296,141334,2,0,P|141:268|141:235,1,65.250001991272,2|0,1:2|0:0,0:0:0:0:
268,206,141501,2,0,P|283:237|280:277,1,65.250001991272,0|0,1:2|0:0,0:0:0:0:
84,384,141667,2,0,P|44:344|24:277,1,112.5,10|2,0:0|1:2,0:0:0:0:
6,222,141917,5,0,1:2:0:0:
71,186,142001,2,0,P|119:114|86:2,1,207.000003948212,6|10,1:1|0:0,0:0:0:0:
20,87,142501,1,2,0:0:0:0:
194,12,142667,1,0,1:2:0:0:
194,12,142834,1,0,1:2:0:0:
311,118,143001,2,0,P|252:104|210:98,1,94.499997116089,10|0,0:0|0:0,0:0:0:0:
484,281,143334,6,0,P|372:299|275:324,1,207.000003948212,6|10,1:1|0:0,0:0:0:0:
185,362,143834,1,0,0:0:0:0:
18,237,144001,1,2,1:2:0:0:
165,216,144167,1,2,1:2:0:0:
39,384,144334,2,0,P|1:360|15:318,1,94.499997116089,10|2,0:0|1:2,0:0:0:0:
151,112,144667,6,0,P|213:102|298:228,1,225,6|8,1:1|0:0,0:0:0:0:
227,281,145167,1,0,1:2:0:0:
391,217,145334,1,4,1:1:0:0:
455,381,145501,1,2,1:2:0:0:
428,375,145584,1,2,0:0:0:0:
403,371,145667,1,10,0:0:0:0:
227,281,145834,5,0,1:2:0:0:
197,285,145917,1,0,1:2:0:0:
164,293,146000,1,6,1:1:0:0:
382,367,146167,1,0,0:0:0:0:
238,75,146334,1,8,0:0:0:0:
456,149,146501,1,0,0:0:0:0:
136,300,146667,5,6,1:1:0:0:
231,47,146834,1,0,1:2:0:0:
382,367,147001,6,0,P|408:358|436:353,1,56.25,8|8,0:0|0:0,0:0:0:0:
409,261,147167,2,0,P|383:270|355:275,1,56.25,8|8,0:0|0:0,0:0:0:0:
165,384,147334,6,0,P|118:371|71:365,1,90,6|0,1:1|0:0,0:0:0:0:
6,149,147667,1,8,0:0:0:0:
125,196,147834,1,2,1:2:0:0:
125,196,147917,1,2,0:0:0:0:
125,196,148001,1,10,0:0:0:0:
6,319,148167,2,0,P|16:285|27:260,1,56.25,0|0,1:2|0:0,0:0:0:0:
202,67,148334,1,10,0:0:0:0:
240,231,148501,6,0,P|213:133|202:67,1,168.75,6|0,1:2|0:0,0:0:0:0:
258,0,148834,1,0,1:2:0:0:
117,89,149001,1,8,0:0:0:0:
290,79,149167,1,0,1:2:0:0:
326,63,149250,1,0,1:2:0:0:
367,59,149333,1,10,0:0:0:0:
240,231,149501,2,0,P|214:223|187:220,1,45,0|0,1:2|1:2,0:0:0:0:
112,203,149667,1,10,0:0:0:0:
335,358,149834,5,0,1:2:0:0:
335,358,149917,1,2,0:0:0:0:
335,358,150001,2,0,P|382:335|441:334,1,99.0000030212403,6|0,1:1|0:0,0:0:0:0:
135,288,150334,1,8,0:0:0:0:
239,230,150501,2,0,P|217:226|196:220,1,45,2|0,1:2|0:0,0:0:0:0:
70,354,150667,1,8,0:0:0:0:
265,191,150834,1,2,1:2:0:0:
312,179,150917,1,0,1:2:0:0:
356,200,151000,1,10,0:0:0:0:
135,288,151167,6,0,P|74:206|85:132,1,168.75,6|0,1:2|0:0,0:0:0:0:
164,82,151501,1,2,1:2:0:0:
0,24,151667,1,10,0:0:0:0:
87,151,151834,1,2,1:2:0:0:
87,151,151917,1,2,0:0:0:0:
87,151,152001,1,10,0:0:0:0:
245,36,152167,6,0,P|271:17|310:16,1,56.25,2|2,1:2|1:2,0:0:0:0:
265,191,152334,2,0,P|235:177|215:144,1,56.25,10|0,0:0|0:0,0:0:0:0:
390,97,152501,5,6,2:3:0:0:
393,124,152584,1,4,2:3:0:0:
385,151,152667,2,0,P|375:186|372:223,1,67.5000025749208,6|0,1:2|0:0,0:0:0:0:
512,384,152834,1,2,0:0:0:0:
377,314,153001,1,10,0:0:0:0:
175,370,153167,6,0,B|140:373|140:373|137:371|137:371|133:374|133:374|7:385,1,168.75,2|0,1:2|0:0,0:0:0:0:
20,298,153501,2,0,B|5:275|5:275|14:240,1,56.25,2|0,1:2|0:0,0:0:0:0:
161,185,153667,2,0,B|168:212|168:212|153:235,1,56.25,4|0,2:3|0:0,0:0:0:0:
35,116,153834,6,0,B|-20:85|-1:7|-1:7|83:-7|109:67,1,251.999992309571,6|0,3:1|0:0,0:0:0:0:
231,129,154751,5,2,0:0:0:0:
231,129,154890,2,0,P|294:96|328:97,1,104.999996795654,2|0,0:0|0:0,0:0:0:0:
399,24,155334,6,0,B|415:11|436:7|436:7|408:59|401:112|401:112|411:136|414:149,1,180,4|8,1:1|0:0,0:0:0:0:
288,302,155834,2,0,B|255:264|284:198|335:204|335:204|363:232|381:233,1,180,4|8,1:1|0:0,0:0:0:0:
512,200,156334,2,0,P|492:205|465:217,1,45,8|0,0:0|0:0,0:0:0:0:
288,302,156501,6,0,P|191:281|104:272,1,180,4|0,1:1|1:2,0:0:0:0:
43,124,157001,1,10,0:0:0:0:
185,43,157167,1,0,1:2:0:0:
185,43,157251,1,0,1:2:0:0:
185,43,157334,1,2,1:2:0:0:
144,127,157501,2,0,P|136:148|128:172,1,45,8|0,0:0|0:0,0:0:0:0:
270,36,157667,2,0,P|323:6|364:-2,1,90,10|4,1:3|1:3,0:0:0:0:
458,239,158001,6,0,P|405:269|364:277,1,90,4|8,1:1|1:3,0:0:0:0:
377,275,158251,1,8,1:3:0:0:
377,275,158334,1,0,1:2:0:0:
207,372,158501,2,0,P|231:376|256:388,2,45,4|4|0,1:3|1:3|1:2,0:0:0:0:
303,233,158834,2,0,P|324:193|334:149,1,90,2|2,3:2|1:2,0:0:0:0:
96,42,159167,6,0,P|126:125|140:230,1,180,4|0,1:1|1:2,0:0:0:0:
0,358,159667,2,0,P|7:332|53:328,1,45,8|0,0:0|0:0,0:0:0:0:
222,262,159834,1,4,1:3:0:0:
243,282,159917,1,0,1:2:0:0:
269,298,160000,1,8,1:3:0:0:
296,309,160084,1,8,1:3:0:0:
326,314,160167,1,4,1:3:0:0:
356,313,160250,1,4,1:3:0:0:
385,307,160334,2,0,P|414:261|406:216,1,90,4|0,1:1|0:0,0:0:0:0:
160,384,160667,6,0,P|126:317|138:212,1,161.999995056153,4|0,1:2|3:2,0:0:0:0:
126,214,161167,2,0,P|141:200|161:191,1,40.4999987640381,0|0,1:2|1:2,0:0:0:0:
311,108,161334,2,0,P|303:146|296:191,2,80.9999975280763,8|0|0,1:2|0:0|3:2,0:0:0:0:
174,22,161834,5,0,1:2:0:0:
174,22,161917,1,0,1:2:0:0:
174,22,162001,1,0,1:2:0:0:
311,108,162167,1,4,1:3:0:0:
168,183,162334,1,0,3:2:0:0:
219,103,162501,1,4,1:3:0:0:
404,226,162667,1,8,0:0:0:0:
511,179,162834,1,4,1:3:0:0:
418,109,163001,1,0,3:2:0:0:
418,109,163334,6,0,B|329:108|341:174|245:166,1,180,6|8,1:1|0:0,0:0:0:0:
129,225,163834,2,0,P|148:206|166:194,1,45,2|0,0:0|1:2,0:0:0:0:
152,22,164001,2,0,P|167:53|181:106,1,90,0|0,1:3|1:3,0:0:0:0:
86,306,164334,1,10,0:0:0:0:
42,207,164501,1,0,0:0:0:0:
187,303,164667,5,0,1:3:0:0:
0,384,164834,1,2,1:3:0:0:
187,303,165001,2,0,P|231:283|271:269,1,90,10|0,0:0|0:0,0:0:0:0:
270,269,165251,1,0,1:2:0:0:
270,269,165334,1,2,1:2:0:0:
451,353,165501,1,0,1:3:0:0:
319,351,165667,2,0,P|276:366|235:384,1,90,10|0,0:0|0:0,0:0:0:0:
36,244,166001,5,6,1:2:0:0:
278,276,166167,1,4,1:3:0:0:
68,1,166334,1,10,0:0:0:0:
310,34,166501,2,0,B|345:27|365:47|365:47|412:96|470:75,1,161.999995056153,6|0,1:2|0:0,0:0:0:0:
512,4,166834,1,8,1:2:0:0:
345,268,167001,5,2,0:0:0:0:
345,268,167084,1,0,1:2:0:0:
345,268,167167,2,0,L|314:91,1,161.999995056153,6|0,1:2|0:0,0:0:0:0:
204,69,167501,5,2,0:0:0:0:
186,48,167584,1,0,1:2:0:0:
165,32,167667,1,10,0:0:0:0:
140,21,167751,1,8,0:0:0:0:
113,17,167834,1,10,2:2:0:0:
86,19,167917,1,10,2:2:0:0:
61,27,168001,2,0,P|41:57|35:80,1,53.9999983520508,2|0,1:2|1:2,0:0:0:0:
137,286,168167,5,8,1:3:0:0:
137,286,168251,1,8,1:3:0:0:
137,286,168334,2,0,B|116:301|95:322|95:322|88:260|74:215,1,161.999995056153,8|0,0:0|0:0,0:0:0:0:
36,73,168667,5,4,1:1:0:0:
135,247,174001,6,0,P|90:234|96:167,1,121.499996292114,0|0,1:2|0:0,0:0:0:0:
110,152,174334,1,0,1:2:0:0:
141,156,174445,1,0,1:2:0:0:
173,160,174556,1,0,1:2:0:0:
205,164,174667,1,0,1:2:0:0:
232,168,175001,6,0,P|241:134|250:108,2,53.9999983520508,0|0|0,1:2|1:2|1:2,0:0:0:0:
282,260,175334,2,0,P|290:297|303:345,1,80.9999975280763,0|0,1:2|0:0,0:0:0:0:
429,384,175667,1,0,1:2:0:0:
429,384,175779,1,0,1:2:0:0:
429,384,175890,1,0,1:2:0:0:
429,384,176001,2,0,P|437:347|450:299,1,80.9999975280763,0|0,1:2|0:0,0:0:0:0:
484,154,176334,5,0,1:2:0:0:
463,188,176445,1,0,1:2:0:0:
428,206,176556,1,0,1:2:0:0:
388,204,176667,1,0,1:2:0:0:
359,178,177001,6,0,P|353:156|344:124,2,53.9999983520508,0|0|0,1:2|1:2|1:2,0:0:0:0:
263,248,177334,2,0,B|185:241|188:300|110:290,1,161.999995056153,0|0,1:2|1:2,0:0:0:0:
80,279,177779,1,0,1:2:0:0:
60,253,177890,1,0,1:2:0:0:
59,220,178001,1,0,1:2:0:0:
256,192,178084,12,8,178667,1:2:0:0:
327,36,178834,5,8,1:3:0:0:
327,36,178917,1,8,1:3:0:0:
327,36,179001,2,0,B|375:10|375:10|342:123,1,161.999995056153,8|0,0:0|0:0,0:0:0:0:
263,136,179334,6,0,P|255:199|331:227,1,148.50000453186,6|0,1:2|0:0,0:0:0:0:
402,180,179667,2,0,P|447:167|502:159,1,99.0000030212403,10|0,0:0|0:0,0:0:0:0:
263,303,180001,1,2,1:2:0:0:
164,169,180167,1,0,1:2:0:0:
164,169,180251,1,0,1:2:0:0:
164,169,180334,1,10,0:0:0:0:
388,279,180501,1,2,0:0:0:0:
211,377,180667,6,0,P|166:364|111:354,1,99.0000030212403,0|0,1:2|0:0,0:0:0:0:
14,169,181001,2,0,B|26:135|26:95|26:95|49:133|82:154,1,148.50000453186,10|0,0:0|0:0,0:0:0:0:
68,236,181334,1,2,1:2:0:0:
265,112,181501,1,0,1:2:0:0:
265,112,181584,1,0,1:2:0:0:
265,112,181667,1,10,0:0:0:0:
140,32,181834,1,2,0:0:0:0:
247,261,182001,6,0,P|238:212|282:204,1,99.0000030212403,2|0,1:2|1:2,0:0:0:0:
228,350,182334,2,0,P|204:345|179:324,1,49.5000015106202,8|0,3:2|0:0,0:0:0:0:
265,112,182501,2,0,P|303:122|350:167,1,99.0000030212403,2|0,0:0|1:2,0:0:0:0:
346,161,182751,1,0,1:2:0:0:
346,161,182834,1,0,1:2:0:0:
478,368,183001,6,0,B|464:338|487:293|487:293|490:256|467:227,1,148.50000453186,8|0,3:2|1:2,0:0:0:0:
467,144,183334,1,0,1:2:0:0:
398,285,183501,1,2,0:0:0:0:
398,285,183584,1,2,0:0:0:0:
398,285,183667,1,8,0:0:0:0:
257,216,183834,1,2,0:0:0:0:
467,144,184001,1,2,1:2:0:0:
326,75,184167,6,0,P|296:66|273:62,1,53.9999983520508,0|0,1:2|0:0,0:0:0:0:
128,161,184334,2,0,P|195:139|201:96,1,116.999994644165,8|2,3:2|0:0,0:0:0:0:
159,33,184584,5,0,1:2:0:0:
82,55,184667,2,0,P|48:132|70:218,1,168.75,6|0,1:1|0:0,0:0:0:0:
143,244,185001,1,8,0:0:0:0:
22,384,185167,2,0,P|29:316|49:285,1,99.0000030212403,2|0,0:0|1:2,0:0:0:0:
159,237,185501,1,0,1:2:0:0:
357,355,185667,2,0,B|432:331|435:381|523:358,1,148.50000453186,10|0,0:0|1:2,0:0:0:0:
512,233,186001,6,0,P|471:277|424:273,1,99.0000030212403,6|0,1:1|0:0,0:0:0:0:
248,368,186334,1,10,0:0:0:0:
375,222,186501,1,2,0:0:0:0:
375,222,186584,1,2,0:0:0:0:
375,222,186667,2,0,P|346:211|322:205,1,49.5000015106202,2|0,1:2|1:2,0:0:0:0:
248,368,186834,1,0,1:2:0:0:
512,233,187001,1,10,3:2:0:0:
288,133,187167,5,2,0:0:0:0:
288,133,187251,1,0,1:2:0:0:
288,133,187334,2,0,B|239:189|159:180|159:180|127:161|100:164,1,198.000006042481,6|8,1:1|0:0,0:0:0:0:
0,280,187834,2,0,P|8:312|30:334,1,49.5000015106202,2|2,0:0|0:0,0:0:0:0:
72,384,188001,1,6,1:1:0:0:
111,146,188167,5,0,1:2:0:0:
115,129,188251,1,2,0:0:0:0:
119,112,188334,2,0,P|149:78|101:106,1,148.50000453186,10|0,0:0|1:2,0:0:0:0:
12,177,188667,5,4,1:1:0:0:
341,102,188834,1,0,0:0:0:0:
12,177,189001,5,8,0:0:0:0:
341,102,189168,1,0,0:0:0:0:
0,270,189334,6,0,P|29:263|59:256,1,49.5000015106202,10|0,0:0|0:0,0:0:0:0:
411,176,189501,1,0,1:2:0:0:
207,362,189667,5,0,1:2:0:0:
183,333,189750,1,0,1:2:0:0:
180,297,189833,1,0,1:2:0:0:
199,266,189917,1,0,1:2:0:0:
232,251,190001,6,0,B|276:265|276:265|318:315|375:301,1,148.50000453186,6|0,1:2|0:0,0:0:0:0:
399,147,190334,2,0,P|351:185|349:220,1,99.0000030212403,10|0,0:0|0:0,0:0:0:0:
503,384,190667,1,2,1:2:0:0:
469,210,190834,1,0,1:2:0:0:
469,210,190917,1,0,1:2:0:0:
469,210,191001,1,10,0:0:0:0:
207,362,191167,1,2,0:0:0:0:
236,237,191334,6,0,P|244:185|252:138,1,99.0000030212403,0|0,1:2|0:0,0:0:0:0:
23,265,191667,1,10,0:0:0:0:
0,308,191750,1,2,0:0:0:0:
11,355,191833,1,2,0:0:0:0:
49,384,191917,1,2,1:2:0:0:
98,382,192001,1,2,1:2:0:0:
119,370,192084,1,2,0:0:0:0:
142,360,192167,1,2,1:2:0:0:
166,353,192251,1,2,0:0:0:0:
190,348,192334,1,10,3:2:0:0:
356,259,192501,5,2,0:0:0:0:
356,259,192584,1,2,0:0:0:0:
356,259,192667,2,0,P|407:298|492:299,1,148.50000453186,2|0,3:2|0:0,0:0:0:0:
512,216,193001,1,10,0:0:0:0:
346,362,193167,2,0,P|319:344|298:318,1,58.4999973220826,2|0,0:0|1:2,0:0:0:0:
184,174,193334,5,0,1:2:0:0:
111,241,193501,1,0,1:2:0:0:
13,229,193667,1,10,3:2:0:0:
193,68,193834,6,0,B|219:56|248:51|248:51|270:38|270:38|322:49|426:60,1,233.999989288331,6|0,1:1|1:2,0:0:0:0:
512,0,194334,1,10,0:0:0:0:
310,158,194501,1,0,1:2:0:0:
310,158,194584,1,0,1:2:0:0:
310,158,194667,2,0,P|292:184|289:216,1,58.4999973220826,2|0,1:2|0:0,0:0:0:0:
437,316,194834,2,0,P|409:327|381:324,1,58.4999973220826,0|0,1:2|0:0,0:0:0:0:
457,167,195001,1,10,0:0:0:0:
244,337,195167,5,2,1:2:0:0:
244,337,195251,1,0,1:2:0:0:
244,337,195334,2,0,P|142:291|52:297,1,198.000006042481,6|10,1:1|0:0,0:0:0:0:
209,192,195834,1,2,0:0:0:0:
25,94,196001,2,0,P|85:81|92:45,1,99.0000030212403,0|0,1:2|1:2,0:0:0:0:
230,80,196334,1,10,3:2:0:0:
110,200,196501,1,2,0:0:0:0:
332,326,196667,5,4,1:1:0:0:
382,228,196834,2,0,P|369:198|365:166,1,49.5000015106202,0|0,1:0|0:0,0:0:0:0:
237,377,197001,2,0,P|277:324|342:332,1,125.999996154785,8|0,0:0|1:2,0:0:0:0:
448,384,197251,1,0,1:2:0:0:
470,373,197334,1,0,1:2:0:0:
300,239,197501,2,0,P|278:227|252:222,1,49.5000015106202,0|0,1:2|0:0,0:0:0:0:
48,383,197667,1,10,3:2:0:0:
145,225,197834,5,2,0:0:0:0:
145,225,197917,1,2,0:0:0:0:
145,225,198001,2,0,P|186:161|155:90,1,148.50000453186,6|0,1:1|0:0,0:0:0:0:
81,50,198334,1,10,0:0:0:0:
247,0,198501,1,2,0:0:0:0:
358,94,198667,6,0,P|326:81|296:77,1,58.4999973220826,4|0,1:1|0:0,0:0:0:0:
81,142,198834,1,0,1:2:0:0:
270,258,199001,2,0,P|365:231|401:230,1,116.999994644165,10|0,0:0|0:0,0:0:0:0:
454,258,199251,5,0,1:2:0:0:
501,198,199334,2,0,P|512:150|481:114,1,99.0000030212403,6|0,1:1|1:2,0:0:0:0:
220,83,199667,5,10,0:0:0:0:
467,34,199834,2,0,L|404:46,1,49.5000015106202,2|2,0:0|0:0,0:0:0:0:
183,172,200001,5,0,1:2:0:0:
143,143,200084,1,0,1:2:0:0:
94,140,200167,1,0,1:2:0:0:
51,163,200251,1,0,1:2:0:0:
27,206,200334,1,8,2:2:0:0:
28,254,200417,1,8,2:2:0:0:
56,295,200501,1,8,2:2:0:0:
100,315,200584,1,8,2:2:0:0:
149,308,200667,6,0,P|195:292|245:284,1,90,6|0,1:1|0:0,0:0:0:0:
450,185,201001,1,8,0:0:0:0:
338,130,201167,1,2,1:2:0:0:
338,130,201251,1,0,1:2:0:0:
338,130,201334,1,10,0:0:0:0:
504,197,201501,2,0,P|475:189|447:184,1,56.25,0|0,1:2|0:0,0:0:0:0:
205,55,201667,1,10,0:0:0:0:
362,42,201834,6,0,B|326:13|277:26|277:26|237:64|178:53,1,168.75,6|0,1:2|0:0,0:0:0:0:
114,22,202167,1,0,1:2:0:0:
251,178,202334,1,8,0:0:0:0:
146,249,202501,1,0,1:2:0:0:
110,222,202584,1,0,1:2:0:0:
66,222,202667,1,10,0:0:0:0:
339,141,202834,2,0,P|363:129|391:122,1,45,0|0,1:2|1:2,0:0:0:0:
466,95,203001,1,10,0:0:0:0:
361,330,203167,5,0,1:2:0:0:
361,330,203251,1,2,0:0:0:0:
361,330,203334,2,0,P|338:284|329:228,1,99.0000030212403,6|0,1:1|0:0,0:0:0:0:
168,41,203667,1,8,0:0:0:0:
95,108,203834,2,0,P|69:126|43:131,1,49.5000015106202,2|0,1:2|0:0,0:0:0:0:
261,38,204001,1,8,0:0:0:0:
24,154,204167,1,2,1:2:0:0:
15,190,204250,1,0,1:2:0:0:
38,220,204333,1,10,0:0:0:0:
269,384,204501,6,0,P|255:275|244:214,1,168.75,6|0,1:2|0:0,0:0:0:0:
204,119,204834,1,2,1:2:0:0:
411,192,205001,1,10,0:0:0:0:
512,113,205167,5,2,1:2:0:0:
512,113,205251,1,2,0:0:0:0:
512,113,205334,2,0,P|488:128|458:128,1,56.25,10|0,0:0|0:0,0:0:0:0:
250,53,205501,2,0,P|278:53|304:64,1,56.25,2|2,1:2|1:2,0:0:0:0:
216,222,205667,2,0,P|243:233|271:233,1,56.25,10|0,0:0|0:0,0:0:0:0:
169,2,205834,5,6,2:3:0:0:
143,13,205917,1,4,2:3:0:0:
123,33,206001,2,0,P|96:73|96:143,1,116.999994644165,6|2,1:2|0:0,0:0:0:0:
271,232,206334,1,10,0:0:0:0:
76,126,206501,1,2,1:2:0:0:
229,312,206667,1,10,0:0:0:0:
34,206,206834,1,2,1:2:0:0:
313,151,207001,2,0,P|360:140|404:134,1,90,4|6,2:3|3:1,0:0:0:0:
247,380,207334,6,0,P|213:326|240:308,1,99.0000030212403,2|0,0:0|1:2,0:0:0:0:
346,331,207584,1,0,1:2:0:0:
346,331,207667,2,0,P|346:360|324:391,1,58.4999973220826,4|0,1:2|0:0,0:0:0:0:
136,293,207834,1,0,1:2:0:0:
125,273,207917,1,0,1:2:0:0:
119,251,208001,2,0,P|121:217|139:186,1,62.9999980773926,4|0,1:2|0:0,0:0:0:0:
325,29,208167,5,0,1:2:0:0:
361,22,208250,1,0,1:2:0:0:
398,27,208333,1,2,1:2:0:0:
433,42,208417,1,0,1:2:0:0:
461,67,208500,1,0,1:2:0:0:
481,98,208583,1,0,1:2:0:0:
491,134,208667,6,0,P|484:184|461:218,1,90,6|0,1:1|0:0,0:0:0:0:
258,322,209001,1,8,0:0:0:0:
191,227,209167,1,2,1:2:0:0:
191,227,209251,1,0,1:2:0:0:
191,227,209334,1,10,0:0:0:0:
247,377,209501,2,0,P|253:336|258:320,1,56.25,0|0,1:2|0:0,0:0:0:0:
153,62,209667,1,10,0:0:0:0:
191,227,209834,6,0,P|170:127|152:59,1,168.75,6|0,1:2|0:0,0:0:0:0:
242,0,210167,1,0,1:2:0:0:
77,157,210334,1,8,0:0:0:0:
191,227,210501,1,0,1:2:0:0:
223,197,210584,1,0,1:2:0:0:
267,192,210667,1,10,0:0:0:0:
43,370,210834,2,0,P|43:341|48:314,1,45,0|0,1:2|1:2,0:0:0:0:
96,244,211001,1,10,0:0:0:0:
341,355,211167,5,0,1:2:0:0:
341,355,211251,1,2,0:0:0:0:
341,355,211334,2,0,P|389:357|447:371,1,99.0000030212403,6|0,1:1|0:0,0:0:0:0:
223,197,211667,1,8,0:0:0:0:
305,111,211834,2,0,P|329:105|353:104,1,49.5000015106202,2|0,1:2|0:0,0:0:0:0:
147,37,212001,1,8,0:0:0:0:
385,118,212167,1,2,1:2:0:0:
417,130,212251,1,0,1:2:0:0:
447,143,212334,1,10,0:0:0:0:
250,329,212501,6,0,P|182:266|217:182,1,168.75,6|0,1:2|0:0,0:0:0:0:
127,142,212834,2,0,P|160:116|201:114,1,56.25,2|0,1:2|0:0,0:0:0:0:
328,279,213001,1,10,0:0:0:0:
159,384,213167,1,2,1:2:0:0:
159,384,213251,1,2,0:0:0:0:
159,384,213334,1,10,0:0:0:0:
393,342,213501,2,0,P|421:351|457:349,1,58.4999973220826,2|2,1:2|1:2,0:0:0:0:
414,153,213667,2,0,P|443:152|470:161,1,58.4999973220826,10|0,0:0|0:0,0:0:0:0:
235,273,213834,5,6,2:3:0:0:
207,281,213917,1,4,2:3:0:0:
178,281,214001,2,0,P|142:267|100:262,1,67.5000025749208,6|0,1:2|0:0,0:0:0:0:
0,153,214167,1,2,0:0:0:0:
274,37,214334,1,10,0:0:0:0:
132,0,214501,6,0,P|106:86|95:169,1,168.75,2|0,1:2|0:0,0:0:0:0:
29,265,214834,1,2,1:2:0:0:
316,169,215001,1,4,2:3:0:0:
29,265,215167,6,0,B|91:221|155:273|150:279|146:284|203:338|271:296,1,251.999992309571,6|0,3:1|0:0,0:0:0:0:
431,211,216084,5,2,0:0:0:0:
431,211,216223,2,0,P|407:267|401:327,1,104.999996795654,2|0,0:0|0:0,0:0:0:0:
254,358,216667,6,0,B|259:260|352:272|488:207|469:-21|255:-49|209:70|209:70|83:31|26:184|90:282|194:230|238:286|238:286|206:241|224:189,1,1053.00003534851,4|0,1:1|0:0,0:0:0:0:
283,148,221834,6,0,P|300:127|291:99,1,52.6500017674256,0|0,1:2|1:2,0:0:0:0:
