osu file format v14

[General]
AudioFilename: audio.ogg
AudioLeadIn: 0
PreviewTime: 668
Countdown: 0
SampleSet: Soft
StackLeniency: 0.7
Mode: 0
LetterboxInBreaks: 0
WidescreenStoryboard: 1

[Editor]
Bookmarks: 8668,16668,27335,43334,51334,72667,80667,91334,102001,107334,115334,136667,147334,155334,160667,168667,174001,179334,200667,208667,215334,222084
DistanceSpacing: 1.3
BeatDivisor: 4
GridSize: 8
TimelineZoom: 2.4

[Metadata]
Title:Kenkoi Itteki
TitleUnicode:拳恋一擲
Artist:Yamazaki Moe
ArtistUnicode:山崎もえ
Creator:pnky
Version:Hard
Source:クナド国記
Tags:kunado kokuki eroge purple software パープルソフトウェア visual novel japanese pop j-pop jpop insert song 挿入歌 vn video game videogame female vocals vocalist
BeatmapID:3890056
BeatmapSetID:1888849

[Difficulty]
HPDrainRate:4
CircleSize:4
OverallDifficulty:6.5
ApproachRate:8
SliderMultiplier:1.4
SliderTickRate:1

[Events]
//Background and Video events
0,0,"akane.jpg",0,0
//Break Periods
2,169751,173251
//Storyboard Layer 0 (Background)
//Storyboard Layer 1 (Fail)
//Storyboard Layer 2 (Pass)
//Storyboard Layer 3 (Foreground)
//Storyboard Layer 4 (Overlay)
//Storyboard Sound Samples

[TimingPoints]
668,333.333333333333,4,2,1,40,1,0
668,-142.857142857143,4,2,1,40,0,0
8667,-100,4,2,2,75,0,0
15167,-111.111111111111,4,2,2,75,0,0
16084,-111.111111111111,4,2,2,55,0,0
16667,-125,4,2,2,50,0,0
27334,-111.111111111111,4,2,4,60,0,0
27917,-111.111111111111,4,2,3,60,0,0
28001,-111.111111111111,4,2,4,60,0,0
31917,-111.111111111111,4,2,3,60,0,0
32001,-111.111111111111,4,2,4,60,0,0
33251,-111.111111111111,4,2,3,60,0,0
33334,-111.111111111111,4,2,4,60,0,0
34584,-111.111111111111,4,2,3,60,0,0
34667,-111.111111111111,4,2,4,60,0,0
35834,-111.111111111111,4,2,3,60,0,0
36001,-111.111111111111,4,2,4,60,0,0
36834,-111.111111111111,4,2,3,60,0,0
37001,-111.111111111111,4,2,4,60,0,0
38001,-99.9999999999999,4,2,2,70,0,0
39917,-99.9999999999999,4,2,3,70,0,0
40084,-99.9999999999999,4,2,2,70,0,0
40334,-99.9999999999999,4,2,4,70,0,0
40417,-99.9999999999999,4,2,2,70,0,0
42584,-99.9999999999999,4,2,3,70,0,0
42667,-99.9999999999999,4,2,2,70,0,0
43334,-105.263157894737,4,2,4,65,0,0
43917,-105.263157894737,4,2,3,65,0,0
44001,-105.263157894737,4,2,4,65,0,0
44501,-105.263157894737,4,2,3,65,0,0
44667,-105.263157894737,4,2,4,65,0,0
46001,-105.263157894737,4,2,2,65,0,0
46584,-105.263157894737,4,2,3,65,0,0
46667,-105.263157894737,4,2,2,65,0,0
47917,-105.263157894737,4,2,3,65,0,0
48001,-105.263157894737,4,2,2,65,0,0
48667,-105.263157894737,4,2,2,75,0,0
49751,-105.263157894737,4,2,3,75,0,0
49834,-105.263157894737,4,2,2,75,0,0
50251,-105.263157894737,4,2,3,75,0,0
50334,-105.263157894737,4,2,2,75,0,0
50501,-105.263157894737,4,2,3,75,0,0
50667,-105.263157894737,4,2,2,75,0,0
51334,-95.2380952380952,4,2,2,80,0,1
53917,-95.2380952380952,4,2,3,80,0,1
54001,-95.2380952380952,4,2,2,80,0,1
54334,-95.2380952380952,4,2,4,80,0,1
54417,-95.2380952380952,4,2,2,80,0,1
54584,-95.2380952380952,4,2,3,80,0,1
54667,-95.2380952380952,4,2,2,80,0,1
55001,-95.2380952380952,4,2,4,80,0,1
55084,-95.2380952380952,4,2,2,80,0,1
55251,-95.2380952380952,4,2,3,80,0,1
55334,-95.2380952380952,4,2,2,80,0,1
56334,-95.2380952380952,4,2,4,80,0,1
56417,-95.2380952380952,4,2,2,80,0,1
56584,-95.2380952380952,4,2,3,80,0,1
56667,-95.2380952380952,4,2,2,80,0,1
57917,-95.2380952380952,4,2,3,80,0,1
58001,-95.2380952380952,4,2,2,80,0,1
58751,-95.2380952380952,4,2,3,80,0,1
58834,-95.2380952380952,4,2,2,80,0,1
59001,-95.2380952380952,4,2,4,80,0,1
59084,-95.2380952380952,4,2,2,80,0,1
59251,-95.2380952380952,4,2,3,80,0,1
59334,-95.2380952380952,4,2,2,80,0,1
60584,-95.2380952380952,4,2,3,80,0,1
60667,-95.2380952380952,4,2,2,80,0,1
61667,-95.2380952380952,4,2,3,80,0,1
62001,-95.2380952380952,4,2,2,80,0,1
63917,-95.2380952380952,4,2,3,80,0,1
64001,-95.2380952380952,4,2,2,80,0,1
64334,-95.2380952380952,4,2,4,80,0,1
64417,-95.2380952380952,4,2,2,80,0,1
64667,-95.2380952380952,4,2,4,80,0,1
64751,-95.2380952380952,4,2,2,80,0,1
65251,-95.2380952380952,4,2,3,80,0,1
65334,-95.2380952380952,4,2,2,80,0,1
65667,-95.2380952380952,4,2,4,80,0,1
65751,-95.2380952380952,4,2,2,80,0,1
66584,-95.2380952380952,4,2,3,80,0,1
66667,-95.2380952380952,4,2,2,80,0,1
67167,-95.2380952380952,4,2,3,80,0,1
67334,-95.2380952380952,4,2,2,80,0,1
67917,-95.2380952380952,4,2,3,80,0,1
68001,-95.2380952380952,4,2,2,80,0,1
68334,-95.2380952380952,4,2,4,80,0,1
68417,-95.2380952380952,4,2,2,80,0,1
68584,-95.2380952380952,4,2,3,80,0,1
68667,-95.2380952380952,4,2,2,80,0,1
69167,-95.2380952380952,4,2,3,80,0,1
69334,-95.2380952380952,4,2,2,80,0,1
69667,-95.2380952380952,4,2,4,80,0,1
69751,-95.2380952380952,4,2,2,80,0,1
70584,-95.2380952380952,4,2,3,80,0,1
70667,-95.2380952380952,4,2,2,80,0,1
71251,-95.2380952380952,4,2,3,80,0,1
71334,-95.2380952380952,4,2,2,80,0,1
72334,-95.2380952380952,4,2,3,80,0,1
72667,-100,4,2,2,75,0,0
80084,-100,4,2,2,55,0,0
80667,-142.857142857143,4,2,2,45,0,0
90667,-125,4,2,2,45,0,0
90751,-125,4,2,3,45,0,0
90917,-125,4,2,2,45,0,0
91001,-125,4,2,3,45,0,0
91167,-125,4,2,2,45,0,0
91334,-111.111111111111,4,2,4,60,0,0
91917,-111.111111111111,4,2,3,60,0,0
92001,-111.111111111111,4,2,4,60,0,0
95917,-111.111111111111,4,2,3,60,0,0
96001,-111.111111111111,4,2,4,60,0,0
97251,-111.111111111111,4,2,3,60,0,0
97334,-111.111111111111,4,2,4,60,0,0
98584,-111.111111111111,4,2,3,60,0,0
98667,-111.111111111111,4,2,4,60,0,0
99834,-111.111111111111,4,2,3,60,0,0
100001,-111.111111111111,4,2,4,60,0,0
100834,-111.111111111111,4,2,3,60,0,0
101001,-111.111111111111,4,2,4,60,0,0
102001,-100,4,2,2,70,0,0
103917,-100,4,2,3,70,0,0
104084,-100,4,2,2,70,0,0
104334,-100,4,2,4,70,0,0
104501,-100,4,2,2,70,0,0
106779,-100,4,2,3,70,0,0
106890,-100,4,2,4,70,0,0
107334,-105.263157894737,4,2,4,65,0,0
107917,-105.263157894737,4,2,3,65,0,0
108001,-105.263157894737,4,2,4,65,0,0
108501,-105.263157894737,4,2,3,65,0,0
108667,-105.263157894737,4,2,4,65,0,0
110001,-105.263157894737,4,2,2,65,0,0
110584,-105.263157894737,4,2,3,65,0,0
110667,-105.263157894737,4,2,2,65,0,0
111917,-105.263157894737,4,2,3,65,0,0
112001,-105.263157894737,4,2,2,65,0,0
112667,-105.263157894737,4,2,2,75,0,0
113751,-105.263157894737,4,2,3,75,0,0
113834,-105.263157894737,4,2,2,75,0,0
114251,-105.263157894737,4,2,3,75,0,0
114334,-105.263157894737,4,2,2,75,0,0
114501,-105.263157894737,4,2,3,75,0,0
114667,-105.263157894737,4,2,2,75,0,0
115334,-95.2380952380952,4,2,2,80,0,1
115834,-95.2380952380952,4,2,3,80,0,1
116001,-95.2380952380952,4,2,2,80,0,1
116667,-95.2380952380952,4,2,4,80,0,1
116751,-95.2380952380952,4,2,2,80,0,1
117001,-95.2380952380952,4,2,4,80,0,1
117084,-95.2380952380952,4,2,2,80,0,1
117334,-95.2380952380952,4,2,4,80,0,1
117417,-95.2380952380952,4,2,2,80,0,1
119167,-95.2380952380952,4,2,3,80,0,1
119334,-95.2380952380952,4,2,4,80,0,1
119417,-95.2380952380952,4,2,2,80,0,1
119667,-95.2380952380952,4,2,4,80,0,1
119751,-95.2380952380952,4,2,2,80,0,1
120001,-95.2380952380952,4,2,4,80,0,1
120084,-95.2380952380952,4,2,2,80,0,1
120334,-95.2380952380952,4,2,4,80,0,1
120417,-95.2380952380952,4,2,2,80,0,1
120501,-95.2380952380952,4,2,3,80,0,1
120667,-95.2380952380952,4,2,2,80,0,1
121917,-95.2380952380952,4,2,3,80,0,1
122001,-95.2380952380952,4,2,2,80,0,1
122584,-95.2380952380952,4,2,3,80,0,1
122667,-95.2380952380952,4,2,2,80,0,1
122751,-95.2380952380952,4,2,3,80,0,1
122834,-95.2380952380952,4,2,2,80,0,1
123251,-95.2380952380952,4,2,3,80,0,1
123334,-95.2380952380952,4,2,2,80,0,1
123667,-95.2380952380952,4,2,4,80,0,1
123751,-95.2380952380952,4,2,2,80,0,1
123917,-95.2380952380952,4,2,3,80,0,1
124001,-95.2380952380952,4,2,2,80,0,1
124334,-95.2380952380952,4,2,4,80,0,1
124417,-95.2380952380952,4,2,2,80,0,1
124501,-95.2380952380952,4,2,3,80,0,1
124667,-95.2380952380952,4,2,2,80,0,1
125251,-95.2380952380952,4,2,3,80,0,1
125334,-95.2380952380952,4,2,2,80,0,1
125584,-95.2380952380952,4,2,3,80,0,1
125834,-95.2380952380952,4,2,2,80,0,1
126001,-95.2380952380952,4,2,5,80,0,1
126084,-95.2380952380952,4,2,2,80,0,1
126584,-95.2380952380952,4,2,3,80,0,1
126667,-95.2380952380952,4,2,2,80,0,1
127251,-95.2380952380952,4,2,3,80,0,1
127334,-95.2380952380952,4,2,2,80,0,1
127917,-95.2380952380952,4,2,3,80,0,1
128001,-95.2380952380952,4,2,2,80,0,1
128584,-95.2380952380952,4,2,3,80,0,1
128667,-95.2380952380952,4,2,2,80,0,1
131167,-95.2380952380952,4,2,3,80,0,1
131334,-95.2380952380952,4,2,2,80,0,1
131917,-95.2380952380952,4,2,3,80,0,1
132001,-95.2380952380952,4,2,2,80,0,1
132584,-95.2380952380952,4,2,3,80,0,1
132667,-95.2380952380952,4,2,2,80,0,1
133251,-95.2380952380952,4,2,3,80,0,1
133334,-95.2380952380952,4,2,2,80,0,1
133417,-95.2380952380952,4,2,3,80,0,1
133501,-95.2380952380952,4,2,2,80,0,1
133834,-95.2380952380952,4,2,3,80,0,1
134001,-95.2380952380952,4,2,2,80,0,1
134584,-95.2380952380952,4,2,3,80,0,1
134667,-95.2380952380952,4,2,2,80,0,1
135167,-95.2380952380952,4,2,3,80,0,1
135334,-95.2380952380952,4,2,2,80,0,1
136334,-95.2380952380952,4,2,3,80,0,1
136667,-100,4,2,2,75,0,0
139167,-100,4,2,3,75,0,0
139334,-100,4,2,2,75,0,0
141834,-100,4,2,3,75,0,0
142001,-100,4,2,2,75,0,0
143917,-100,4,2,3,75,0,0
144001,-100,4,2,2,75,0,0
144501,-100,4,2,3,75,0,0
144667,-100,4,2,2,75,0,0
145167,-100,4,2,3,75,0,0
145251,-100,4,2,2,75,0,0
145834,-100,4,2,3,75,0,0
146001,-100,4,2,2,75,0,0
154751,-100,4,2,2,55,0,0
155334,-100,4,2,2,70,0,0
157251,-100,4,2,3,70,0,0
157417,-100,4,2,2,70,0,0
157667,-100,4,2,4,70,0,0
157751,-100,4,2,2,70,0,0
159917,-100,4,2,3,70,0,0
160001,-100,4,2,2,70,0,0
160667,-105.263157894737,4,2,4,65,0,0
161251,-105.263157894737,4,2,3,65,0,0
161334,-105.263157894737,4,2,4,65,0,0
161834,-105.263157894737,4,2,3,65,0,0
162001,-105.263157894737,4,2,4,65,0,0
163334,-105.263157894737,4,2,2,65,0,0
163917,-105.263157894737,4,2,3,65,0,0
164001,-105.263157894737,4,2,2,65,0,0
165251,-105.263157894737,4,2,3,65,0,0
165334,-105.263157894737,4,2,2,65,0,0
166001,-105.263157894737,4,2,2,75,0,0
167084,-105.263157894737,4,2,3,75,0,0
167167,-105.263157894737,4,2,2,75,0,0
167584,-105.263157894737,4,2,3,75,0,0
167667,-105.263157894737,4,2,2,75,0,0
168001,-105.263157894737,4,2,3,75,0,0
168167,-105.263157894737,4,2,2,75,0,0
168667,-105.263157894737,4,2,6,60,0,0
168751,-105.263157894737,4,2,2,60,0,0
174001,-125,4,2,2,60,0,0
174445,-125,4,2,3,60,0,0
174667,-125,4,2,2,60,0,0
175112,-125,4,2,3,60,0,0
175334,-125,4,2,2,60,0,0
175779,-125,4,2,3,60,0,0
176001,-125,4,2,2,60,0,0
176445,-125,4,2,3,60,0,0
176667,-125,4,2,2,60,0,0
177112,-125,4,2,3,60,0,0
177334,-125,4,2,2,60,0,0
177779,-125,4,2,3,60,0,0
178001,-125,4,2,2,60,0,0
178667,-125,4,2,2,75,0,0
179001,-125,4,2,2,75,0,0
179334,-95.2380952380952,4,2,2,80,0,1
181917,-95.2380952380952,4,2,3,80,0,1
182001,-95.2380952380952,4,2,2,80,0,1
182334,-95.2380952380952,4,2,4,80,0,1
182417,-95.2380952380952,4,2,2,80,0,1
182584,-95.2380952380952,4,2,3,80,0,1
182667,-95.2380952380952,4,2,2,80,0,1
183001,-95.2380952380952,4,2,4,80,0,1
183084,-95.2380952380952,4,2,2,80,0,1
183251,-95.2380952380952,4,2,3,80,0,1
183334,-95.2380952380952,4,2,2,80,0,1
184334,-95.2380952380952,4,2,4,80,0,1
184417,-95.2380952380952,4,2,2,80,0,1
184584,-95.2380952380952,4,2,3,80,0,1
184667,-95.2380952380952,4,2,2,80,0,1
185917,-95.2380952380952,4,2,3,80,0,1
186001,-95.2380952380952,4,2,2,80,0,1
186751,-95.2380952380952,4,2,3,80,0,1
186834,-95.2380952380952,4,2,2,80,0,1
187001,-95.2380952380952,4,2,4,80,0,1
187084,-95.2380952380952,4,2,2,80,0,1
187251,-95.2380952380952,4,2,3,80,0,1
187334,-95.2380952380952,4,2,2,80,0,1
188584,-95.2380952380952,4,2,3,80,0,1
188667,-95.2380952380952,4,2,2,80,0,1
189667,-95.2380952380952,4,2,3,80,0,1
190001,-95.2380952380952,4,2,2,80,0,1
191917,-95.2380952380952,4,2,3,80,0,1
192001,-95.2380952380952,4,2,2,80,0,1
192334,-95.2380952380952,4,2,4,80,0,1
192417,-95.2380952380952,4,2,2,80,0,1
192667,-95.2380952380952,4,2,4,80,0,1
192751,-95.2380952380952,4,2,2,80,0,1
193251,-95.2380952380952,4,2,3,80,0,1
193334,-95.2380952380952,4,2,2,80,0,1
193667,-95.2380952380952,4,2,4,80,0,1
193751,-95.2380952380952,4,2,2,80,0,1
194584,-95.2380952380952,4,2,3,80,0,1
194667,-95.2380952380952,4,2,2,80,0,1
195167,-95.2380952380952,4,2,3,80,0,1
195334,-95.2380952380952,4,2,2,80,0,1
195917,-95.2380952380952,4,2,3,80,0,1
196001,-95.2380952380952,4,2,2,80,0,1
196334,-95.2380952380952,4,2,4,80,0,1
196417,-95.2380952380952,4,2,2,80,0,1
196584,-95.2380952380952,4,2,3,80,0,1
196667,-95.2380952380952,4,2,2,80,0,1
197167,-95.2380952380952,4,2,3,80,0,1
197334,-95.2380952380952,4,2,2,80,0,1
198584,-95.2380952380952,4,2,3,80,0,1
198667,-95.2380952380952,4,2,2,80,0,1
199251,-95.2380952380952,4,2,3,80,0,1
199334,-95.2380952380952,4,2,2,80,0,1
200001,-95.2380952380952,4,2,3,80,0,1
200334,-95.2380952380952,4,2,2,80,0,1
200667,-100,4,2,2,75,0,0
207501,-100,4,2,3,75,0,0
207667,-100,4,2,2,75,0,0
207834,-100,4,2,3,75,0,0
208001,-100,4,2,2,75,0,0
208167,-100,4,2,3,75,0,0
208334,-100,4,2,2,75,0,0
208417,-100,4,2,3,75,0,0
208667,-100,4,2,2,75,0,0
216084,-100,4,2,2,55,0,0
216667,-200,4,2,6,50,0,0
216751,-200,4,2,6,30,0,0
218334,-200,4,2,6,20,0,0
219667,-200,4,2,6,10,0,0
221667,-200,4,2,6,5,0,0
221834,-200,4,2,3,30,0,0
222084,-200,4,2,2,30,0,0

[Colours]
Combo1 : 240,200,155
Combo2 : 240,140,140
Combo3 : 200,180,220

[HitObjects]
49,143,668,6,0,P|42:92|72:54,1,97.9999970092774,2|0,3:2|3:2,0:0:0:0:
144,75,1167,2,0,P|151:126|121:164,1,97.9999970092774,2|0,3:2|0:0,0:0:0:0:
74,221,1667,1,2,0:0:0:0:
74,221,2001,2,0,L|84:283,1,48.9999985046387,0|2,3:2|3:2,0:0:0:0:
42,338,2334,1,0,3:2:0:0:
42,338,2501,1,0,3:2:0:0:
112,372,2667,2,0,P|158:347|208:349,1,97.9999970092774,2|2,3:2|0:0,0:0:0:0:
283,314,3167,5,2,0:0:0:0:
283,314,3251,1,2,0:0:0:0:
283,314,3334,2,0,P|327:343|383:343,1,97.9999970092774,2|0,3:2|3:2,0:0:0:0:
398,267,3834,2,0,P|354:238|298:238,1,97.9999970092774,2|2,3:2|3:2,0:0:0:0:
236,206,4334,2,0,P|220:180|223:147,1,48.9999985046387,0|2,0:0|0:0,0:0:0:0:
363,95,4834,5,2,3:2:0:0:
363,95,5001,1,2,3:2:0:0:
434,63,5167,2,0,L|440:31,2,24.4999992523194,2|2|2,3:2|0:0|0:0,0:0:0:0:
487,121,5501,1,0,3:2:0:0:
456,192,5667,2,0,L|446:252,1,48.9999985046387,2|0,0:0|0:0,0:0:0:0:
381,291,6001,6,0,P|353:277|318:286,1,48.9999985046387,2|0,0:0|0:0,0:0:0:0:
269,236,6334,2,0,P|242:253|233:288,1,48.9999985046387,2|0,0:0|0:0,0:0:0:0:
162,298,6667,2,0,P|135:280|126:245,1,48.9999985046387,2|0,0:0|0:0,0:0:0:0:
53,228,7000,2,0,P|54:196|80:170,1,48.9999985046387,2|0,0:0|0:0,0:0:0:0:
68,98,7334,1,2,0:0:0:0:
68,98,8667,6,0,B|146:91|139:131|212:129,1,140,6|8,1:1|0:0,0:0:0:0:
273,185,9167,1,2,1:2:0:0:
343,127,9334,2,0,L|329:52,1,70,10|0,0:0|1:2,0:0:0:0:
403,4,9667,1,10,0:0:0:0:
471,74,9834,6,0,L|448:236,1,140,6|0,1:2|1:2,0:0:0:0:
483,297,10334,2,0,B|460:324|460:324|419:323,1,70,8|0,0:0|1:2,0:0:0:0:
342,361,10667,2,0,B|307:354|307:354|287:318,1,70,10|0,0:0|1:2,0:0:0:0:
305,283,10917,1,0,1:2:0:0:
305,283,11001,1,10,0:0:0:0:
237,222,11167,1,0,1:2:0:0:
154,276,11334,6,0,P|114:322|29:316,1,140,6|8,1:1|0:0,0:0:0:0:
2,238,11834,2,0,L|11:163,1,70,2|8,1:2|0:0,0:0:0:0:
4,81,12167,1,2,1:2:0:0:
4,81,12334,1,10,0:0:0:0:
94,118,12501,6,0,L|239:138,1,140,6|2,1:2|1:2,0:0:0:0:
304,193,13001,1,10,0:0:0:0:
374,135,13167,1,2,1:2:0:0:
374,135,13251,1,2,0:0:0:0:
374,135,13334,1,10,0:0:0:0:
299,82,13501,2,0,L|293:42,2,35,2|2|10,1:2|1:2|0:0,0:0:0:0:
232,137,13834,1,6,2:3:0:0:
149,82,14001,6,0,P|88:56|10:71,1,140,6|10,1:2|0:0,0:0:0:0:
52,151,14501,2,0,P|22:172|10:207,1,70,2|0,1:2|0:0,0:0:0:0:
63,276,14834,2,0,P|99:272|127:248,1,70,2|4,1:2|2:3,0:0:0:0:
202,278,15167,1,6,3:1:0:0:
202,278,16667,6,0,P|257:308|321:305,1,112,0|0,1:2|1:2,0:0:0:0:
389,287,17167,1,2,0:0:0:0:
389,287,17334,2,0,L|381:219,1,56,2|2,1:2|0:0,0:0:0:0:
457,193,17667,2,0,L|465:125,1,56,2|2,1:2|0:0,0:0:0:0:
405,79,18001,2,0,P|351:127|299:122,1,112,0|0,1:2|1:2,0:0:0:0:
162,165,18667,2,0,P|127:149|100:143,1,56,2|0,1:2|0:0,0:0:0:0:
35,171,19001,2,0,P|3:216|7:255,1,84,2|0,1:2|0:0,0:0:0:0:
34,272,19334,6,0,P|89:263|156:259,1,112,2|2,1:2|1:2,0:0:0:0:
202,319,19834,1,2,0:0:0:0:
202,319,20001,2,0,P|246:349|308:340,1,112,0|0,1:2|1:2,0:0:0:0:
362,292,20501,1,0,3:2:0:0:
307,228,20667,6,0,B|314:173|272:181|290:119,1,112,0|0,1:2|1:2,0:0:0:0:
415,27,21334,2,0,P|402:81|397:137,1,112,0|0,1:2|1:2,0:0:0:0:
489,264,22001,6,0,P|501:318|507:375,1,112,0|0,1:2|1:2,0:0:0:0:
347,349,22667,2,0,B|300:339|297:377|239:367,1,112,2|2,1:2|1:2,0:0:0:0:
180,314,23167,1,2,0:0:0:0:
110,361,23334,6,0,P|67:317|79:258,1,112,0|2,1:2|1:2,0:0:0:0:
40,116,24001,2,0,P|71:115|102:130,1,56,2|0,1:2|0:0,0:0:0:0:
165,156,24334,2,0,P|209:131|262:132,1,84,2|0,1:2|0:0,0:0:0:0:
268,160,24667,2,0,P|314:191|389:191,1,112,2|2,1:2|1:2,0:0:0:0:
427,143,25167,1,2,0:0:0:0:
427,143,25334,2,0,L|404:24,1,112,0|0,1:2|1:2,0:0:0:0:
261,91,26001,5,2,1:2:0:0:
261,91,26167,1,2,2:3:0:0:
194,48,26334,2,0,L|128:37,1,56,2|2,1:3|0:0,0:0:0:0:
68,73,26667,2,0,P|46:107|56:128,1,56,2|0,1:3|0:0,0:0:0:0:
24,199,27001,2,0,P|45:245|99:245,1,84,6|0,1:3|0:0,0:0:0:0:
107,285,27334,6,0,P|170:268|248:258,1,125.999996154785,4|8,1:2|0:0,0:0:0:0:
299,205,27834,1,2,0:0:0:0:
368,259,28001,2,0,P|362:287|357:323,1,62.9999980773926,0|2,2:0|1:2,0:0:0:0:
439,352,28334,2,0,P|443:320|449:289,1,62.9999980773926,8|0,0:0|0:0,0:0:0:0:
510,218,28667,5,2,1:2:0:0:
510,218,28834,1,0,1:2:0:0:
447,155,29001,2,0,P|423:132|415:96,1,62.9999980773926,8|2,0:0|0:0,0:0:0:0:
336,63,29334,2,0,B|297:78|312:110|261:123,1,94.499997116089,0|0,2:2|0:0,0:0:0:0:
227,145,29667,2,0,P|184:129|159:131,1,62.9999980773926,8|0,0:0|0:0,0:0:0:0:
87,90,30001,6,0,P|34:123|32:187,1,125.999996154785,2|10,1:2|0:0,0:0:0:0:
90,237,30501,1,2,0:0:0:0:
22,282,30667,2,0,P|10:313|9:344,1,62.9999980773926,0|2,0:0|1:2,0:0:0:0:
85,372,31001,2,0,P|114:360|145:358,1,62.9999980773926,8|2,0:0|0:0,0:0:0:0:
213,301,31334,5,0,1:2:0:0:
213,301,31501,1,0,1:2:0:0:
283,341,31667,2,0,P|312:352|343:354,1,62.9999980773926,10|2,0:0|0:0,0:0:0:0:
408,303,32001,2,0,P|421:260|383:223,1,94.499997116089,0|0,2:2|0:0,0:0:0:0:
366,192,32334,2,0,L|374:129,1,62.9999980773926,10|0,0:0|0:0,0:0:0:0:
304,74,32667,6,0,B|267:60|267:60|351:33,1,125.999996154785,6|8,1:1|0:0,0:0:0:0:
434,38,33167,1,2,0:0:0:0:
434,38,33334,2,0,P|457:56|462:92,1,62.9999980773926,0|0,2:2|1:2,0:0:0:0:
508,162,33667,1,10,0:0:0:0:
508,162,33834,1,0,0:0:0:0:
446,225,34001,6,0,P|432:287|425:355,1,125.999996154785,6|8,1:1|0:0,0:0:0:0:
344,377,34501,1,2,0:0:0:0:
266,351,34667,2,0,P|260:326|251:272,1,62.9999980773926,0|0,0:0|1:2,0:0:0:0:
298,220,35001,1,8,0:0:0:0:
233,169,35167,1,0,0:0:0:0:
162,222,35334,6,0,P|153:251|147:285,2,62.9999980773926,6|0|10,1:1|1:2|0:0,0:0:0:0:
92,167,35834,2,0,P|52:103|70:47,1,125.999996154785,2|0,1:2|1:2,0:0:0:0:
138,13,36334,1,10,0:0:0:0:
266,114,36667,6,0,P|295:103|338:95,1,62.9999980773926,2|2,1:2|1:2,0:0:0:0:
398,55,37001,1,10,0:0:0:0:
459,110,37167,2,0,P|474:115|492:118,2,31.4999990386963,6|4|4,1:3|1:3|1:3,0:0:0:0:
425,185,37501,1,10,1:3:0:0:
343,175,37667,2,0,P|312:181|282:192,1,62.9999980773926,0|12,1:2|1:3,0:0:0:0:
200,232,38001,6,0,P|122:220|51:215,1,140,4|8,1:1|0:0,0:0:0:0:
50,305,38501,2,0,P|119:310|188:321,1,140,4|8,1:1|0:0,0:0:0:0:
262,375,39001,1,8,0:0:0:0:
349,352,39167,6,0,P|366:295|316:228,1,140,4|0,1:1|1:2,0:0:0:0:
248,180,39667,2,0,L|258:108,1,70,10|0,0:0|1:2,0:0:0:0:
260,89,39917,1,0,1:2:0:0:
264,68,40001,1,2,1:2:0:0:
189,16,40167,1,8,0:0:0:0:
113,66,40334,2,0,L|122:135,1,70,10|4,1:3|1:3,0:0:0:0:
170,220,40667,5,4,1:1:0:0:
84,251,40834,2,0,L|66:217,2,35,8|8|0,1:3|1:3|1:2,0:0:0:0:
162,315,41167,1,4,1:3:0:0:
162,315,41251,1,4,1:3:0:0:
162,315,41334,2,0,L|145:388,2,70,0|2|2,1:2|3:2|1:2,0:0:0:0:
248,285,41834,6,0,B|322:287|310:339|376:344,1,140,4|0,1:1|1:2,0:0:0:0:
442,287,42334,2,0,P|459:239|440:210,1,70,8|4,0:0|1:3,0:0:0:0:
438,208,42584,1,0,1:2:0:0:
418,201,42667,2,0,L|370:211,3,35,8|8|4|4,1:3|1:3|1:3|1:3,0:0:0:0:
338,196,43001,2,0,P|310:167|314:127,1,70,4|0,1:1|0:0,0:0:0:0:
243,83,43334,6,0,B|190:43|190:43|196:110,1,132.999996448517,4|0,1:2|3:2,0:0:0:0:
137,162,43834,1,0,1:2:0:0:
137,162,44001,2,0,P|109:206|178:251,1,132.999996448517,8|0,1:2|3:2,0:0:0:0:
248,236,44501,5,0,1:2:0:0:
248,236,44584,1,0,1:2:0:0:
248,236,44667,2,0,P|277:222|315:218,1,66.4999982242585,0|4,1:2|1:3,0:0:0:0:
382,253,45001,2,0,P|396:282|400:320,1,66.4999982242585,0|4,3:2|1:3,0:0:0:0:
345,373,45334,1,8,0:0:0:0:
271,357,45501,1,4,1:3:0:0:
271,357,45667,1,0,3:2:0:0:
99,379,46001,6,0,P|78:318|90:245,1,132.999996448517,6|8,1:1|0:0,0:0:0:0:
156,208,46501,1,2,0:0:0:0:
156,208,46584,1,0,1:2:0:0:
156,208,46667,2,0,P|149:170|130:135,1,66.4999982242585,0|0,1:3|1:3,0:0:0:0:
58,125,47001,2,0,P|30:147|-9:135,1,66.4999982242585,10|0,0:0|0:0,0:0:0:0:
74,47,47334,6,0,P|99:15|139:8,1,66.4999982242585,0|2,1:3|1:3,0:0:0:0:
190,49,47667,2,0,P|237:64|313:77,1,99.7499973363877,10|0,0:0|1:2,0:0:0:0:
318,49,48001,2,0,B|346:30|346:30|388:35,1,66.4999982242585,2|0,1:2|1:3,0:0:0:0:
439,86,48334,2,0,L|422:212,1,99.7499973363877,10|0,0:0|0:0,0:0:0:0:
389,213,48667,6,0,L|402:281,1,66.4999982242585,6|4,1:2|1:3,0:0:0:0:
365,357,49001,1,10,0:0:0:0:
281,317,49167,2,0,L|254:180,1,132.999996448517,6|8,1:2|1:2,0:0:0:0:
179,146,49667,1,2,0:0:0:0:
116,215,49834,6,0,L|140:345,1,132.999996448517,6|2,1:2|0:0,0:0:0:0:
60,377,50334,2,0,L|53:342,3,33.2499991121292,10|0|2|2,0:0|0:0|1:2|1:2,0:0:0:0:
44,301,50667,1,10,0:0:0:0:
165,159,51001,2,0,P|173:104|187:59,1,99.7499973363877,8|0,0:0|0:0,0:0:0:0:
230,34,51334,6,0,B|307:16|302:74|380:54,1,146.999995513916,6|10,1:2|0:0,0:0:0:0:
442,119,51834,1,0,0:0:0:0:
350,146,52001,2,0,P|329:209|336:225,1,73.4999977569581,2|0,1:2|1:2,0:0:0:0:
244,250,52334,1,10,0:0:0:0:
244,250,52501,1,2,0:0:0:0:
327,310,52667,6,0,L|422:289,1,73.4999977569581,0|0,1:2|0:0,0:0:0:0:
491,306,53001,2,0,L|462:176,1,110.249996635437,10|0,0:0|0:0,0:0:0:0:
482,153,53334,2,0,L|387:174,1,73.4999977569581,2|0,1:2|1:2,0:0:0:0:
332,122,53667,1,10,0:0:0:0:
332,122,53834,1,2,0:0:0:0:
249,184,54001,6,0,P|199:241|114:232,1,146.999995513916,2|8,1:2|3:2,0:0:0:0:
46,211,54501,1,2,0:0:0:0:
46,211,54667,2,0,L|33:130,1,73.4999977569581,0|0,1:2|1:2,0:0:0:0:
85,56,55001,2,0,B|98:31|121:21|121:21|160:36|210:35,1,110.249996635437,8|0,3:2|1:2,0:0:0:0:
225,53,55334,6,0,P|260:40|304:38,1,73.4999977569581,0|2,1:2|0:0,0:0:0:0:
339,13,55584,1,2,0:0:0:0:
339,13,55667,1,8,0:0:0:0:
412,74,55834,1,2,0:0:0:0:
345,143,56001,2,0,P|327:180|331:219,1,73.4999977569581,2|0,1:2|1:2,0:0:0:0:
418,257,56334,1,8,3:2:0:0:
418,257,56501,1,2,0:0:0:0:
373,349,56667,6,0,P|300:328|226:332,1,146.999995513916,6|8,1:1|0:0,0:0:0:0:
140,312,57167,1,2,0:0:0:0:
140,312,57334,2,0,P|110:347|83:354,1,73.4999977569581,0|0,1:2|1:2,0:0:0:0:
4,302,57667,2,0,P|7:242|22:189,1,110.249996635437,10|0,0:0|1:2,0:0:0:0:
68,172,58001,6,0,B|106:139|156:164|156:164|177:193|206:200,1,146.999995513916,6|10,1:1|0:0,0:0:0:0:
240,116,58501,1,2,0:0:0:0:
240,116,58584,1,2,0:0:0:0:
240,116,58667,2,0,P|256:84|239:42,1,73.4999977569581,2|0,1:2|1:2,0:0:0:0:
159,6,59001,2,0,L|79:24,1,73.4999977569581,10|2,3:2|0:0,0:0:0:0:
18,99,59334,6,0,B|-8:174|58:166|32:245,1,146.999995513916,6|8,1:1|0:0,0:0:0:0:
90,328,59834,1,2,0:0:0:0:
90,328,59917,1,2,0:0:0:0:
90,328,60001,2,0,P|122:306|177:305,1,73.4999977569581,6|0,1:1|1:2,0:0:0:0:
200,329,60251,1,2,0:0:0:0:
200,329,60334,1,10,0:0:0:0:
386,368,60667,6,0,P|370:302|356:217,2,146.999995513916,4|8|10,1:1|0:0|0:0,0:0:0:0:
482,368,61501,1,0,1:2:0:0:
508,276,61667,2,0,P|501:251|495:227,3,36.749998878479,0|0|0|0,1:2|1:2|1:2|1:2,0:0:0:0:
456,209,62001,6,0,P|454:144|493:111,1,110.249996635437,6|0,1:2|0:0,0:0:0:0:
472,68,62334,2,0,B|442:46|442:46|401:55,1,73.4999977569581,10|0,0:0|0:0,0:0:0:0:
321,98,62667,2,0,B|297:117|297:117|161:98,1,146.999995513916,2|10,1:2|0:0,0:0:0:0:
120,27,63167,1,2,0:0:0:0:
45,87,63334,6,0,L|67:164,1,73.4999977569581,0|0,1:2|0:0,0:0:0:0:
133,225,63667,2,0,B|85:284|85:284|163:270,1,146.999995513916,10|0,0:0|1:2,0:0:0:0:
228,209,64167,1,0,1:2:0:0:
228,209,64334,2,0,B|256:230|256:230|301:224,1,73.4999977569581,10|0,3:2|0:0,0:0:0:0:
386,251,64667,6,0,P|417:199|359:118,1,146.999995513916,2|10,3:2|0:0,0:0:0:0:
326,62,65167,1,2,0:0:0:0:
326,62,65251,1,0,1:2:0:0:
326,62,65334,2,0,L|231:81,2,73.4999977569581,0|0|10,1:2|1:2|3:2,0:0:0:0:
407,11,65834,6,0,B|450:-3|487:31|487:31|500:72|471:102,1,146.999995513916,6|0,1:1|1:2,0:0:0:0:
442,176,66334,2,0,P|426:222|432:264,1,73.4999977569581,10|0,0:0|0:0,0:0:0:0:
466,282,66584,1,0,1:2:0:0:
466,282,66667,1,2,1:2:0:0:
404,355,66834,1,0,1:2:0:0:
322,304,67001,2,0,P|290:267|250:251,1,73.4999977569581,10|2,0:0|1:2,0:0:0:0:
228,231,67251,1,0,1:2:0:0:
228,231,67334,6,0,P|180:271|93:285,1,146.999995513916,6|10,1:1|0:0,0:0:0:0:
19,232,67834,1,2,0:0:0:0:
69,150,68001,2,0,P|105:167|145:168,1,73.4999977569581,0|0,1:2|1:2,0:0:0:0:
161,76,68334,2,0,P|125:59|85:58,1,73.4999977569581,10|2,3:2|0:0,0:0:0:0:
226,141,68667,6,0,P|301:121|391:111,1,146.999995513916,4|8,1:1|0:0,0:0:0:0:
428,200,69167,1,0,1:2:0:0:
428,200,69251,1,0,1:2:0:0:
428,200,69334,2,0,P|403:239|407:284,1,73.4999977569581,0|0,1:2|1:2,0:0:0:0:
469,339,69667,1,10,3:2:0:0:
469,339,69834,1,2,0:0:0:0:
369,366,70001,6,0,P|295:369|218:385,1,146.999995513916,6|10,1:1|0:0,0:0:0:0:
141,334,70501,1,2,0:0:0:0:
206,255,70667,2,0,P|241:246|278:243,1,73.4999977569581,4|0,1:1|1:2,0:0:0:0:
337,168,71001,2,0,P|328:132|325:95,1,73.4999977569581,10|0,0:0|0:0,0:0:0:0:
239,39,71334,6,0,P|167:53|93:56,1,146.999995513916,6|10,1:1|0:0,0:0:0:0:
23,121,71834,1,2,0:0:0:0:
86,192,72001,1,10,0:0:0:0:
24,265,72167,1,0,1:2:0:0:
24,265,72251,1,0,1:2:0:0:
24,265,72334,2,0,L|19:310,3,36.749998878479,0|0|0|0,1:2|1:2|1:2|1:2,0:0:0:0:
45,343,72667,6,0,B|103:337|103:337|133:352|133:352|195:345,1,140,6|8,1:1|0:0,0:0:0:0:
228,268,73167,1,2,1:2:0:0:
309,309,73334,2,0,B|288:340|288:340|292:385,1,70,10|0,0:0|1:2,0:0:0:0:
381,364,73667,1,10,0:0:0:0:
458,303,73834,6,0,L|439:147,1,140,6|0,1:2|1:2,0:0:0:0:
350,157,74334,2,0,P|314:193|287:196,1,70,8|0,0:0|1:2,0:0:0:0:
227,255,74667,2,0,P|177:241|161:219,1,70,10|0,0:0|1:2,0:0:0:0:
129,211,74917,1,0,1:2:0:0:
129,211,75001,1,10,0:0:0:0:
46,174,75167,1,0,1:2:0:0:
102,93,75334,6,0,P|171:99|243:112,1,140,6|8,1:1|0:0,0:0:0:0:
306,48,75834,2,0,P|336:22|374:22,1,70,2|8,1:2|0:0,0:0:0:0:
454,55,76167,1,2,1:2:0:0:
454,55,76334,1,10,0:0:0:0:
409,142,76501,6,0,P|396:198|381:293,1,140,6|2,1:2|1:2,0:0:0:0:
442,348,77001,1,10,0:0:0:0:
360,371,77167,1,2,1:2:0:0:
360,371,77251,1,2,0:0:0:0:
360,371,77334,1,10,0:0:0:0:
292,300,77501,2,0,P|284:281|278:264,2,35,2|2|10,1:2|1:2|0:0,0:0:0:0:
230,367,77834,1,6,2:3:0:0:
143,320,78001,6,0,P|88:364|3:364,1,140,6|10,1:2|0:0,0:0:0:0:
48,282,78501,2,0,P|30:242|32:209,1,70,2|0,1:2|0:0,0:0:0:0:
107,167,78834,2,0,B|134:188|134:188|179:178,1,70,2|4,1:2|2:3,0:0:0:0:
225,108,79167,1,6,3:1:0:0:
225,108,80667,6,0,P|266:62|314:70,1,97.9999970092774,0|0,3:2|3:2,0:0:0:0:
375,37,81167,1,2,3:2:0:0:
375,37,81334,2,0,P|397:61|424:73,1,48.9999985046387,2|2,0:0|0:0,0:0:0:0:
472,125,81667,1,2,3:2:0:0:
472,125,81834,1,2,0:0:0:0:
403,265,82167,2,0,B|362:265|362:310|315:313,1,97.9999970092774,0|0,3:2|0:0,0:0:0:0:
258,264,82667,2,0,P|234:246|204:235,1,48.9999985046387,2|0,3:2|0:0,0:0:0:0:
145,274,83001,2,0,B|123:277|97:290|97:290|66:286,1,73.4999977569581,2|0,3:2|0:0,0:0:0:0:
44,262,83334,6,0,P|22:205|46:164,1,97.9999970092774,2|2,3:2|3:2,0:0:0:0:
99,128,83834,1,2,3:2:0:0:
231,51,84167,2,0,L|237:-9,2,48.9999985046387,0|0|0,3:2|0:0|3:2,0:0:0:0:
293,100,84667,1,0,3:2:0:0:
419,80,85001,1,0,3:2:0:0:
439,206,85334,1,0,3:2:0:0:
313,226,85667,1,0,3:2:0:0:
267,345,86001,6,0,P|319:327|371:319,1,97.9999970092774,0|0,3:2|0:0,0:0:0:0:
434,360,86501,1,0,0:0:0:0:
434,360,86667,2,0,P|459:371|484:376,1,48.9999985046387,2|0,0:0|3:2,0:0:0:0:
503,300,87001,2,0,P|479:294|456:284,1,48.9999985046387,2|2,0:0|3:2,0:0:0:0:
414,218,87334,2,0,P|396:148|412:117,1,97.9999970092774,0|2,3:2|0:0,0:0:0:0:
361,53,87834,1,0,3:2:0:0:
361,53,88001,2,0,P|309:103|274:105,1,97.9999970092774,2|2,3:2|3:2,0:0:0:0:
154,189,88667,6,0,P|103:179|51:176,1,97.9999970092774,2|2,3:2|0:0,0:0:0:0:
19,244,89167,1,2,3:2:0:0:
135,348,89501,2,0,P|160:335|192:323,1,48.9999985046387,0|0,3:2|0:0,0:0:0:0:
251,296,89834,1,8,0:0:0:0:
251,296,90667,6,0,P|202:303|174:339,1,84,8|8,2:0|2:0,0:0:0:0:
186,366,91001,2,0,P|208:381|248:381,1,56,0|8,1:2|0:0,0:0:0:0:
321,349,91334,2,0,B|389:337|380:382|470:369,1,125.999996154785,4|8,1:2|0:0,0:0:0:0:
493,307,91834,1,2,0:0:0:0:
456,233,92001,2,0,P|424:253|389:262,1,62.9999980773926,0|2,2:0|1:2,0:0:0:0:
369,184,92334,2,0,P|398:173|424:156,1,62.9999980773926,8|0,0:0|0:0,0:0:0:0:
444,72,92667,5,2,1:2:0:0:
444,72,92834,1,0,1:2:0:0:
377,23,93001,2,0,P|342:35|339:77,1,62.9999980773926,8|2,0:0|0:0,0:0:0:0:
252,69,93334,2,0,P|243:133|273:155,1,94.499997116089,0|0,2:2|0:0,0:0:0:0:
274,188,93667,2,0,P|305:177|341:169,1,62.9999980773926,8|0,0:0|0:0,0:0:0:0:
411,213,94001,6,0,P|429:260|385:331,1,125.999996154785,2|10,1:2|0:0,0:0:0:0:
330,371,94501,1,2,0:0:0:0:
259,329,94667,2,0,P|228:324|195:321,1,62.9999980773926,0|2,0:0|1:2,0:0:0:0:
120,352,95001,2,0,B|89:358|89:358|102:329,1,62.9999980773926,8|2,0:0|0:0,0:0:0:0:
44,269,95334,5,0,1:2:0:0:
44,269,95501,1,0,1:2:0:0:
98,208,95667,2,0,L|113:139,1,62.9999980773926,10|2,0:0|0:0,0:0:0:0:
40,104,96001,2,0,P|4:64|28:29,1,94.499997116089,0|0,2:2|0:0,0:0:0:0:
54,10,96334,2,0,P|86:20|115:24,1,62.9999980773926,10|0,0:0|0:0,0:0:0:0:
188,73,96667,6,0,P|248:58|317:48,1,125.999996154785,6|8,1:1|0:0,0:0:0:0:
376,106,97167,1,2,0:0:0:0:
376,106,97334,2,0,P|383:144|361:171,1,62.9999980773926,0|0,2:2|1:2,0:0:0:0:
301,203,97667,1,10,0:0:0:0:
301,203,97834,1,0,0:0:0:0:
349,277,98001,6,0,P|417:261|476:251,1,125.999996154785,6|8,1:1|0:0,0:0:0:0:
449,339,98501,1,2,0:0:0:0:
449,339,98667,2,0,P|417:344|387:351,1,62.9999980773926,0|0,0:0|1:2,0:0:0:0:
304,347,99001,1,8,0:0:0:0:
228,378,99167,1,0,0:0:0:0:
234,289,99334,6,0,P|243:252|248:225,2,62.9999980773926,6|0|10,1:1|1:2|0:0,0:0:0:0:
145,297,99834,2,0,P|164:219|175:161,1,125.999996154785,2|0,1:2|1:2,0:0:0:0:
119,103,100334,1,10,0:0:0:0:
8,221,100667,6,0,P|18:248|29:285,1,62.9999980773926,2|2,1:2|1:2,0:0:0:0:
63,354,101001,1,10,0:0:0:0:
145,343,101167,2,0,P|142:356|139:378,2,31.4999990386963,6|4|4,1:3|1:3|1:3,0:0:0:0:
159,261,101501,1,10,1:3:0:0:
85,222,101667,2,0,P|76:192|66:163,1,62.9999980773926,0|12,1:2|1:3,0:0:0:0:
41,74,102001,6,0,B|86:80|86:80|127:41|191:59,1,140,4|8,1:1|0:0,0:0:0:0:
249,105,102501,2,0,P|265:148|228:244,1,140,4|8,1:1|0:0,0:0:0:0:
156,274,103001,1,8,0:0:0:0:
216,341,103167,6,0,P|286:322|366:311,1,140,4|0,1:1|1:2,0:0:0:0:
438,341,103667,2,0,P|461:301|450:275,1,70,10|0,0:0|1:2,0:0:0:0:
441,264,103917,1,0,1:2:0:0:
420,257,104001,1,2,1:2:0:0:
356,191,104167,1,8,0:0:0:0:
430,131,104334,2,0,P|465:142|509:150,1,70,10|4,1:3|1:3,0:0:0:0:
407,47,104667,5,4,1:1:0:0:
317,30,104834,2,0,P|309:12|301:0,2,35,8|8|0,1:3|1:3|1:2,0:0:0:0:
272,112,105167,1,4,1:3:0:0:
272,112,105251,1,4,1:3:0:0:
272,112,105334,2,0,P|261:147|253:191,2,70,0|2|2,1:2|3:2|1:2,0:0:0:0:
204,50,105834,6,0,B|133:41|136:101|51:90,1,140,4|0,1:1|1:2,0:0:0:0:
31,172,106334,2,0,P|22:207|52:238,1,70,8|4,0:0|1:3,0:0:0:0:
60,238,106584,1,0,1:2:0:0:
80,234,106667,6,0,P|126:210|214:246,1,140,8|0,1:3|1:2,0:0:0:0:
260,308,107167,1,2,0:0:0:0:
330,237,107334,6,0,L|315:98,1,132.999996448517,4|0,1:2|3:2,0:0:0:0:
375,51,107834,1,0,1:2:0:0:
375,51,108001,2,0,P|450:60|455:117,1,132.999996448517,8|0,1:2|3:2,0:0:0:0:
418,186,108501,5,0,1:2:0:0:
418,186,108584,1,0,1:2:0:0:
418,186,108667,2,0,P|410:221|405:257,1,66.4999982242585,0|4,1:2|1:3,0:0:0:0:
411,331,109001,2,0,P|376:323|340:318,1,66.4999982242585,0|4,3:2|1:3,0:0:0:0:
278,359,109334,1,8,0:0:0:0:
278,359,109501,1,4,1:3:0:0:
219,305,109667,1,0,3:2:0:0:
71,366,110001,6,0,P|32:316|52:243,1,132.999996448517,6|8,1:1|0:0,0:0:0:0:
110,204,110501,1,2,0:0:0:0:
110,204,110584,1,0,1:2:0:0:
110,204,110667,2,0,L|96:128,1,66.4999982242585,0|0,1:3|1:3,0:0:0:0:
171,105,111001,2,0,P|199:130|239:136,1,66.4999982242585,10|0,0:0|0:0,0:0:0:0:
260,216,111334,6,0,P|235:244|229:284,1,66.4999982242585,0|2,1:3|1:3,0:0:0:0:
275,335,111667,2,0,L|379:320,1,99.7499973363877,10|0,0:0|1:2,0:0:0:0:
406,344,112001,2,0,P|438:372|466:371,1,66.4999982242585,2|0,1:2|1:3,0:0:0:0:
505,298,112334,2,0,L|490:194,1,99.7499973363877,10|0,0:0|0:0,0:0:0:0:
448,180,112667,6,0,B|422:202|422:202|382:198,1,66.4999982242585,6|4,1:2|1:3,0:0:0:0:
325,140,113001,1,10,0:0:0:0:
250,194,113167,2,0,B|192:160|192:160|123:172,1,132.999996448517,6|8,1:2|1:2,0:0:0:0:
101,329,113834,6,0,B|159:363|159:363|228:351,1,132.999996448517,6|2,1:2|0:0,0:0:0:0:
309,348,114334,2,0,L|347:336,3,33.2499991121292,10|0|2|2,0:0|0:0|1:2|1:2,0:0:0:0:
382,325,114667,1,10,0:0:0:0:
480,182,115001,2,0,P|495:132|442:87,1,99.7499973363877,8|0,0:0|0:0,0:0:0:0:
442,55,115334,6,0,B|372:46|376:106|300:92,1,146.999995513916,6|10,1:2|0:0,0:0:0:0:
244,167,115834,1,0,1:2:0:0:
157,127,116001,2,0,P|130:86|132:52,1,73.4999977569581,2|0,1:2|1:2,0:0:0:0:
51,7,116334,2,0,P|34:46|14:121,1,110.249996635437,10|0,0:0|0:0,0:0:0:0:
51,147,116667,6,0,P|78:188|76:222,1,73.4999977569581,0|2,3:2|0:0,0:0:0:0:
18,287,117001,1,10,3:2:0:0:
18,287,117167,1,2,0:0:0:0:
100,336,117334,2,0,P|139:324|173:316,1,73.4999977569581,10|0,3:3|1:2,0:0:0:0:
238,248,117667,2,0,P|277:259|311:268,1,73.4999977569581,10|2,0:0|0:0,0:0:0:0:
385,197,118001,6,0,B|416:179|416:179|458:182,1,73.4999977569581,2|2,1:2|0:0,0:0:0:0:
503,263,118334,1,10,0:0:0:0:
452,346,118501,1,2,0:0:0:0:
452,346,118584,1,2,0:0:0:0:
452,346,118667,2,0,B|419:328|419:328|379:331,1,73.4999977569581,2|2,1:2|1:2,0:0:0:0:
300,380,119001,2,0,L|217:367,1,73.4999977569581,10|2,0:0|1:2,0:0:0:0:
162,288,119334,6,0,L|153:252,2,36.749998878479,2|0|2,3:2|0:0|0:0,0:0:0:0:
85,346,119667,2,0,L|64:263,1,73.4999977569581,10|2,3:2|0:0,0:0:0:0:
9,204,120001,1,10,3:3:0:0:
9,204,120167,1,2,1:2:0:0:
58,122,120334,2,0,B|86:146|86:146|133:142,1,73.4999977569581,10|2,3:2|1:2,0:0:0:0:
157,109,120584,1,2,1:2:0:0:
157,109,120667,6,0,B|219:70|219:70|298:82,1,146.999995513916,6|8,1:1|0:0,0:0:0:0:
382,44,121167,1,2,0:0:0:0:
382,44,121334,2,0,B|447:22|447:22|418:102,1,146.999995513916,2|10,1:2|0:0,0:0:0:0:
352,174,121834,5,2,0:0:0:0:
352,174,121917,1,2,1:2:0:0:
352,174,122001,2,0,L|380:327,1,146.999995513916,6|8,1:1|0:0,0:0:0:0:
295,367,122501,1,2,0:0:0:0:
206,331,122667,2,0,L|219:252,1,73.4999977569581,0|0,1:2|1:2,0:0:0:0:
122,273,123001,2,0,L|110:345,1,73.4999977569581,10|0,0:0|0:0,0:0:0:0:
42,227,123334,6,0,P|2:181|18:97,1,146.999995513916,6|8,1:2|3:2,0:0:0:0:
98,50,123834,1,2,0:0:0:0:
98,50,123917,1,2,1:2:0:0:
98,50,124001,1,6,1:2:0:0:
172,109,124167,1,0,1:2:0:0:
261,74,124334,2,0,L|250:0,1,73.4999977569581,8|0,3:2|1:2,0:0:0:0:
337,129,124667,6,0,P|292:173|292:229,1,110.249996635437,6|0,1:2|0:0,0:0:0:0:
268,261,125001,2,0,P|286:301|317:314,1,73.4999977569581,10|0,0:0|1:2,0:0:0:0:
392,372,125334,1,14,1:2:0:0:
392,372,125501,1,0,1:2:0:0:
463,308,125667,2,0,L|457:271,3,36.749998878479,2|0|8|8,1:2|1:2|0:0|0:0,0:0:0:0:
481,225,126001,6,0,L|496:137,1,73.4999977569581,6|2,1:1|0:0,0:0:0:0:
446,74,126334,1,10,0:0:0:0:
446,74,126501,1,2,0:0:0:0:
365,124,126667,2,0,L|277:109,1,73.4999977569581,0|0,1:2|1:2,0:0:0:0:
215,170,127001,1,10,0:0:0:0:
123,145,127167,2,0,P|117:100|127:75,1,73.4999977569581,2|0,0:0|1:2,0:0:0:0:
211,12,127501,5,2,0:0:0:0:
211,12,127584,1,2,0:0:0:0:
211,12,127667,2,0,B|291:-3|290:47|376:31,1,146.999995513916,10|0,0:0|1:2,0:0:0:0:
447,12,128167,1,0,1:2:0:0:
492,96,128334,2,0,P|475:135|470:178,1,73.4999977569581,10|2,0:0|0:0,0:0:0:0:
396,237,128667,6,0,P|412:275|418:319,1,73.4999977569581,2|2,1:2|0:0,0:0:0:0:
349,374,129001,1,10,0:0:0:0:
269,341,129167,1,0,0:0:0:0:
269,341,129251,1,10,3:2:0:0:
269,341,129334,2,0,B|229:347|232:382|186:389,1,73.4999977569581,2|2,1:2|1:2,0:0:0:0:
129,328,129667,1,10,0:0:0:0:
36,372,129834,6,0,P|-2:307|38:227,1,146.999995513916,6|2,1:1|1:2,0:0:0:0:
62,219,130251,1,2,0:0:0:0:
62,219,130334,1,10,0:0:0:0:
2,144,130501,1,2,0:0:0:0:
68,75,130667,2,0,P|109:63|158:54,1,73.4999977569581,0|0,1:2|1:2,0:0:0:0:
224,11,131001,1,10,0:0:0:0:
285,105,131167,5,2,1:2:0:0:
285,105,131251,1,0,1:2:0:0:
285,105,131334,2,0,B|251:169|310:189|266:253,1,146.999995513916,6|10,1:1|0:0,0:0:0:0:
197,308,131834,1,2,0:0:0:0:
287,340,132001,2,0,P|335:320|367:312,1,73.4999977569581,0|0,1:2|1:2,0:0:0:0:
439,370,132334,1,10,0:0:0:0:
439,370,132501,1,2,0:0:0:0:
508,295,132667,5,4,1:1:0:0:
508,295,132834,2,0,P|512:246|491:215,1,73.4999977569581,2|8,0:0|0:0,0:0:0:0:
406,241,133167,1,2,0:0:0:0:
345,166,133334,2,0,P|341:117|362:86,1,73.4999977569581,2|0,1:2|1:2,0:0:0:0:
431,44,133667,1,10,0:0:0:0:
344,8,133834,5,2,1:2:0:0:
344,8,133917,1,0,1:2:0:0:
344,8,134001,2,0,B|274:4|270:48|193:35,1,146.999995513916,6|10,1:1|0:0,0:0:0:0:
110,7,134501,1,2,0:0:0:0:
33,64,134667,2,0,P|32:105|69:145,1,73.4999977569581,4|0,1:1|1:2,0:0:0:0:
125,189,135001,2,0,B|109:303,1,110.249996635437,10|0,0:0|1:2,0:0:0:0:
141,339,135334,6,0,B|182:334|179:357|229:355,1,73.4999977569581,6|0,1:1|1:2,0:0:0:0:
304,377,135667,2,0,P|327:346|306:258,1,110.249996635437,10|0,0:0|0:0,0:0:0:0:
280,252,136001,1,10,0:0:0:0:
304,159,136167,1,0,1:2:0:0:
397,180,136334,2,0,L|441:172,3,36.749998878479,2|0|2|0,1:2|1:2|1:2|1:2,0:0:0:0:
478,179,136667,6,0,P|495:126|431:71,2,140,6|8|0,1:1|0:0|1:2,0:0:0:0:
454,270,137501,1,0,1:2:0:0:
454,270,137667,2,0,P|418:287|391:314,1,70,10|0,0:0|0:0,0:0:0:0:
316,365,138001,6,0,P|241:352|165:348,1,140,2|10,1:2|0:0,0:0:0:0:
92,375,138501,1,0,0:0:0:0:
92,375,138667,2,0,P|64:335|76:306,1,70,2|0,1:2|1:2,0:0:0:0:
13,250,139001,1,10,0:0:0:0:
13,250,139167,1,2,1:2:0:0:
80,179,139334,6,0,P|128:218|211:218,1,140,2|10,1:2|0:0,0:0:0:0:
270,158,139834,1,2,0:0:0:0:
230,76,140001,2,0,P|194:98|157:100,1,70,0|0,1:2|1:2,0:0:0:0:
102,36,140334,2,0,P|48:39|36:99,1,105,10|0,0:0|0:0,0:0:0:0:
25,130,140667,6,0,P|40:160|53:198,1,70,2|2,1:2|0:0,0:0:0:0:
95,220,140917,1,2,0:0:0:0:
95,220,141001,1,10,0:0:0:0:
52,299,141167,1,2,0:0:0:0:
135,335,141334,2,0,L|189:319,3,35,2|0|0|0,1:2|1:0|1:2|1:0,0:0:0:0:
209,305,141667,2,0,P|254:327|294:324,1,70,10|2,0:0|1:2,0:0:0:0:
320,355,141917,1,0,1:2:0:0:
320,355,142001,6,0,P|376:336|414:257,1,140,6|10,1:1|0:0,0:0:0:0:
492,219,142501,1,2,0:0:0:0:
492,219,142667,2,0,P|478:179|471:142,1,70,0|0,1:2|1:2,0:0:0:0:
402,92,143001,2,0,P|362:106|325:113,1,70,10|0,0:0|0:0,0:0:0:0:
265,180,143334,6,0,P|201:165|124:152,1,140,6|10,1:1|0:0,0:0:0:0:
46,194,143834,1,0,0:0:0:0:
7,111,144001,2,0,P|14:78|21:40,1,70,2|2,1:2|1:2,0:0:0:0:
105,5,144334,1,10,0:0:0:0:
105,5,144501,1,2,1:2:0:0:
187,57,144667,6,0,P|251:72|328:85,1,140,6|8,1:1|0:0,0:0:0:0:
408,48,145167,1,0,1:2:0:0:
463,120,145334,2,0,P|462:160|439:180,1,70,4|2,1:1|1:2,0:0:0:0:
421,185,145584,1,2,0:0:0:0:
400,184,145667,1,10,0:0:0:0:
310,167,145834,1,0,1:2:0:0:
244,240,146001,6,0,P|228:307|290:365,1,140,6|8,1:1|0:0,0:0:0:0:
352,319,146501,1,0,0:0:0:0:
434,356,146667,2,0,P|444:318|454:286,1,70,6|0,1:1|1:2,0:0:0:0:
408,208,147001,2,0,P|403:189|399:172,3,35,8|8|8|8,0:0|0:0|0:0|0:0,0:0:0:0:
435,141,147334,6,0,P|478:91|435:33,1,140,6|8,1:1|0:0,0:0:0:0:
358,4,147834,1,2,1:2:0:0:
292,67,148001,2,0,B|275:83|275:83|219:75,1,70,10|0,0:0|1:2,0:0:0:0:
151,27,148334,1,10,0:0:0:0:
62,69,148501,6,0,B|36:106|36:106|64:202,1,140,6|0,1:2|1:2,0:0:0:0:
149,225,149001,2,0,L|219:213,1,70,8|0,0:0|1:2,0:0:0:0:
290,157,149334,2,0,L|360:145,1,70,10|0,0:0|1:2,0:0:0:0:
380,142,149584,1,0,1:2:0:0:
400,139,149667,1,10,0:0:0:0:
478,186,149834,1,0,1:2:0:0:
403,250,150001,6,0,P|352:295|364:379,1,140,6|8,1:1|0:0,0:0:0:0:
263,374,150501,2,0,P|232:352|184:352,1,70,2|8,1:2|0:0,0:0:0:0:
138,288,150834,1,2,1:2:0:0:
138,288,151001,1,10,0:0:0:0:
73,360,151167,6,0,P|91:280|96:211,1,140,6|2,1:2|1:2,0:0:0:0:
40,149,151667,1,10,0:0:0:0:
93,75,151834,1,2,1:2:0:0:
93,75,151917,1,2,0:0:0:0:
93,75,152001,1,10,0:0:0:0:
181,102,152167,2,0,L|168:146,2,35,2|2|10,1:2|1:2|0:0,0:0:0:0:
256,50,152501,1,6,2:3:0:0:
343,93,152667,6,0,B|418:87|406:134|494:131,1,140,6|10,1:2|0:0,0:0:0:0:
433,212,153167,2,0,P|460:249|458:274,1,70,2|0,1:2|0:0,0:0:0:0:
374,306,153501,2,0,P|347:269|349:244,1,70,2|4,1:2|2:3,0:0:0:0:
260,223,153834,1,6,3:1:0:0:
260,223,155334,6,0,P|276:158|280:80,1,140,4|8,1:1|0:0,0:0:0:0:
189,73,155834,2,0,P|185:142|168:210,1,140,4|8,1:1|0:0,0:0:0:0:
85,248,156334,1,8,0:0:0:0:
139,321,156501,6,0,B|213:309|209:359|292:346,1,140,4|0,1:1|1:2,0:0:0:0:
357,383,157001,2,0,P|391:356|434:354,1,70,10|0,0:0|1:2,0:0:0:0:
437,352,157251,1,0,1:2:0:0:
456,358,157334,1,2,1:2:0:0:
509,284,157501,1,8,0:0:0:0:
441,223,157667,2,0,P|407:250|364:252,1,70,10|4,1:3|1:3,0:0:0:0:
307,189,158001,5,4,1:1:0:0:
216,195,158167,2,0,P|198:190|182:188,2,35,8|8|0,1:3|1:3|1:2,0:0:0:0:
276,277,158501,1,4,1:3:0:0:
276,277,158584,1,4,1:3:0:0:
276,277,158667,2,0,P|266:313|259:347,2,70,0|2|2,1:2|3:2|1:2,0:0:0:0:
181,304,159167,6,0,P|142:342|48:341,1,140,4|0,1:1|1:2,0:0:0:0:
1,276,159667,2,0,P|8:233|16:196,1,70,8|4,0:0|1:3,0:0:0:0:
19,186,159917,1,0,1:2:0:0:
26,166,160001,2,0,P|24:142|20:127,3,35,8|8|4|4,1:3|1:3|1:3|1:3,0:0:0:0:
56,103,160334,2,0,B|106:111|95:157|154:169,1,105,4|0,1:1|0:0,0:0:0:0:
172,190,160667,6,0,P|238:169|318:155,1,132.999996448517,4|0,1:2|3:2,0:0:0:0:
373,201,161167,1,0,1:2:0:0:
373,201,161334,2,0,P|416:152|390:76,1,132.999996448517,8|0,1:2|3:2,0:0:0:0:
344,35,161834,5,0,1:2:0:0:
344,35,161917,1,0,1:2:0:0:
344,35,162001,2,0,P|310:45|260:56,1,66.4999982242585,0|4,1:2|1:3,0:0:0:0:
210,92,162334,2,0,P|178:82|145:74,1,66.4999982242585,0|4,3:2|1:3,0:0:0:0:
76,34,162667,1,8,0:0:0:0:
76,34,162834,1,4,1:3:0:0:
28,98,163001,1,0,3:2:0:0:
132,235,163334,6,0,P|104:300|109:361,1,132.999996448517,6|8,1:1|0:0,0:0:0:0:
195,380,163834,1,2,0:0:0:0:
195,380,163917,1,0,1:2:0:0:
195,380,164001,2,0,L|263:366,1,66.4999982242585,0|0,1:3|1:3,0:0:0:0:
295,294,164334,2,0,P|294:260|323:242,1,66.4999982242585,10|0,0:0|0:0,0:0:0:0:
369,172,164667,6,0,P|401:160|427:182,1,66.4999982242585,0|2,1:3|1:3,0:0:0:0:
487,229,165001,2,0,P|479:261|466:332,1,99.7499973363877,10|0,0:0|1:2,0:0:0:0:
432,347,165334,2,0,P|399:374|371:368,1,66.4999982242585,2|0,1:2|1:3,0:0:0:0:
313,323,165667,2,0,P|262:313|210:307,1,99.7499973363877,10|0,0:0|0:0,0:0:0:0:
176,335,166001,6,0,P|150:362|113:366,1,66.4999982242585,6|4,1:2|1:3,0:0:0:0:
46,326,166334,1,10,0:0:0:0:
88,243,166501,2,0,P|94:176|105:111,1,132.999996448517,6|8,1:2|1:2,0:0:0:0:
176,61,167001,1,2,0:0:0:0:
246,121,167167,6,0,P|234:186|228:252,1,132.999996448517,6|2,1:2|0:0,0:0:0:0:
317,280,167667,2,0,P|320:262|322:248,3,33.2499991121292,10|8|10|10,0:0|0:0|2:2|2:2,0:0:0:0:
332,204,168001,1,2,1:2:0:0:
473,83,168334,2,0,P|444:135|371:122,1,132.999996448517,8|4,0:0|1:1,0:0:0:0:
354,101,174001,6,0,P|294:91|234:87,2,112,0|0|0,1:2|1:2|1:2,0:0:0:0:
488,19,175001,1,0,1:2:0:0:
488,163,175334,2,0,P|478:223|474:283,1,112,0|0,1:2|1:2,0:0:0:0:
350,370,176001,2,0,P|345:314|336:259,1,112,0|0,1:2|1:2,0:0:0:0:
271,214,176501,1,0,0:0:0:0:
205,257,176667,6,0,B|151:258|153:302|86:298,1,112,0|0,1:2|1:2,0:0:0:0:
37,333,177167,1,0,0:0:0:0:
37,333,177251,1,0,0:0:0:0:
37,333,177334,2,0,P|12:267|41:228,1,112,0|0,1:2|1:2,0:0:0:0:
73,84,178001,6,0,B|113:21|209:77|175:161|116:153|121:222,1,224,0|8,1:2|1:2,0:0:0:0:
213,312,179001,2,0,L|307:291,1,84,8|0,0:0|0:0,0:0:0:0:
336,318,179334,6,0,P|390:357|478:356,1,146.999995513916,6|10,1:2|0:0,0:0:0:0:
502,270,179834,1,0,0:0:0:0:
437,199,180001,2,0,P|386:231|356:231,1,73.4999977569581,2|0,1:2|1:2,0:0:0:0:
293,190,180334,1,10,0:0:0:0:
293,190,180501,1,2,0:0:0:0:
310,89,180667,6,0,P|361:57|391:57,1,73.4999977569581,0|0,1:2|0:0,0:0:0:0:
459,13,181001,2,0,P|492:58|462:111,1,110.249996635437,10|0,0:0|0:0,0:0:0:0:
472,151,181334,2,0,B|452:183|452:183|458:228,1,73.4999977569581,2|0,1:2|1:2,0:0:0:0:
504,301,181667,1,10,0:0:0:0:
504,301,181834,1,2,0:0:0:0:
414,352,182001,6,0,B|361:346|361:346|329:363|329:363|271:355,1,146.999995513916,2|8,1:2|3:2,0:0:0:0:
199,301,182501,1,2,0:0:0:0:
199,301,182667,2,0,B|169:323|169:323|130:322,1,73.4999977569581,0|0,1:2|1:2,0:0:0:0:
40,348,183001,2,0,P|1:301|17:251,1,110.249996635437,8|0,3:2|1:2,0:0:0:0:
51,223,183334,6,0,L|63:145,1,73.4999977569581,0|2,1:2|0:0,0:0:0:0:
74,106,183584,1,2,0:0:0:0:
74,106,183667,1,8,0:0:0:0:
27,22,183834,1,2,0:0:0:0:
122,19,184001,2,0,B|162:21|159:43|215:59,1,73.4999977569581,2|0,1:2|1:2,0:0:0:0:
249,129,184334,1,8,3:2:0:0:
249,129,184501,1,2,0:0:0:0:
338,78,184667,6,0,P|399:43|494:37,1,146.999995513916,6|8,1:1|0:0,0:0:0:0:
471,133,185167,1,2,0:0:0:0:
471,133,185334,2,0,P|434:137|402:154,1,73.4999977569581,0|0,1:2|1:2,0:0:0:0:
316,196,185667,2,0,P|299:253|327:307,1,110.249996635437,10|0,0:0|1:2,0:0:0:0:
315,350,186001,6,0,B|394:336|385:394|472:378,1,146.999995513916,6|10,1:1|0:0,0:0:0:0:
497,298,186501,1,2,0:0:0:0:
497,298,186584,1,2,0:0:0:0:
497,298,186667,2,0,P|517:262|496:233,1,73.4999977569581,2|0,1:2|1:2,0:0:0:0:
436,166,187001,2,0,P|402:177|360:185,1,73.4999977569581,10|2,3:2|0:0,0:0:0:0:
285,250,187334,6,0,P|205:230|121:222,1,146.999995513916,6|8,1:1|0:0,0:0:0:0:
63,186,187834,1,2,0:0:0:0:
63,186,187917,1,2,0:0:0:0:
63,186,188001,2,0,P|38:159|40:117,1,73.4999977569581,6|0,1:1|1:2,0:0:0:0:
67,87,188251,1,2,0:0:0:0:
67,87,188334,1,10,0:0:0:0:
246,23,188667,6,0,P|314:11|396:3,2,146.999995513916,4|8|10,1:1|0:0|0:0,0:0:0:0:
298,103,189501,1,0,1:2:0:0:
227,167,189667,2,0,P|209:164|189:162,3,36.749998878479,0|0|0|0,1:2|1:2|1:2|1:2,0:0:0:0:
143,138,190001,6,0,P|106:176|123:245,1,110.249996635437,6|0,1:2|0:0,0:0:0:0:
100,276,190334,2,0,P|131:307|175:303,1,73.4999977569581,10|0,0:0|0:0,0:0:0:0:
236,365,190667,2,0,P|314:346|394:333,1,146.999995513916,2|10,1:2|0:0,0:0:0:0:
464,378,191167,1,2,0:0:0:0:
501,282,191334,6,0,P|489:235|481:187,1,73.4999977569581,0|0,1:2|0:0,0:0:0:0:
404,158,191667,2,0,B|337:150|338:208|267:199,1,146.999995513916,10|0,0:0|1:2,0:0:0:0:
189,252,192167,1,0,1:2:0:0:
189,252,192334,2,0,P|174:212|176:180,1,73.4999977569581,10|2,3:2|0:0,0:0:0:0:
88,126,192667,6,0,B|45:115|50:64|50:64|88:31|129:57,1,146.999995513916,2|10,3:2|0:0,0:0:0:0:
207,21,193167,1,2,0:0:0:0:
207,21,193251,1,0,1:2:0:0:
207,21,193334,2,0,P|245:7|282:4,2,73.4999977569581,0|0|10,1:2|1:2|3:2,0:0:0:0:
279,93,193834,6,0,B|354:104|343:138|426:154,1,146.999995513916,6|0,1:1|1:2,0:0:0:0:
496,105,194334,2,0,P|517:67|500:31,1,73.4999977569581,10|0,0:0|0:0,0:0:0:0:
482,6,194584,1,0,1:2:0:0:
482,6,194667,1,2,1:2:0:0:
392,41,194834,1,0,1:2:0:0:
299,15,195001,2,0,P|262:8|224:4,1,73.4999977569581,10|2,0:0|1:2,0:0:0:0:
185,34,195251,1,0,1:2:0:0:
185,34,195334,6,0,B|151:46|124:75|124:75|87:59|44:64,1,146.999995513916,6|10,1:1|0:0,0:0:0:0:
5,146,195834,1,2,0:0:0:0:
78,206,196001,2,0,P|115:182|149:172,1,73.4999977569581,0|0,1:2|1:2,0:0:0:0:
189,256,196334,2,0,P|152:280|118:290,1,73.4999977569581,10|2,3:2|0:0,0:0:0:0:
237,173,196667,6,0,B|315:184|294:234|373:255,1,146.999995513916,4|8,1:1|0:0,0:0:0:0:
428,314,197167,1,0,1:2:0:0:
504,256,197334,2,0,P|495:210|493:175,1,73.4999977569581,0|0,1:2|1:2,0:0:0:0:
430,117,197667,1,10,3:2:0:0:
430,117,197834,1,2,0:0:0:0:
484,29,198001,6,0,P|423:77|340:71,1,146.999995513916,6|10,1:1|0:0,0:0:0:0:
283,15,198501,1,2,0:0:0:0:
205,69,198667,2,0,P|214:115|235:135,1,73.4999977569581,4|0,1:1|1:2,0:0:0:0:
249,227,199001,2,0,P|204:211|176:219,1,73.4999977569581,10|0,0:0|0:0,0:0:0:0:
80,192,199334,6,0,P|33:261|44:327,1,146.999995513916,6|10,1:1|0:0,0:0:0:0:
121,371,199834,1,2,0:0:0:0:
191,306,200001,1,0,1:2:0:0:
282,358,200167,1,0,1:2:0:0:
282,358,200251,1,0,1:2:0:0:
282,358,200334,2,0,L|324:347,3,36.749998878479,8|8|8|8,2:2|2:2|2:2|2:2,0:0:0:0:
359,323,200667,6,0,B|456:343|456:343|425:307,1,140,6|8,1:1|0:0,0:0:0:0:
378,236,201167,1,2,1:2:0:0:
456,188,201334,2,0,B|471:156|471:156|457:117,1,70,10|0,0:0|1:2,0:0:0:0:
495,39,201667,1,10,0:0:0:0:
397,49,201834,6,0,B|356:66|356:66|247:44,1,140,6|0,1:2|1:2,0:0:0:0:
194,107,202334,2,0,B|179:129|179:129|193:180,1,70,8|0,0:0|1:2,0:0:0:0:
277,199,202667,2,0,B|292:221|292:221|278:272,1,70,10|0,0:0|1:2,0:0:0:0:
275,311,202917,1,0,1:2:0:0:
275,311,203001,1,10,0:0:0:0:
207,371,203167,1,0,1:2:0:0:
116,333,203334,6,0,B|82:341|50:361|50:361|51:322|40:286,1,140,6|8,1:1|0:0,0:0:0:0:
91,217,203834,2,0,P|99:175|108:146,1,70,2|8,1:2|0:0,0:0:0:0:
48,85,204167,1,2,1:2:0:0:
48,85,204334,1,10,0:0:0:0:
122,20,204501,6,0,B|195:10|176:70|274:59,1,140,6|2,1:2|1:2,0:0:0:0:
324,115,205001,1,10,0:0:0:0:
402,66,205167,1,2,1:2:0:0:
402,66,205251,1,2,0:0:0:0:
402,66,205334,1,10,0:0:0:0:
480,112,205501,2,0,P|497:104|513:98,2,35,2|2|10,1:2|1:2|0:0,0:0:0:0:
405,164,205834,1,6,2:3:0:0:
450,251,206001,6,0,P|378:238|295:231,1,140,6|10,1:2|0:0,0:0:0:0:
247,296,206501,2,0,P|221:325|181:328,1,70,2|10,1:2|0:0,0:0:0:0:
108,362,206834,1,2,1:2:0:0:
108,362,207001,1,4,2:3:0:0:
27,306,207167,6,0,P|36:225|50:151,1,140,6|0,3:1|1:2,0:0:0:0:
123,118,207667,2,0,P|159:149|189:154,1,70,4|0,1:2|1:2,0:0:0:0:
262,193,208001,1,4,1:2:0:0:
339,142,208167,1,0,1:2:0:0:
339,142,208251,1,0,1:2:0:0:
339,142,208334,2,0,P|365:133|383:131,3,35,2|0|0|0,1:2|1:2|1:2|1:2,0:0:0:0:
418,150,208667,6,0,P|444:214|389:286,1,140,6|8,1:1|0:0,0:0:0:0:
458,351,209167,1,2,1:2:0:0:
370,376,209334,2,0,P|334:367|295:362,1,70,10|0,0:0|1:2,0:0:0:0:
210,372,209667,1,10,0:0:0:0:
143,299,209834,6,0,P|206:255|206:184,1,140,6|0,1:2|1:2,0:0:0:0:
260,120,210334,2,0,P|232:84|192:76,1,70,8|0,0:0|1:2,0:0:0:0:
137,20,210667,2,0,P|94:35|74:71,1,70,10|0,0:0|1:2,0:0:0:0:
45,82,210917,1,0,1:2:0:0:
45,82,211001,1,10,0:0:0:0:
104,150,211167,1,0,1:2:0:0:
26,210,211334,6,0,B|1:225|3:253|3:253|40:292|33:342,1,140,6|8,1:1|0:0,0:0:0:0:
113,377,211834,2,0,P|154:348|176:348,1,70,2|8,1:2|0:0,0:0:0:0:
243,290,212167,1,2,1:2:0:0:
243,290,212334,1,10,0:0:0:0:
311,359,212501,6,0,B|341:374|374:346|374:346|409:307|457:318,1,140,6|2,1:2|1:2,0:0:0:0:
489,241,213001,1,10,0:0:0:0:
439,177,213167,1,2,1:2:0:0:
439,177,213251,1,2,0:0:0:0:
439,177,213334,1,10,0:0:0:0:
356,215,213501,2,0,P|360:227|366:251,2,35,2|2|10,1:2|1:2|0:0,0:0:0:0:
288,154,213834,1,6,2:3:0:0:
217,221,214001,6,0,P|150:177|90:187,1,140,6|10,1:2|0:0,0:0:0:0:
41,110,214501,2,0,P|20:74|29:47,1,70,2|0,1:2|0:0,0:0:0:0:
117,33,214834,2,0,P|121:17|126:0,2,35,2|0|4,1:2|1:1|2:3,0:0:0:0:
184,94,215167,1,6,3:1:0:0:
254,358,216667,6,0,B|259:260|352:272|488:207|469:-21|255:-49|209:70|209:70|83:31|26:184|90:282|194:230|238:286|238:286|208:242|226:202,1,1050,4|0,1:1|0:0,0:0:0:0:
283,148,221834,6,0,P|300:127|294:98,1,52.5,0|0,1:2|1:2,0:0:0:0:
