osu file format v14

[General]
AudioFilename: audio.mp3
AudioLeadIn: 0
PreviewTime: 66325
Countdown: 0
SampleSet: Soft
StackLeniency: 0.7
Mode: 0
LetterboxInBreaks: 0
WidescreenStoryboard: 1

[Editor]
Bookmarks: 5310,27810,92653
DistanceSpacing: 1
BeatDivisor: 4
GridSize: 4
TimelineZoom: 2.1

[Metadata]
Title:Kataomoi no Melody o short ver.
TitleUnicode:片想いのメロディを short ver.
Artist:Yamazaki Moe
ArtistUnicode:山崎もえ
Creator:Asuka_-
Version:Yasai's Extra
Source:学校のセイイキ
Tags:feng 9th seiiki eroge visual novel Eir joker- Lasse Yamicchi Yasaija 714
BeatmapID:1611606
BeatmapSetID:750166

[Difficulty]
HPDrainRate:6
CircleSize:4
OverallDifficulty:8
ApproachRate:9.2
SliderMultiplier:1.7
SliderTickRate:1

[Events]
//Background and Video events
0,0,"bg.jpg",0,0
//Break Periods
//Storyboard Layer 0 (Background)
//Storyboard Layer 1 (Fail)
//Storyboard Layer 2 (Pass)
//Storyboard Layer 3 (Foreground)
//Storyboard Sound Samples

[TimingPoints]
310,312.5,4,2,1,40,1,0
5310,-142.857142857143,4,2,1,40,0,0
6560,-125,4,2,1,40,0,0
7810,-100,4,2,1,60,0,0
10075,-100,4,2,1,60,0,0
10153,-100,4,2,1,72,0,0
16794,-100,4,2,1,72,0,0
16872,-100,4,2,1,72,0,0
27810,-153.846153846153,4,2,1,45,0,0
34685,-125,4,2,1,55,0,0
35310,-100,4,2,1,60,0,0
37810,-117.647058823529,4,2,1,67,0,0
57810,-142.857142857143,4,2,1,40,0,0
62810,-111.111111111111,4,2,1,60,0,0
67653,-100,4,2,1,82,0,1
92653,-100,4,2,1,72,0,0
115153,-100,4,2,0,30,0,0

[Colours]
Combo1 : 255,255,140
Combo2 : 128,255,255
Combo3 : 197,197,197

[HitObjects]
113,70,5153,5,2,0:0:0:0:
113,70,5231,1,2,0:0:0:0:
113,70,5310,2,0,L|119:136,1,59.4999981842042,2|0,0:0|0:0,0:0:0:0:
208,250,5622,2,0,L|214:184,1,59.4999981842042,2|0,0:0|0:0,0:0:0:0:
288,52,5935,2,0,L|294:118,1,59.4999981842042,2|0,0:0|0:0,0:0:0:0:
383,232,6247,1,2,0:0:0:0:
397,130,6403,1,0,0:0:0:0:
275,252,6560,6,0,P|231:254|205:249,1,68,2|0,0:0|0:0,0:0:0:0:
45,192,6872,2,0,P|78:187|112:189,1,68,2|0,0:0|0:0,0:0:0:0:
320,180,7185,2,0,P|352:223|332:315,1,136,2|2,0:0|0:0,0:0:0:0:
183,370,7653,1,8,0:0:0:0:
183,370,7731,1,8,0:0:0:0:
183,370,7810,5,2,0:0:0:0:
216,202,7966,1,2,0:0:0:0:
262,319,8122,1,2,0:0:0:0:
63,269,8278,5,8,0:0:0:0:
169,93,8435,1,2,0:0:0:0:
216,202,8591,1,2,0:0:0:0:
8,67,8747,5,8,0:0:0:0:
303,43,8903,1,2,0:0:0:0:
303,43,8981,1,2,0:0:0:0:
303,43,9060,6,0,L|294:129,1,85,2|2,0:0|0:0,0:0:0:0:
182,292,9372,1,2,0:0:0:0:
221,276,9450,1,2,0:0:0:0:
263,274,9528,1,2,0:0:0:0:
301,290,9606,1,2,0:0:0:0:
331,320,9685,1,8,0:0:0:0:
149,267,9841,2,0,P|126:217|125:142,1,127.5,8|0,0:0|0:0,0:0:0:0:
174,68,10153,6,0,B|257:34|264:101|346:66,1,170,6|0,0:0|0:0,0:0:0:0:
468,16,10622,1,8,0:0:0:0:
393,167,10778,1,2,0:0:0:0:
393,167,10856,1,2,0:0:0:0:
393,167,10935,2,0,P|386:214|393:262,1,85,2|2,0:0|0:0,0:0:0:0:
465,361,11247,1,8,0:0:0:0:
512,231,11403,2,0,L|460:246,1,42.5,0|2,0:0|0:0,0:0:0:0:
321,298,11560,6,0,P|305:214|336:97,1,170,2|8,0:0|0:0,0:0:0:0:
468,16,12028,2,0,L|412:29,1,42.5,2|2,0:0|0:0,0:0:0:0:
512,153,12185,2,0,L|411:123,1,85,2|2,0:0|0:0,0:0:0:0:
324,12,12497,1,8,0:0:0:0:
225,198,12653,6,0,P|115:231|72:178,1,170,6|2,0:0|0:0,0:0:0:0:
141,61,13122,2,0,P|153:102|153:145,1,85,8|2,0:0|0:0,0:0:0:0:
82,202,13356,1,2,0:0:0:0:
82,202,13435,2,0,P|70:242|70:285,1,85,2|2,0:0|0:0,0:0:0:0:
158,371,13747,1,8,0:0:0:0:
225,198,13903,2,0,P|256:206|272:207,1,42.5,0|2,0:0|0:0,0:0:0:0:
380,169,14060,6,0,P|378:258|385:343,1,170,2|8,0:0|0:0,0:0:0:0:
484,124,14528,2,0,L|429:121,1,42.5,2|2,0:0|0:0,0:0:0:0:
292,117,14685,2,0,P|316:85|396:72,1,85,2|2,0:0|0:0,0:0:0:0:
493,156,14997,1,8,0:0:0:0:
384,338,15153,6,0,B|297:374|298:301|204:338,1,170,6|2,0:0|0:0,0:0:0:0:
100,381,15622,1,8,0:0:0:0:
167,176,15778,1,2,0:0:0:0:
167,176,15856,1,2,0:0:0:0:
167,176,15935,2,0,B|179:208|179:208|171:262,1,85,2|2,0:0|0:0,0:0:0:0:
100,381,16247,1,8,0:0:0:0:
25,241,16403,1,0,0:0:0:0:
220,102,16560,6,0,P|260:119|353:119,1,127.5,2|0,0:0|0:0,0:0:0:0:
422,82,16872,1,8,0:0:0:0:
275,165,17028,2,0,L|287:264,1,85,2|2,0:0|0:0,0:0:0:0:
123,323,17341,2,0,L|135:224,1,85,2|8,0:0|0:0,0:0:0:0:
290,354,17653,6,0,P|386:354|464:320,1,170,6|2,0:0|0:0,0:0:0:0:
490,161,18122,2,0,P|478:215|483:259,1,85,8|0,0:0|0:0,0:0:0:0:
479,244,18356,1,2,0:0:0:0:
479,244,18435,1,2,0:0:0:0:
370,178,18591,1,2,0:0:0:0:
290,354,18747,2,0,P|290:311|279:270,1,85,8|0,0:0|0:0,0:0:0:0:
164,157,19060,5,2,0:0:0:0:
140,317,19216,1,2,0:0:0:0:
170,121,19372,2,0,P|260:104|299:113,1,127.5,12|0,0:0|0:0,0:0:0:0:
370,178,19685,1,8,0:0:0:0:
378,210,19763,1,8,0:0:0:0:
386,242,19841,2,0,L|376:298,1,42.5,8|8,0:0|0:0,0:0:0:0:
290,354,19997,2,0,L|282:312,1,42.5,8|8,0:0|0:0,0:0:0:0:
195,240,20153,2,0,L|185:296,1,42.5,8|8,0:0|0:0,0:0:0:0:
74,358,20310,6,0,P|45:280|52:185,1,170,6|8,0:0|0:0,0:0:0:0:
118,90,20778,2,0,L|214:102,1,85,2|0,0:0|0:0,0:0:0:0:
275,210,21091,2,0,L|359:199,1,85,2|8,0:0|0:0,0:0:0:0:
452,100,21403,6,0,B|488:185|418:185|453:275,1,170,2|2,0:0|0:0,0:0:0:0:
498,374,21872,1,8,0:0:0:0:
356,372,22028,2,0,P|369:317|361:269,1,85,2|0,0:0|0:0,0:0:0:0:
275,210,22341,1,2,0:0:0:0:
233,358,22497,2,0,B|149:374|149:374|105:355,1,127.5,8|0,0:0|0:0,0:0:0:0:
49,293,22810,6,0,B|63:252|63:252|61:204,1,85,2|0,0:0|0:0,0:0:0:0:
17,83,23122,1,8,0:0:0:0:
174,161,23278,1,2,0:0:0:0:
110,6,23435,2,0,B|96:47|96:47|98:95,1,85,2|0,0:0|0:0,0:0:0:0:
170,249,23747,2,0,P|228:237|268:236,1,85,8|2,0:0|0:0,0:0:0:0:
444,326,24060,6,0,P|341:343|289:294,1,170,2|8,0:0|0:0,0:0:0:0:
476,244,24528,1,2,0:0:0:0:
267,152,24685,2,0,P|253:226|254:253,1,85,6|8,0:0|0:0,0:0:0:0:
328,60,24997,1,8,0:0:0:0:
294,64,25075,1,8,0:0:0:0:
260,69,25153,1,8,0:0:0:0:
226,74,25231,1,8,0:0:0:0:
192,79,25310,6,0,L|100:66,1,85,14|0,0:0|0:0,0:0:0:0:
0,204,25622,2,0,L|92:191,1,85,12|0,0:0|0:0,0:0:0:0:
192,328,25935,2,0,L|100:315,1,85,12|0,0:0|0:0,0:0:0:0:
243,204,26247,2,0,L|335:191,1,85,12|0,0:0|0:0,0:0:0:0:
486,126,26560,5,12,0:0:0:0:
454,314,26716,1,8,0:0:0:0:
375,126,26872,1,8,0:0:0:0:
343,314,27028,1,8,0:0:0:0:
486,126,27185,5,8,0:0:0:0:
224,92,27341,1,8,0:0:0:0:
454,314,27497,1,8,0:0:0:0:
192,280,27653,1,8,0:0:0:0:
368,40,27810,6,0,L|374:116,1,55.2499974708558,6|0,3:0|0:0,0:0:0:0:
287,162,28122,2,0,L|281:238,1,55.2499974708558,2|0,0:3|0:0,0:0:0:0:
192,280,28435,2,0,L|198:356,1,55.2499974708558,2|0,0:3|0:0,0:0:0:0:
301,369,28747,1,2,0:3:0:0:
376,286,28903,1,0,0:0:0:0:
342,163,29060,6,0,P|292:161|267:164,1,55.2499974708558,2|0,0:3|0:0,0:0:0:0:
187,205,29372,2,0,P|137:207|112:204,1,55.2499974708558,2|0,0:3|0:0,0:0:0:0:
42,131,29685,2,0,P|36:188|36:200,1,55.2499974708558,2|0,0:3|0:0,0:0:0:0:
63,293,29997,1,2,0:3:0:0:
131,206,30153,1,0,0:0:0:0:
160,322,30310,6,0,P|226:324|273:304,2,110.499994941712,2|2|2,0:3|0:3|0:3,0:0:0:0:
63,293,31091,1,0,0:0:0:0:
131,206,31247,2,0,P|140:170|142:138,1,55.2499974708558,2|0,0:3|0:0,0:0:0:0:
88,55,31560,6,0,P|152:42|210:64,1,110.499994941712,2|2,0:3|0:3,0:0:0:0:
273,131,32028,1,0,0:0:0:0:
349,213,32185,2,0,L|416:204,1,55.2499974708558,2|0,0:3|0:0,0:0:0:0:
293,300,32497,2,0,L|226:291,1,55.2499974708558,2|0,0:0|0:0,0:0:0:0:
377,380,32810,5,2,0:0:0:0:
430,288,32966,1,0,0:0:0:0:
481,381,33122,1,2,0:3:0:0:
430,288,33278,1,0,0:0:0:0:
293,300,33435,2,0,L|226:291,1,55.2499974708558,2|0,0:0|0:0,0:0:0:0:
110,236,33747,2,0,L|177:227,1,55.2499974708558,2|0,0:3|0:0,0:0:0:0:
61,299,34060,6,0,P|30:251|43:193,1,110.499994941712,2|2,0:0|0:3,0:0:0:0:
117,114,34528,1,0,0:0:0:0:
149,312,34685,5,2,0:0:0:0:
198,134,34841,2,0,P|222:123|240:117,1,34,0|0,0:0|0:0,0:0:0:0:
393,190,34997,2,0,P|322:177|294:154,1,102,8|0,0:0|0:0,0:0:0:0:
293,77,35310,5,8,0:0:0:0:
469,120,35466,1,2,0:0:0:0:
435,269,35622,1,2,0:0:0:0:
365,38,35778,5,8,0:0:0:0:
157,85,35935,1,2,0:0:0:0:
206,265,36091,1,2,0:0:0:0:
293,4,36247,5,8,0:0:0:0:
512,134,36403,1,2,0:0:0:0:
400,301,36560,1,2,0:0:0:0:
422,0,36716,6,0,L|402:95,1,85,8|2,0:0|0:0,0:0:0:0:
307,253,37028,1,2,0:0:0:0:
284,87,37185,1,8,0:0:0:0:
252,58,37263,1,8,0:0:0:0:
210,49,37341,1,8,0:0:0:0:
169,60,37419,1,8,0:0:0:0:
137,88,37497,1,8,0:0:0:0:
97,103,37575,1,8,0:0:0:0:
54,98,37653,1,8,0:0:0:0:
18,74,37731,1,8,0:0:0:0:
6,32,37810,6,0,P|57:23|94:29,1,72.2500013780594,6|0,0:0|0:0,0:0:0:0:
211,142,38122,1,8,0:0:0:0:
97,103,38278,1,0,0:0:0:0:
252,58,38435,2,0,P|303:67|340:61,1,72.2500013780594,2|0,0:0|0:0,0:0:0:0:
450,17,38747,1,8,0:0:0:0:
413,148,38903,1,2,0:0:0:0:
252,58,39060,6,0,P|192:50|125:108,1,144.500002756119,0|8,0:0|0:0,0:0:0:0:
146,244,39528,1,0,0:0:0:0:
270,176,39685,2,0,L|256:256,1,72.2500013780594,2|2,0:0|0:0,0:0:0:0:
413,148,39997,2,0,L|427:228,1,72.2500013780594,8|0,0:0|0:0,0:0:0:0:
465,364,40310,5,2,0:0:0:0:
349,293,40466,1,0,0:0:0:0:
496,167,40622,2,0,P|499:128|482:98,1,72.2500013780594,8|0,0:0|0:0,0:0:0:0:
367,52,40935,2,0,P|335:68|299:64,1,72.2500013780594,2|0,0:0|0:0,0:0:0:0:
179,47,41247,2,0,P|85:41|60:72,1,108.375002067089,8|0,0:0|0:0,0:0:0:0:
21,113,41560,5,2,0:0:0:0:
165,143,41716,1,0,0:0:0:0:
21,113,41872,2,0,P|6:169|10:206,1,72.2500013780594,8|2,0:0|0:0,0:0:0:0:
93,292,42185,1,2,0:0:0:0:
165,143,42341,1,0,0:0:0:0:
223,262,42497,1,8,0:0:0:0:
85,200,42653,1,0,0:0:0:0:
278,118,42810,6,0,P|323:113|355:117,1,72.2500013780594,2|0,0:0|0:0,0:0:0:0:
468,262,43122,2,0,P|423:267|391:263,1,72.2500013780594,8|2,0:0|0:0,0:0:0:0:
396,264,43356,1,2,0:0:0:0:
396,264,43435,1,2,0:0:0:0:
487,156,43591,1,0,0:0:0:0:
507,333,43747,1,8,0:0:0:0:
365,243,43903,1,2,0:0:0:0:
293,373,44060,6,0,P|236:382|190:374,1,72.2500013780594,2|0,0:0|0:0,0:0:0:0:
102,203,44372,2,0,P|101:239|110:274,1,72.2500013780594,8|0,0:0|0:0,0:0:0:0:
165,115,44685,1,2,0:0:0:0:
41,145,44841,1,0,0:0:0:0:
204,227,44997,2,0,P|240:226|275:235,1,72.2500013780594,8|0,0:0|0:0,0:0:0:0:
406,338,45310,5,2,0:0:0:0:
406,338,45466,1,0,0:0:0:0:
462,166,45622,2,0,L|479:244,1,72.2500013780594,8|0,0:0|0:0,0:0:0:0:
371,82,45935,1,2,0:0:0:0:
371,82,46091,1,0,0:0:0:0:
275,235,46247,2,0,L|290:164,1,72.2500013780594,8|0,0:0|0:0,0:0:0:0:
192,329,46560,5,6,0:0:0:0:
152,177,46716,1,2,0:0:0:0:
78,366,46872,1,8,0:0:0:0:
155,161,47028,1,2,0:0:0:0:
290,334,47185,1,2,0:0:0:0:
90,270,47341,2,0,L|46:263,1,36.1250006890297,8|8,0:0|0:0,0:0:0:0:
275,235,47497,1,8,0:0:0:0:
62,178,47653,2,0,L|18:171,1,36.1250006890297,8|8,0:0|0:0,0:0:0:0:
290,164,47810,5,6,0:0:0:0:
192,329,47966,1,2,0:0:0:0:
155,161,48122,1,8,0:0:0:0:
273,265,48278,2,0,P|306:253|342:249,2,72.2500013780594,2|0|2,0:0|0:0|0:0,0:0:0:0:
192,329,48747,1,8,0:0:0:0:
397,310,48903,6,0,P|423:252|377:175,1,144.500002756119,2|2,0:0|0:0,0:0:0:0:
197,197,49372,2,0,P|232:193|266:180,1,72.2500013780594,8|2,0:0|0:0,0:0:0:0:
134,97,49685,2,0,P|98:100|64:113,1,72.2500013780594,2|0,0:0|0:0,0:0:0:0:
48,314,49997,1,8,0:0:0:0:
123,204,50153,1,2,0:0:0:0:
195,369,50310,6,0,P|145:372|112:363,1,72.2500013780594,2|0,0:0|0:0,0:0:0:0:
287,312,50622,1,8,0:0:0:0:
123,204,50778,2,0,L|134:282,2,72.2500013780594,2|0|2,0:0|0:0|0:0,0:0:0:0:
134,97,51247,1,8,0:0:0:0:
44,158,51403,1,2,0:0:0:0:
231,142,51560,6,0,P|292:133|324:137,1,72.2500013780594,0|2,0:0|0:0,0:0:0:0:
432,211,51872,1,8,0:0:0:0:
287,312,52028,2,0,P|278:251|282:219,1,72.2500013780594,2|2,0:0|0:0,0:0:0:0:
432,211,52341,1,2,0:0:0:0:
493,363,52497,2,0,P|421:349|366:356,1,108.375002067089,8|0,0:0|0:0,0:0:0:0:
301,382,52810,6,0,L|285:305,1,72.2500013780594,2|0,0:0|0:0,0:0:0:0:
320,157,53122,2,0,P|264:171|205:162,1,108.375002067089,8|0,0:0|0:0,0:0:0:0:
128,130,53435,1,2,0:0:0:0:
145,276,53591,1,0,0:0:0:0:
10,174,53747,2,0,L|1:254,1,72.2500013780594,8|0,0:0|0:0,0:0:0:0:
1,245,53981,1,2,0:0:0:0:
1,245,54060,5,2,0:0:0:0:
128,130,54216,1,0,0:0:0:0:
145,276,54372,1,8,0:0:0:0:
101,109,54528,1,2,0:0:0:0:
101,109,54606,1,2,0:0:0:0:
101,109,54685,1,2,0:0:0:0:
59,310,54841,1,0,0:0:0:0:
218,180,54997,1,8,0:0:0:0:
310,340,55153,1,0,0:0:0:0:
346,114,55310,6,0,P|436:97|502:121,1,144.500002756119,2|8,0:0|0:0,0:0:0:0:
336,217,55778,1,0,0:0:0:0:
419,17,55935,5,2,0:0:0:0:
499,199,56091,1,0,0:0:0:0:
346,114,56247,1,8,0:0:0:0:
266,296,56403,1,0,0:0:0:0:
97,93,56560,6,0,P|155:80|200:80,1,72.2500013780594,2|2,0:0|0:0,0:0:0:0:
420,235,56872,1,8,0:0:0:0:
218,214,57028,1,2,0:0:0:0:
218,214,57106,1,2,0:0:0:0:
218,214,57185,1,2,0:0:0:0:
384,340,57341,1,2,0:0:0:0:
346,114,57497,1,8,0:0:0:0:
125,210,57653,2,0,L|130:261,1,36.1250006890297,2|0,0:0|0:0,0:0:0:0:
207,308,57810,6,0,P|260:284|340:287,2,118.999996368408,2|2|2,0:0|0:0|0:0,0:0:0:0:
128,372,58591,1,0,0:0:0:0:
18,312,58747,2,0,L|88:300,1,59.4999981842042,2|0,0:0|0:0,0:0:0:0:
125,210,59060,6,0,P|101:154|111:86,1,118.999996368408,2|2,0:0|0:0,0:0:0:0:
189,34,59528,1,0,0:0:0:0:
189,34,59685,2,0,L|265:38,1,59.4999981842042,2|0,0:0|0:0,0:0:0:0:
300,123,59997,2,0,L|376:119,1,59.4999981842042,2|0,0:0|0:0,0:0:0:0:
439,49,60310,6,0,P|467:118|449:178,1,118.999996368408,2|2,0:0|0:0,0:0:0:0:
389,245,60778,1,0,0:0:0:0:
389,245,60935,2,0,L|402:310,1,59.4999981842042,2|0,0:0|0:0,0:0:0:0:
251,329,61247,2,0,L|262:270,1,59.4999981842042,2|0,0:0|0:0,0:0:0:0:
300,123,61560,5,2,0:0:0:0:
300,123,61872,1,2,0:0:0:0:
458,159,62028,1,2,0:0:0:0:
228,194,62185,1,2,0:0:0:0:
468,248,62341,1,2,0:0:0:0:
156,265,62497,1,2,0:0:0:0:
478,337,62653,1,2,0:0:0:0:
448,70,62810,6,0,P|374:29|288:58,1,152.999995330811,6|8,0:0|0:0,0:0:0:0:
197,135,63278,1,0,0:0:0:0:
197,135,63435,2,0,P|246:143|276:134,1,76.4999976654053,2|0,0:0|0:0,0:0:0:0:
120,83,63747,2,0,P|71:75|41:84,1,76.4999976654053,8|0,0:0|0:0,0:0:0:0:
1,220,64060,6,0,L|14:305,1,76.4999976654053,6|0,0:0|0:0,0:0:0:0:
120,361,64372,1,8,0:0:0:0:
351,217,64528,6,0,L|338:302,1,76.4999976654053,2|0,0:0|0:0,0:0:0:0:
232,358,64840,1,2,0:0:0:0:
81,157,64997,5,8,0:0:0:0:
299,107,65153,1,2,0:0:0:0:
299,107,65231,1,2,0:0:0:0:
299,107,65310,5,2,0:0:0:0:
133,18,65466,1,2,0:0:0:0:
260,219,65622,1,2,0:0:0:0:
379,18,65778,1,2,0:0:0:0:
81,157,65935,5,2,0:0:0:0:
433,227,66091,1,2,0:0:0:0:
291,17,66247,1,2,0:0:0:0:
221,369,66403,1,2,0:0:0:0:
221,369,67653,6,0,P|195:286|212:193,1,170,6|0,0:0|0:0,0:0:0:0:
291,17,68122,2,0,L|301:106,1,85,8|0,0:0|0:0,0:0:0:0:
317,185,68356,1,2,0:0:0:0:
317,185,68435,1,2,0:0:0:0:
194,64,68591,1,2,0:0:0:0:
389,150,68747,2,0,P|452:153|484:168,1,85,8|0,0:0|0:0,0:0:0:0:
341,337,69060,6,0,B|302:322|302:322|261:336|261:336|215:313|166:328,1,170,2|8,0:0|0:0,0:0:0:0:
24,369,69528,1,2,0:0:0:0:
24,369,69606,1,2,0:0:0:0:
24,369,69685,2,0,P|37:309|40:261,1,85,2|2,0:0|0:0,0:0:0:0:
5,169,69997,1,8,0:0:0:0:
175,246,70153,6,0,P|193:165|194:68,1,170,2|0,0:0|0:0,0:0:0:0:
85,22,70622,1,8,0:0:0:0:
101,189,70778,1,2,0:0:0:0:
271,117,70935,2,0,P|270:165|259:222,1,85,0|2,0:0|0:0,0:0:0:0:
199,341,71247,1,8,0:0:0:0:
9,250,71403,1,2,0:0:0:0:
9,250,71481,1,2,0:0:0:0:
9,250,71560,6,0,P|112:232|183:249,1,170,2|8,0:0|0:0,0:0:0:0:
322,368,72028,2,0,P|310:317|320:275,1,85,2|2,0:0|0:0,0:0:0:0:
374,170,72341,1,2,0:0:0:0:
432,317,72497,1,8,0:0:0:0:
264,201,72653,6,0,P|190:230|119:172,1,170,6|0,0:0|0:0,0:0:0:0:
211,49,73122,2,0,L|201:134,1,85,8|0,0:0|0:0,0:0:0:0:
103,33,73435,1,2,0:0:0:0:
295,83,73591,1,0,0:0:0:0:
122,180,73747,1,8,0:0:0:0:
321,73,73903,6,0,B|322:122|345:155|345:155|325:182|328:259,1,170,2|2,0:0|0:0,0:0:0:0:
438,373,74372,2,0,P|435:330|413:277,1,85,8|2,0:0|0:0,0:0:0:0:
421,290,74606,1,2,0:0:0:0:
421,290,74685,1,2,0:0:0:0:
274,362,74841,1,2,0:0:0:0:
209,207,74997,1,8,0:0:0:0:
458,130,75153,6,0,P|457:214|420:290,1,170,6|0,0:0|0:0,0:0:0:0:
274,362,75622,1,8,0:0:0:0:
302,178,75778,1,2,0:0:0:0:
302,178,75856,1,2,0:0:0:0:
302,178,75935,2,0,P|319:229|325:268,1,85,2|2,0:0|0:0,0:0:0:0:
179,355,76247,1,8,0:0:0:0:
79,211,76403,2,0,L|89:161,1,42.5,2|0,0:0|0:0,0:0:0:0:
183,31,76560,5,6,0:0:0:0:
341,135,76716,1,0,0:0:0:0:
128,97,76872,1,8,0:0:0:0:
324,259,77028,1,2,0:0:0:0:
79,211,77185,2,0,L|89:161,1,42.5,8|8,0:0|0:0,0:0:0:0:
170,313,77341,2,0,L|180:363,1,42.5,8|8,0:0|0:0,0:0:0:0:
63,298,77497,2,0,L|13:308,1,42.5,8|8,0:0|0:0,0:0:0:0:
226,215,77653,6,0,P|292:165|409:181,1,170,6|0,0:0|0:0,0:0:0:0:
472,331,78122,2,0,P|417:331|380:304,1,85,8|0,0:0|0:0,0:0:0:0:
512,205,78435,1,2,0:0:0:0:
403,82,78591,1,2,0:0:0:0:
226,215,78747,2,0,P|261:149|242:75,1,127.5,8|0,0:0|0:0,0:0:0:0:
172,40,79060,6,0,L|73:58,1,85,2|0,0:0|0:0,0:0:0:0:
22,164,79372,1,8,0:0:0:0:
226,215,79528,1,2,0:0:0:0:
226,215,79606,1,2,0:0:0:0:
226,215,79685,2,0,P|210:263|215:309,1,85,2|2,0:0|0:0,0:0:0:0:
314,360,79997,1,8,0:0:0:0:
137,361,80153,6,0,P|82:290|76:205,1,170,2|2,0:0|0:0,0:0:0:0:
88,55,80622,1,8,0:0:0:0:
254,98,80778,1,2,0:0:0:0:
254,98,80856,1,2,0:0:0:0:
254,98,80935,2,0,L|345:87,1,85,0|2,0:0|0:0,0:0:0:0:
488,51,81247,1,8,0:0:0:0:
455,268,81403,6,0,P|349:285|263:270,1,170,6|0,0:0|0:0,0:0:0:0:
172,198,81872,1,8,0:0:0:0:
172,198,81950,1,2,0:0:0:0:
172,198,82028,2,0,L|164:244,1,42.5,6|0,0:0|0:0,0:0:0:0:
214,368,82185,2,0,L|206:326,1,42.5,2|0,0:0|0:0,0:0:0:0:
88,238,82341,2,0,L|96:284,1,42.5,8|8,0:0|0:0,0:0:0:0:
281,319,82497,2,0,L|288:277,1,42.5,8|0,0:0|0:0,0:0:0:0:
367,102,82653,6,0,P|432:106|436:200,1,170,6|0,0:0|0:0,0:0:0:0:
289,79,83122,2,0,P|233:84|209:132,1,85,8|2,0:0|0:0,0:0:0:0:
164,239,83435,1,2,0:0:0:0:
308,156,83591,1,0,0:0:0:0:
143,71,83747,1,8,0:0:0:0:
0,242,83903,6,0,B|33:232|73:247|73:247|92:238|92:238|138:251|176:235,1,170,2|0,0:0|0:0,0:0:0:0:
308,156,84372,2,0,P|310:213|315:255,1,85,8|2,0:0|0:0,0:0:0:0:
398,349,84685,1,2,0:0:0:0:
505,186,84841,1,8,0:0:0:0:
505,186,84919,1,8,0:0:0:0:
505,186,84997,1,8,0:0:0:0:
311,71,85153,6,0,P|307:156|312:240,1,170,6|2,0:0|0:0,0:0:0:0:
421,77,85622,1,8,0:0:0:0:
241,20,85778,1,2,0:0:0:0:
434,89,85935,2,0,P|471:78|517:72,2,85,0|2|8,0:0|0:0|0:0,0:0:0:0:
237,203,86403,6,0,P|148:224|55:224,1,170,6|0,0:0|0:0,0:0:0:0:
77,35,86872,2,0,L|96:121,1,85,12|2,0:0|0:0,0:0:0:0:
254,35,87185,1,8,0:0:0:0:
251,77,87263,1,8,0:0:0:0:
246,119,87341,1,8,0:0:0:0:
241,161,87419,1,8,0:0:0:0:
237,203,87497,2,0,L|246:251,1,42.5,8|8,0:0|0:0,0:0:0:0:
350,345,87653,2,0,L|357:303,1,42.5,8|8,0:0|0:0,0:0:0:0:
467,192,87810,5,12,0:0:0:0:
246,119,87966,1,8,0:0:0:0:
16,276,88278,5,8,0:0:0:0:
237,203,88434,1,8,0:0:0:0:
499,372,88747,5,8,0:0:0:0:
246,119,88903,1,8,0:0:0:0:
21,374,89216,6,0,P|7:277|7:193,1,170,12|2,0:0|0:0,0:0:0:0:
48,119,89606,1,2,0:0:0:0:
48,119,89685,2,0,P|94:123|140:119,1,85,2|2,0:0|0:0,0:0:0:0:
267,50,89997,1,2,0:0:0:0:
307,36,90075,1,2,0:0:0:0:
349,32,90153,1,2,0:0:0:0:
390,42,90231,1,2,0:0:0:0:
424,68,90310,5,12,0:0:0:0:
240,177,90466,1,2,0:0:0:0:
436,256,90622,1,2,0:0:0:0:
192,60,90778,5,2,0:0:0:0:
485,158,90935,1,2,0:0:0:0:
204,298,91091,1,2,0:0:0:0:
512,64,91247,5,2,0:0:0:0:
455,343,91403,1,2,0:0:0:0:
159,144,91560,5,8,0:0:0:0:
485,158,91716,1,8,0:0:0:0:
159,144,91872,1,8,0:0:0:0:
485,158,92653,6,0,P|377:162|308:222,1,170,6|0,0:0|0:0,0:0:0:0:
268,316,93122,1,8,0:0:0:0:
200,185,93278,1,2,0:0:0:0:
200,185,93356,1,2,0:0:0:0:
200,185,93435,2,0,P|193:138|193:97,1,85,2|2,0:0|0:0,0:0:0:0:
284,28,93747,1,8,0:0:0:0:
127,17,93903,2,0,P|121:45|118:84,1,42.5,0|2,0:0|0:0,0:0:0:0:
114,188,94060,6,0,P|32:201|11:292,1,170,2|8,0:0|0:0,0:0:0:0:
102,370,94528,1,0,0:0:0:0:
192,229,94685,2,0,P|235:221|276:248,1,85,2|0,0:0|0:0,0:0:0:0:
362,347,94997,1,8,0:0:0:0:
487,224,95153,6,0,P|492:129|481:38,1,170,6|0,0:0|0:0,0:0:0:0:
310,21,95622,2,0,P|306:68|312:120,1,85,8|2,0:0|0:0,0:0:0:0:
360,174,95856,1,2,0:0:0:0:
360,174,95935,2,0,P|364:221|358:273,1,85,2|2,0:0|0:0,0:0:0:0:
257,360,96247,1,8,0:0:0:0:
204,236,96403,1,0,0:0:0:0:
362,347,96560,6,0,P|462:353|496:299,1,170,2|8,0:0|0:0,0:0:0:0:
360,174,97028,1,0,0:0:0:0:
257,360,97185,1,8,0:0:0:0:
214,355,97263,1,8,0:0:0:0:
171,350,97341,1,8,0:0:0:0:
128,345,97419,1,8,0:0:0:0:
85,341,97497,1,8,0:0:0:0:
17,190,97653,6,0,P|128:184|172:233,1,170,6|0,0:0|0:0,0:0:0:0:
214,355,98122,1,8,0:0:0:0:
257,188,98278,1,2,0:0:0:0:
257,188,98356,1,2,0:0:0:0:
257,188,98435,2,0,P|302:167|351:175,1,85,2|2,0:0|0:0,0:0:0:0:
467,270,98747,1,8,0:0:0:0:
317,263,98903,1,0,0:0:0:0:
340,89,99060,6,0,P|264:90|193:134,1,127.5,6|0,0:0|0:0,0:0:0:0:
161,176,99372,1,8,0:0:0:0:
56,44,99528,2,0,L|42:139,1,85,8|0,0:0|0:0,0:0:0:0:
123,332,99841,2,0,L|111:248,1,85,8|0,0:0|0:0,0:0:0:0:
204,29,100153,6,0,P|278:53|293:148,1,170,6|0,0:0|0:0,0:0:0:0:
161,176,100622,2,0,P|207:183|243:224,1,85,8|0,0:0|0:0,0:0:0:0:
234,207,100856,1,2,0:0:0:0:
234,207,100935,1,2,0:0:0:0:
111,248,101091,1,2,0:0:0:0:
201,346,101247,2,0,P|230:309|283:298,1,85,12|0,0:0|0:0,0:0:0:0:
422,361,101560,5,6,0:0:0:0:
508,232,101716,1,2,0:0:0:0:
315,219,101872,2,0,P|294:157|292:79,1,127.5,12|0,0:0|0:0,0:0:0:0:
336,21,102185,1,8,0:0:0:0:
336,21,102263,1,8,0:0:0:0:
336,21,102341,2,0,L|401:32,1,42.5,8|8,0:0|0:0,0:0:0:0:
223,42,102497,2,0,L|158:53,1,42.5,8|8,0:0|0:0,0:0:0:0:
362,99,102653,2,0,L|427:110,1,42.5,8|8,0:0|0:0,0:0:0:0:
213,118,102810,6,0,P|144:153|137:261,1,170,6|8,0:0|0:0,0:0:0:0:
254,361,103278,2,0,P|248:321|246:262,1,85,2|0,0:0|0:0,0:0:0:0:
411,232,103591,2,0,P|408:274|402:316,1,85,2|8,0:0|0:0,0:0:0:0:
340,165,103903,6,0,P|421:138|504:194,1,170,2|2,0:0|0:0,0:0:0:0:
317,260,104372,1,8,0:0:0:0:
259,111,104528,2,0,P|204:101|176:112,1,85,2|0,0:0|0:0,0:0:0:0:
92,203,104841,1,2,0:0:0:0:
211,313,104997,2,0,P|194:253|217:196,1,127.5,8|0,0:0|0:0,0:0:0:0:
340,165,105310,6,0,L|512:181,1,170,6|8,0:0|0:0,0:0:0:0:
317,260,105778,1,2,0:0:0:0:
172,165,105935,6,0,L|0:181,1,170,6|8,0:0|0:0,0:0:0:0:
195,260,106403,1,2,0:0:0:0:
278,51,106560,6,0,L|446:65,1,127.5,6|0,0:0|0:0,0:0:0:0:
233,121,106872,2,0,L|65:135,1,127.5,12|0,0:0|0:0,0:0:0:0:
279,190,107185,1,8,0:0:0:0:
64,241,107341,1,8,0:0:0:0:
49,280,107419,1,8,0:0:0:0:
53,322,107497,1,8,0:0:0:0:
81,353,107575,1,8,0:0:0:0:
121,365,107653,2,0,P|146:356|187:350,1,42.5,8|8,0:0|0:0,0:0:0:0:
317,364,107810,5,6,0:0:0:0:
388,160,107966,1,2,0:0:0:0:
227,317,108122,1,2,0:0:0:0:
156,113,108278,1,2,0:0:0:0:
415,52,108435,5,2,0:0:0:0:
225,212,108591,1,2,0:0:0:0:
322,22,108747,1,2,0:0:0:0:
512,182,108903,1,2,0:0:0:0:
261,99,109060,5,8,0:0:0:0:
317,364,109216,1,8,0:0:0:0:
159,259,109372,1,8,0:0:0:0:
424,203,109528,1,8,0:0:0:0:
178,150,109685,6,0,L|200:198,1,42.5,8|8,0:0|0:0,0:0:0:0:
317,364,109841,1,8,0:0:0:0:
317,364,109919,1,8,0:0:0:0:
317,364,109997,1,8,0:0:0:0:
261,99,110153,5,12,0:0:0:0:
256,192,110231,12,2,115153,0:0:0:0:
