osu file format v14

[General]
AudioFilename: audio.mp3
AudioLeadIn: 0
PreviewTime: 66325
Countdown: 0
SampleSet: Soft
StackLeniency: 0.7
Mode: 0
LetterboxInBreaks: 0
WidescreenStoryboard: 0

[Editor]
Bookmarks: 5310,27810,92653
DistanceSpacing: 1
BeatDivisor: 2
GridSize: 4
TimelineZoom: 2.1

[Metadata]
Title:Kataomoi no Melody o short ver.
TitleUnicode:片想いのメロディを short ver.
Artist:Yamazaki Moe
ArtistUnicode:山崎もえ
Creator:Asuka_-
Version:Normal
Source:学校のセイイキ
Tags:feng 9th seiiki eroge visual novel Eir joker- Lasse Yamicchi Yasaija 714
BeatmapID:1581745
BeatmapSetID:750166

[Difficulty]
HPDrainRate:4
CircleSize:3.5
OverallDifficulty:5
ApproachRate:6
SliderMultiplier:0.899999999999999
SliderTickRate:1

[Events]
//Background and Video events
0,0,"bg.jpg",0,0
//Break Periods
//Storyboard Layer 0 (Background)
//Storyboard Layer 1 (Fail)
//Storyboard Layer 2 (Pass)
//Storyboard Layer 3 (Foreground)
//Storyboard Sound Samples

[TimingPoints]
310,312.5,4,2,1,40,1,0
7810,-100,4,2,1,60,0,0
10153,-100,4,2,1,72,0,0
27810,-100,4,2,1,45,0,0
34685,-100,4,2,1,55,0,0
35310,-100,4,2,1,60,0,0
37810,-100,4,2,1,67,0,0
57810,-100,4,2,1,40,0,0
62810,-100,4,2,1,60,0,0
66560,-100,4,2,0,40,0,0
67653,-100,4,2,1,82,0,1
92653,-100,4,2,1,72,0,0
115153,-100,4,2,0,30,0,0

[Colours]
Combo1 : 255,255,140
Combo2 : 128,255,255
Combo3 : 197,197,197

[HitObjects]
75,108,5310,6,0,L|57:13,2,89.9999999999999,2|2|2,0:0|0:0|0:0,0:0:0:0:
136,173,6247,1,2,0:0:0:0:
201,110,6560,2,0,L|181:11,2,89.9999999999999,2|2|2,0:0|0:0|0:0,0:0:0:0:
273,162,7497,1,2,0:0:0:0:
334,95,7810,6,0,P|359:127|354:193,1,89.9999999999999,2|2,0:0|0:0,0:0:0:0:
346,217,8278,2,0,P|291:252|217:233,1,135,8|8,0:0|0:0,0:0:0:0:
150,189,9060,2,0,P|146:145|145:96,1,89.9999999999999,2|2,0:0|0:0,0:0:0:0:
223,54,9685,2,0,L|273:57,1,45,8|8,0:0|0:0,0:0:0:0:
356,70,10153,6,0,P|388:123|363:208,1,135,6|8,0:0|0:0,0:0:0:0:
336,271,10935,2,0,P|285:275|247:248,1,89.9999999999999,2|8,0:0|0:0,0:0:0:0:
231,216,11403,1,0,0:0:0:0:
231,216,11560,2,0,P|185:189|141:195,1,89.9999999999999,2|8,0:0|0:0,0:0:0:0:
65,222,12185,2,0,L|49:125,1,89.9999999999999,2|8,0:0|0:0,0:0:0:0:
49,88,12653,6,0,P|100:46|172:51,1,135,6|8,0:0|0:0,0:0:0:0:
234,107,13435,2,0,L|331:95,1,89.9999999999999,2|8,0:0|0:0,0:0:0:0:
396,43,14060,2,0,P|414:78|405:137,1,89.9999999999999,2|8,0:0|0:0,0:0:0:0:
340,185,14685,2,0,P|327:229|348:280,1,89.9999999999999,2|8,0:0|0:0,0:0:0:0:
371,301,15153,6,0,P|313:276|235:309,1,135,6|8,0:0|0:0,0:0:0:0:
168,341,15935,2,0,L|145:242,1,89.9999999999999,2|8,0:0|0:0,0:0:0:0:
80,193,16560,2,0,P|121:164|180:165,1,89.9999999999999,2|8,0:0|0:0,0:0:0:0:
201,176,17028,1,2,0:0:0:0:
273,122,17341,1,2,0:0:0:0:
334,187,17653,6,0,P|366:128|317:42,1,135,6|8,0:0|0:0,0:0:0:0:
264,30,18435,2,0,L|162:40,1,89.9999999999999,2|8,0:0|0:0,0:0:0:0:
92,76,19060,1,2,0:0:0:0:
160,133,19372,1,12,0:0:0:0:
85,184,19685,2,0,L|78:292,1,89.9999999999999,8|8,0:0|0:0,0:0:0:0:
119,354,20310,6,0,P|173:363|226:326,1,89.9999999999999,6|8,0:0|0:0,0:0:0:0:
235,317,20778,2,0,P|286:300|338:331,1,89.9999999999999,2|2,0:0|0:0,0:0:0:0:
399,350,21403,2,0,L|421:251,1,89.9999999999999,2|2,0:0|0:0,0:0:0:0:
429,218,21872,1,8,0:0:0:0:
429,218,22028,2,0,P|353:224|292:178,1,135,2|8,0:0|0:0,0:0:0:0:
242,129,22810,6,0,P|239:84|265:37,1,89.9999999999999,2|8,0:0|0:0,0:0:0:0:
337,1,23435,2,0,L|427:8,1,89.9999999999999,2|8,0:0|0:0,0:0:0:0:
494,66,24060,2,0,P|503:120|459:170,1,89.9999999999999,2|8,0:0|0:0,0:0:0:0:
461,186,24528,2,0,P|412:184|364:175,1,89.9999999999999,2|8,0:0|0:0,0:0:0:0:
328,162,24997,2,0,P|305:164|276:171,1,45,8|8,0:0|0:0,0:0:0:0:
251,200,25310,6,0,L|234:93,2,89.9999999999999,14|12|12,0:0|0:0|0:0,0:0:0:0:
197,272,26247,1,12,0:0:0:0:
110,245,26560,2,0,L|87:133,1,89.9999999999999,12|8,0:0|0:0,0:0:0:0:
104,113,27028,1,8,0:0:0:0:
104,113,27185,2,0,P|144:89|211:101,1,89.9999999999999,8|8,0:0|0:0,0:0:0:0:
270,121,27810,6,0,P|336:64|439:109,1,180,6|2,3:0|0:3,0:0:0:0:
489,142,28747,1,2,0:3:0:0:
427,207,29060,2,0,L|441:310,1,89.9999999999999,2|2,0:3|0:3,0:0:0:0:
354,327,29685,2,0,L|245:343,1,89.9999999999999,2|2,0:3|0:3,0:0:0:0:
251,247,30310,6,0,L|237:147,2,89.9999999999999,2|2|2,0:3|0:3|0:3,0:0:0:0:
192,315,31247,1,2,0:3:0:0:
117,264,31560,2,0,L|90:82,1,180,2|2,0:3|0:3,0:0:0:0:
156,24,32497,1,2,0:0:0:0:
231,73,32810,6,0,P|280:89|339:67,1,89.9999999999999,2|2,0:0|0:3,0:0:0:0:
381,19,33435,2,0,P|406:61|402:124,1,89.9999999999999,2|2,0:0|0:3,0:0:0:0:
473,163,34060,2,0,P|432:187|379:182,1,89.9999999999999,2|2,0:0|0:3,0:0:0:0:
321,128,34685,1,2,0:0:0:0:
256,190,34997,1,8,0:0:0:0:
172,155,35310,6,0,P|152:102|170:44,1,89.9999999999999,8|2,0:0|0:0,0:0:0:0:
178,30,35778,2,0,P|226:11|269:16,1,89.9999999999999,8|2,0:0|0:0,0:0:0:0:
298,42,36247,2,0,P|316:75|304:143,1,89.9999999999999,8|2,0:0|0:0,0:0:0:0:
289,164,36716,2,0,P|244:189|193:181,1,89.9999999999999,8|2,0:0|0:0,0:0:0:0:
174,155,37185,1,8,0:0:0:0:
122,228,37497,1,8,0:0:0:0:
167,306,37810,6,0,P|219:309|261:289,1,89.9999999999999,6|8,0:0|0:0,0:0:0:0:
318,232,38435,2,0,P|364:213|414:225,1,89.9999999999999,2|8,0:0|0:0,0:0:0:0:
484,256,39060,2,0,L|502:158,1,89.9999999999999,2|8,0:0|0:0,0:0:0:0:
480,79,39685,1,2,0:0:0:0:
412,138,39997,1,8,0:0:0:0:
356,66,40310,6,0,P|308:62|260:80,1,89.9999999999999,2|8,0:0|0:0,0:0:0:0:
192,122,40935,2,0,L|171:15,1,89.9999999999999,2|8,0:0|0:0,0:0:0:0:
87,58,41560,2,0,L|106:161,1,89.9999999999999,2|8,0:0|0:0,0:0:0:0:
126,184,42028,1,2,0:0:0:0:
126,184,42185,2,0,P|165:211|230:204,1,89.9999999999999,2|8,0:0|0:0,0:0:0:0:
286,171,42810,6,0,P|328:153|385:172,1,89.9999999999999,2|8,0:0|0:0,0:0:0:0:
448,205,43435,2,0,L|431:322,1,89.9999999999999,2|8,0:0|0:0,0:0:0:0:
410,331,43903,1,2,0:0:0:0:
410,331,44060,2,0,P|363:350|317:338,1,89.9999999999999,2|8,0:0|0:0,0:0:0:0:
257,284,44685,1,2,0:0:0:0:
199,353,44997,1,8,0:0:0:0:
139,285,45310,6,0,L|123:186,1,89.9999999999999,2|8,0:0|0:0,0:0:0:0:
60,133,45935,2,0,P|99:103|155:108,1,89.9999999999999,2|8,0:0|0:0,0:0:0:0:
226,118,46560,2,0,L|244:16,1,89.9999999999999,6|8,0:0|0:0,0:0:0:0:
281,8,47028,1,2,0:0:0:0:
281,8,47185,2,0,P|321:-4|392:21,1,89.9999999999999,2|8,0:0|0:0,0:0:0:0:
437,61,47810,6,0,L|425:168,1,89.9999999999999,6|8,0:0|0:0,0:0:0:0:
402,188,48278,2,0,P|361:208|303:199,1,89.9999999999999,2|2,0:0|0:0,0:0:0:0:
279,181,48747,1,8,0:0:0:0:
279,181,48903,2,0,L|259:309,1,89.9999999999999,2|2,0:0|0:0,0:0:0:0:
244,310,49372,2,0,P|196:328|137:301,1,89.9999999999999,8|2,0:0|0:0,0:0:0:0:
75,286,49997,2,0,L|85:227,1,45,8|2,0:0|0:0,0:0:0:0:
95,199,50310,6,0,P|142:172|205:184,1,89.9999999999999,2|8,0:0|0:0,0:0:0:0:
214,196,50778,1,2,0:0:0:0:
296,160,51091,1,2,0:0:0:0:
381,188,51403,2,0,L|403:57,1,89.9999999999999,2|2,0:0|0:0,0:0:0:0:
377,57,51872,2,0,P|334:39|279:51,1,89.9999999999999,8|2,0:0|0:0,0:0:0:0:
211,85,52497,1,8,0:0:0:0:
126,53,52810,5,2,0:0:0:0:
48,215,53435,2,0,L|155:205,1,89.9999999999999,2|8,0:0|0:0,0:0:0:0:
227,209,54060,2,0,P|252:169|243:96,1,89.9999999999999,2|8,0:0|0:0,0:0:0:0:
223,94,54528,1,2,0:0:0:0:
223,94,54685,2,0,L|334:77,1,89.9999999999999,2|8,0:0|0:0,0:0:0:0:
349,105,55153,1,0,0:0:0:0:
349,105,55310,6,0,L|455:86,1,89.9999999999999,2|8,0:0|0:0,0:0:0:0:
492,160,55935,1,2,0:0:0:0:
445,236,56247,1,8,0:0:0:0:
477,320,56560,2,0,L|387:337,1,89.9999999999999,2|8,0:0|0:0,0:0:0:0:
309,293,57185,2,0,L|213:307,1,89.9999999999999,2|8,0:0|0:0,0:0:0:0:
134,278,57810,6,0,L|115:391,2,89.9999999999999,2|2|2,0:0|0:0|0:0,0:0:0:0:
196,213,58747,1,2,0:0:0:0:
196,213,58903,2,0,P|149:190|78:214,1,89.9999999999999,0|0,0:0|0:0,0:0:0:0:
72,213,59372,1,2,0:0:0:0:
72,213,59528,2,0,L|55:113,1,89.9999999999999,0|0,0:0|0:0,0:0:0:0:
64,79,59997,1,2,0:0:0:0:
143,37,60310,1,2,0:0:0:0:
257,176,60935,6,0,P|308:200|362:186,1,89.9999999999999,2|2,0:0|0:0,0:0:0:0:
410,140,61560,2,0,L|428:244,2,89.9999999999999,2|2|2,0:0|0:0|0:0,0:0:0:0:
324,110,62497,1,2,0:0:0:0:
375,35,62810,6,0,P|332:17|274:33,1,89.9999999999999,6|8,0:0|0:0,0:0:0:0:
231,92,63435,2,0,P|183:99|136:77,1,89.9999999999999,2|8,0:0|0:0,0:0:0:0:
65,42,64060,2,0,L|38:160,1,89.9999999999999,6|8,0:0|0:0,0:0:0:0:
27,170,64528,2,0,P|81:156|146:185,1,89.9999999999999,2|2,0:0|0:0,0:0:0:0:
149,190,64997,1,8,0:0:0:0:
231,153,65310,6,0,L|244:251,1,89.9999999999999,2|2,0:0|0:0,0:0:0:0:
255,285,65778,1,2,0:0:0:0:
255,285,65935,2,0,P|319:303|383:258,1,135,2|2,0:0|0:0,0:0:0:0:
400,232,66560,1,2,0:0:0:0:
234,54,67653,6,0,P|227:122|219:190,1,135,6|8,0:0|0:0,0:0:0:0:
145,240,68435,1,2,0:0:0:0:
216,294,68747,1,8,0:0:0:0:
290,243,69060,2,0,P|325:232|360:232,1,45,2|0,0:0|0:0,0:0:0:0:
372,209,69372,1,8,0:0:0:0:
372,209,69528,2,0,L|358:319,1,89.9999999999999,2|2,0:0|0:0,0:0:0:0:
286,348,70153,6,0,P|356:382|435:340,1,135,2|8,0:0|0:0,0:0:0:0:
445,342,70778,1,2,0:0:0:0:
486,261,71091,1,2,0:0:0:0:
424,195,71403,1,2,0:0:0:0:
424,195,71560,2,0,P|380:202|320:207,1,89.9999999999999,2|8,0:0|0:0,0:0:0:0:
292,192,72028,2,0,L|309:87,1,89.9999999999999,2|2,0:0|0:0,0:0:0:0:
322,60,72497,1,8,0:0:0:0:
322,60,72653,6,0,P|262:28|176:82,1,135,6|8,0:0|0:0,0:0:0:0:
147,119,73435,1,2,0:0:0:0:
168,210,73747,1,8,0:0:0:0:
168,210,73903,2,0,P|215:208|255:240,1,89.9999999999999,2|2,0:0|0:0,0:0:0:0:
273,269,74372,2,0,L|289:209,1,45,8|2,0:0|0:0,0:0:0:0:
331,147,74841,2,0,L|322:92,1,45,2|8,0:0|0:0,0:0:0:0:
315,58,75153,6,0,P|266:36|202:60,1,89.9999999999999,6|0,0:0|0:0,0:0:0:0:
197,70,75622,1,8,0:0:0:0:
197,70,75778,2,0,P|157:90|106:86,1,89.9999999999999,2|2,0:0|0:0,0:0:0:0:
22,79,76403,1,2,0:0:0:0:
22,79,76560,2,0,L|30:185,1,89.9999999999999,6|8,0:0|0:0,0:0:0:0:
39,212,77028,2,0,P|90:223|149:195,1,89.9999999999999,2|8,0:0|0:0,0:0:0:0:
153,177,77497,1,8,0:0:0:0:
153,177,77653,6,0,L|162:326,1,135,6|8,0:0|0:0,0:0:0:0:
243,349,78435,1,2,0:0:0:0:
322,307,78747,1,8,0:0:0:0:
410,324,79060,2,0,L|405:224,1,89.9999999999999,2|8,0:0|0:0,0:0:0:0:
385,193,79528,2,0,P|347:181|282:209,1,89.9999999999999,2|2,0:0|0:0,0:0:0:0:
210,182,80153,6,0,L|197:69,1,89.9999999999999,2|2,0:0|0:0,0:0:0:0:
174,54,80622,1,8,0:0:0:0:
174,54,80778,2,0,P|136:32|76:40,1,89.9999999999999,2|2,0:0|0:0,0:0:0:0:
20,91,81403,2,0,L|26:187,1,89.9999999999999,6|0,0:0|0:0,0:0:0:0:
48,219,81872,1,8,0:0:0:0:
48,219,82028,2,0,P|99:224|145:199,1,89.9999999999999,6|8,0:0|0:0,0:0:0:0:
197,145,82653,6,0,P|246:116|326:128,1,135,6|8,0:0|0:0,0:0:0:0:
390,66,83435,2,0,P|416:100|400:173,1,89.9999999999999,2|8,0:0|0:0,0:0:0:0:
397,186,83903,2,0,P|325:220|257:177,1,135,2|8,0:0|0:0,0:0:0:0:
246,168,84528,1,2,0:0:0:0:
246,168,84685,2,0,L|258:72,1,89.9999999999999,2|8,0:0|0:0,0:0:0:0:
239,37,85153,6,0,L|347:29,2,89.9999999999999,6|2|2,0:0|0:0|0:0,0:0:0:0:
167,92,86091,1,2,0:0:0:0:
112,20,86403,2,0,P|79:56|93:151,1,135,6|12,0:0|0:0,0:0:0:0:
154,193,87185,1,8,0:0:0:0:
237,160,87497,1,8,0:0:0:0:
323,186,87810,6,0,L|348:30,2,135,12|8|8,0:0|0:0|0:0,0:0:0:0:
438,255,89216,1,12,0:0:0:0:
360,359,89685,2,0,P|312:376|261:356,1,89.9999999999999,2|2,0:0|0:0,0:0:0:0:
237,342,90153,1,2,0:0:0:0:
237,342,90310,6,0,L|225:241,1,89.9999999999999,12|2,0:0|0:0,0:0:0:0:
261,224,90778,2,0,L|249:124,1,89.9999999999999,2|2,0:0|0:0,0:0:0:0:
271,94,91247,1,2,0:0:0:0:
193,48,91560,2,0,L|130:38,2,45,8|8|8,0:0|0:0|0:0,0:0:0:0:
41,214,92653,6,0,P|109:227|174:178,1,135,6|8,0:0|0:0,0:0:0:0:
207,116,93435,2,0,P|251:88|319:100,1,89.9999999999999,2|8,0:0|0:0,0:0:0:0:
323,114,93903,1,0,0:0:0:0:
323,114,94060,2,0,L|312:205,1,89.9999999999999,2|8,0:0|0:0,0:0:0:0:
365,276,94685,2,0,P|324:299|267:276,1,89.9999999999999,2|8,0:0|0:0,0:0:0:0:
249,261,95153,6,0,P|178:233|96:275,1,135,6|8,0:0|0:0,0:0:0:0:
98,285,95778,1,2,0:0:0:0:
98,285,95935,2,0,L|74:180,1,89.9999999999999,2|8,0:0|0:0,0:0:0:0:
83,107,96560,2,0,P|119:85|183:101,1,89.9999999999999,2|8,0:0|0:0,0:0:0:0:
240,138,97185,2,0,L|257:46,1,89.9999999999999,8|8,0:0|0:0,0:0:0:0:
289,18,97653,6,0,P|351:2|428:40,1,135,6|8,0:0|0:0,0:0:0:0:
480,89,98435,2,0,L|464:190,1,89.9999999999999,2|8,0:0|0:0,0:0:0:0:
430,260,99060,2,0,P|385:282|320:272,1,89.9999999999999,6|8,0:0|0:0,0:0:0:0:
308,256,99528,1,8,0:0:0:0:
236,311,99841,1,8,0:0:0:0:
166,253,100153,6,0,L|147:110,1,135,6|8,0:0|0:0,0:0:0:0:
68,76,100935,2,0,P|101:40|171:32,1,89.9999999999999,2|12,0:0|0:0,0:0:0:0:
222,63,101560,1,6,0:0:0:0:
301,20,101872,1,12,0:0:0:0:
381,59,102185,2,0,L|364:158,1,89.9999999999999,8|8,0:0|0:0,0:0:0:0:
326,229,102810,6,0,P|290:248|228:229,1,89.9999999999999,6|8,0:0|0:0,0:0:0:0:
202,221,103278,2,0,L|179:328,1,89.9999999999999,2|2,0:0|0:0,0:0:0:0:
256,360,103903,2,0,P|312:367|357:341,1,89.9999999999999,2|2,0:0|0:0,0:0:0:0:
371,320,104372,1,8,0:0:0:0:
371,320,104528,2,0,L|398:182,1,135,2|8,0:0|0:0,0:0:0:0:
357,106,105310,6,0,P|324:95|263:122,1,89.9999999999999,6|8,0:0|0:0,0:0:0:0:
227,189,105935,2,0,P|183:205|124:188,1,89.9999999999999,6|8,0:0|0:0,0:0:0:0:
60,159,106560,2,0,L|45:264,1,89.9999999999999,6|12,0:0|0:0,0:0:0:0:
46,293,107028,2,0,P|85:324|151:312,1,89.9999999999999,2|8,0:0|0:0,0:0:0:0:
164,305,107497,2,0,P|188:297|222:295,1,45,8|8,0:0|0:0,0:0:0:0:
248,313,107810,6,0,L|261:200,2,89.9999999999999,6|2|2,0:0|0:0|0:0,0:0:0:0:
318,368,108747,1,2,0:0:0:0:
386,309,109060,2,0,L|399:203,1,89.9999999999999,8|8,0:0|0:0,0:0:0:0:
413,177,109528,1,8,0:0:0:0:
413,177,109685,2,0,P|370:146|312:153,1,89.9999999999999,8|8,0:0|0:0,0:0:0:0:
298,171,110153,1,12,0:0:0:0:
256,192,110310,12,2,115153,0:0:0:0:
