osu file format v14

[General]
AudioFilename: audio.mp3
AudioLeadIn: 0
PreviewTime: 66325
Countdown: 0
SampleSet: Soft
StackLeniency: 0.7
Mode: 0
LetterboxInBreaks: 0
WidescreenStoryboard: 1

[Editor]
Bookmarks: 5310,27810,92653
DistanceSpacing: 1.3
BeatDivisor: 4
GridSize: 4
TimelineZoom: 2.1

[Metadata]
Title:Kataomoi no Melody o short ver.
TitleUnicode:片想いのメロディを short ver.
Artist:Yamazaki Moe
ArtistUnicode:山崎もえ
Creator:Asuka_-
Version:Hard
Source:学校のセイイキ
Tags:feng 9th seiiki eroge visual novel Eir joker- Lasse Yamicchi Yasaija 714
BeatmapID:1581744
BeatmapSetID:750166

[Difficulty]
HPDrainRate:5
CircleSize:4
OverallDifficulty:7
ApproachRate:8
SliderMultiplier:1.4
SliderTickRate:1

[Events]
//Background and Video events
0,0,"bg.jpg",0,0
//Break Periods
//Storyboard Layer 0 (Background)
//Storyboard Layer 1 (Fail)
//Storyboard Layer 2 (Pass)
//Storyboard Layer 3 (Foreground)
//Storyboard Sound Samples

[TimingPoints]
310,312.5,4,2,1,40,1,0
5310,-125,4,2,1,40,0,0
7810,-125,4,2,1,60,0,0
10153,-100,4,2,1,72,0,0
27810,-153.846153846153,4,2,1,45,0,0
34685,-153.846153846153,4,2,1,55,0,0
34997,-117.647058823529,4,2,1,55,0,0
35310,-117.647058823529,4,2,1,60,0,0
37810,-111.111111111111,4,2,1,67,0,0
57810,-153.846153846153,4,2,1,40,0,0
62810,-111.111111111111,4,2,1,60,0,0
67653,-100,4,2,1,82,0,1
92653,-100,4,2,1,72,0,0
115153,-100,4,2,0,30,0,0

[Colours]
Combo1 : 255,255,140
Combo2 : 128,255,255
Combo3 : 197,197,197

[HitObjects]
42,337,5153,5,2,0:0:0:0:
42,337,5231,1,2,0:0:0:0:
42,337,5310,1,2,0:0:0:0:
95,201,5622,1,2,0:0:0:0:
169,326,5935,1,2,0:0:0:0:
225,191,6247,1,2,0:0:0:0:
303,314,6560,1,2,0:0:0:0:
346,175,6872,1,2,0:0:0:0:
433,291,7185,2,0,L|450:176,1,112,2|2,0:0|0:0,0:0:0:0:
411,110,7653,1,8,0:0:0:0:
411,110,7731,1,8,0:0:0:0:
411,110,7810,6,0,P|444:99|475:105,2,56,2|2|2,0:0|0:0|0:0,0:0:0:0:
348,161,8278,2,0,P|330:128|333:91,2,56,8|2|2,0:0|0:0|0:0,0:0:0:0:
396,226,8747,2,0,P|363:241|321:227,1,56,8|2,0:0|0:0,0:0:0:0:
301,231,8981,1,2,0:0:0:0:
301,231,9060,6,0,L|292:300,1,56,2|2,0:0|0:0,0:0:0:0:
220,196,9372,2,0,L|213:246,3,28,2|2|2|2,0:0|0:0|0:0|0:0,0:0:0:0:
195,158,9685,1,8,0:0:0:0:
195,158,9841,1,8,0:0:0:0:
90,281,10153,6,0,L|74:119,1,140,6|0,0:0|0:0,0:0:0:0:
67,50,10622,2,0,P|92:32|139:25,1,70,8|2,0:0|0:0,0:0:0:0:
172,38,10856,1,2,0:0:0:0:
172,38,10935,2,0,P|208:58|257:55,1,70,2|2,0:0|0:0,0:0:0:0:
316,16,11247,2,0,L|329:91,1,70,8|0,0:0|0:0,0:0:0:0:
294,170,11560,6,0,P|338:121|419:123,1,140,2|8,0:0|0:0,0:0:0:0:
448,199,12028,1,2,0:0:0:0:
448,199,12106,1,2,0:0:0:0:
448,199,12185,2,0,P|404:249|331:251,1,140,2|8,0:0|0:0,0:0:0:0:
245,236,12653,6,0,L|269:73,1,140,6|2,0:0|0:0,0:0:0:0:
207,27,13122,2,0,P|178:20|122:29,1,70,8|2,0:0|0:0,0:0:0:0:
108,57,13356,1,2,0:0:0:0:
108,57,13435,2,0,L|95:133,1,70,2|2,0:0|0:0,0:0:0:0:
103,216,13747,2,0,P|143:231|193:218,1,70,8|0,0:0|0:0,0:0:0:0:
220,152,14060,6,0,P|264:195|239:292,1,140,2|8,0:0|0:0,0:0:0:0:
185,322,14528,1,2,0:0:0:0:
185,322,14685,2,0,L|337:309,1,140,2|8,0:0|0:0,0:0:0:0:
405,351,15153,6,0,P|408:277|419:199,1,140,6|2,0:0|0:0,0:0:0:0:
462,132,15622,2,0,P|431:118|379:126,1,70,8|2,0:0|0:0,0:0:0:0:
362,150,15856,1,2,0:0:0:0:
362,150,15935,2,0,P|322:162|283:156,1,70,2|2,0:0|0:0,0:0:0:0:
212,119,16247,2,0,L|199:199,1,70,8|0,0:0|0:0,0:0:0:0:
248,265,16560,5,2,0:0:0:0:
175,209,16716,1,2,0:0:0:0:
161,298,16872,1,8,0:0:0:0:
259,250,17028,2,0,L|427:260,1,140,2|2,0:0|0:0,0:0:0:0:
474,309,17497,1,8,0:0:0:0:
474,309,17653,6,0,P|486:243|434:176,1,140,6|2,0:0|0:0,0:0:0:0:
354,164,18122,2,0,P|357:131|370:76,1,70,8|0,0:0|0:0,0:0:0:0:
394,60,18356,1,2,0:0:0:0:
394,60,18435,2,0,P|347:75|303:72,1,70,2|2,0:0|0:0,0:0:0:0:
245,34,18747,2,0,P|212:25|170:24,1,70,8|0,0:0|0:0,0:0:0:0:
88,58,19060,5,2,0:0:0:0:
222,180,19372,1,12,0:0:0:0:
94,310,19685,2,0,P|88:290|82:250,3,35,8|8|8|8,0:0|0:0|0:0|0:0,0:0:0:0:
113,240,19997,2,0,P|119:220|124:187,3,35,8|8|8|8,0:0|0:0|0:0|0:0,0:0:0:0:
94,168,20310,6,0,L|242:150,1,140,6|8,0:0|0:0,0:0:0:0:
313,108,20778,2,0,P|324:140|311:186,1,70,2|0,0:0|0:0,0:0:0:0:
248,234,21091,2,0,P|234:264|238:317,1,70,2|8,0:0|0:0,0:0:0:0:
287,372,21403,6,0,P|356:379|412:327,1,140,2|2,0:0|0:0,0:0:0:0:
439,250,21872,1,8,0:0:0:0:
439,250,22028,2,0,L|411:88,1,140,2|2,0:0|0:0,0:0:0:0:
368,33,22497,2,0,P|334:38|289:59,1,70,8|2,0:0|0:0,0:0:0:0:
267,136,22810,6,0,P|280:81|210:14,1,140,6|8,0:0|0:0,0:0:0:0:
188,99,23278,1,2,0:0:0:0:
132,26,23435,2,0,P|98:79|117:157,1,140,2|8,0:0|0:0,0:0:0:0:
188,99,23903,1,2,0:0:0:0:
267,136,24060,6,0,P|310:137|352:122,1,70,6|0,0:0|0:0,0:0:0:0:
415,86,24372,1,8,0:0:0:0:
415,86,24528,2,0,P|423:115|403:182,1,70,2|0,0:0|0:0,0:0:0:0:
372,233,24841,1,8,0:0:0:0:
372,233,24919,1,8,0:0:0:0:
372,233,24997,2,0,L|386:293,3,35,8|8|8|8,0:0|0:0|0:0|0:0,0:0:0:0:
341,207,25310,6,0,L|257:194,1,70,14|0,0:0|0:0,0:0:0:0:
188,211,25622,2,0,L|203:138,1,70,12|0,0:0|0:0,0:0:0:0:
190,60,25935,2,0,L|270:70,1,70,12|0,0:0|0:0,0:0:0:0:
348,54,26247,2,0,L|336:129,1,70,12|0,0:0|0:0,0:0:0:0:
341,207,26560,6,0,L|426:188,2,70,12|8|8,0:0|0:0|0:0,0:0:0:0:
279,275,27028,1,8,0:0:0:0:
279,275,27185,2,0,L|194:262,2,70,8|8|8,0:0|0:0|0:0,0:0:0:0:
347,324,27653,1,8,0:0:0:0:
433,355,27810,6,0,L|448:249,1,90.9999958343508,6|0,3:0|0:0,0:0:0:0:
374,170,28435,1,2,0:3:0:0:
269,224,28747,1,2,0:3:0:0:
171,156,29060,2,0,L|150:257,1,90.9999958343508,2|2,0:3|0:3,0:0:0:0:
118,358,29685,6,0,P|167:364|217:331,1,90.9999958343508,2|2,0:3|0:3,0:0:0:0:
278,254,30310,2,0,P|319:234|368:246,1,90.9999958343508,2|2,0:3|0:3,0:0:0:0:
428,340,30935,1,2,0:3:0:0:
506,251,31247,1,2,0:3:0:0:
467,138,31560,6,0,P|423:146|366:149,1,90.9999958343508,2|2,0:3|0:3,0:0:0:0:
304,125,32028,1,0,0:0:0:0:
304,125,32185,1,2,0:3:0:0:
224,212,32497,1,2,0:0:0:0:
143,124,32810,6,0,P|115:163|108:204,1,90.9999958343508,2|2,0:0|0:3,0:0:0:0:
161,310,33435,2,0,L|263:297,1,90.9999958343508,2|2,0:0|0:3,0:0:0:0:
317,254,33903,1,0,0:0:0:0:
317,254,34060,2,0,P|338:214|338:160,1,90.9999958343508,2|2,0:0|0:3,0:0:0:0:
253,87,34685,6,0,L|210:95,1,22.7499989585877,2|0,0:0|0:0,0:0:0:0:
206,108,34841,2,0,L|169:100,1,22.7499989585877,0|0,0:0|0:0,0:0:0:0:
157,90,34997,2,0,L|146:195,1,89.2500017023087,8|0,0:0|0:0,0:0:0:0:
166,213,35310,6,0,L|247:205,2,59.5000011348725,8|2|2,0:0|0:0|0:0,0:0:0:0:
171,289,35778,2,0,L|251:279,2,59.5000011348725,8|2|2,0:0|0:0|0:0,0:0:0:0:
100,255,36247,2,0,L|82:180,2,59.5000011348725,8|2|2,0:0|0:0|0:0,0:0:0:0:
26,279,36716,2,0,L|10:211,2,59.5000011348725,8|2|2,0:0|0:0|0:0,0:0:0:0:
83,330,37185,2,0,P|106:335|123:335,3,29.7500005674362,8|8|8|8,0:0|0:0|0:0|0:0,0:0:0:0:
144,313,37497,2,0,P|163:307|191:308,3,29.7500005674362,8|8|8|8,0:0|0:0|0:0|0:0,0:0:0:0:
208,327,37810,6,0,L|225:188,1,125.999996154785,6|8,0:0|0:0,0:0:0:0:
258,128,38278,2,0,P|204:163|143:154,1,125.999996154785,0|0,0:0|0:0,0:0:0:0:
125,75,38747,1,8,0:0:0:0:
125,75,38903,2,0,P|188:39|260:55,1,125.999996154785,2|2,0:0|0:0,0:0:0:0:
315,74,39372,2,0,P|349:76|391:66,1,62.9999980773926,8|0,0:0|0:0,0:0:0:0:
414,53,39606,1,2,0:0:0:0:
414,53,39685,6,0,L|408:121,1,62.9999980773926,2|2,0:0|0:0,0:0:0:0:
336,154,39997,2,0,L|330:221,1,62.9999980773926,8|0,0:0|0:0,0:0:0:0:
253,245,40310,2,0,L|247:333,1,62.9999980773926,2|0,0:0|0:0,0:0:0:0:
184,358,40622,2,0,L|53:377,2,125.999996154785,8|2|8,0:0|0:0|0:0,0:0:0:0:
346,333,41560,6,0,P|354:258|299:221,1,125.999996154785,2|8,0:0|0:0,0:0:0:0:
249,186,42028,1,2,0:0:0:0:
249,186,42185,2,0,P|215:194|177:197,1,62.9999980773926,2|0,0:0|0:0,0:0:0:0:
121,148,42497,2,0,P|108:165|107:225,1,62.9999980773926,8|0,0:0|0:0,0:0:0:0:
197,115,42810,6,0,P|151:74|72:82,1,125.999996154785,2|8,0:0|0:0,0:0:0:0:
22,120,43278,1,2,0:0:0:0:
22,120,43356,1,2,0:0:0:0:
22,120,43435,2,0,L|32:269,1,125.999996154785,2|8,0:0|0:0,0:0:0:0:
69,317,43903,1,2,0:0:0:0:
69,317,44060,6,0,P|125:279|194:298,2,125.999996154785,2|8|2,0:0|0:0|0:0,0:0:0:0:
176,193,44997,1,8,0:0:0:0:
293,310,45310,2,0,P|302:244|315:176,1,125.999996154785,2|8,0:0|0:0,0:0:0:0:
358,117,45778,1,2,0:0:0:0:
358,117,45856,1,2,0:0:0:0:
358,117,45935,2,0,P|327:105|273:105,1,62.9999980773926,2|0,0:0|0:0,0:0:0:0:
239,159,46247,2,0,P|207:171|168:161,1,62.9999980773926,8|0,0:0|0:0,0:0:0:0:
101,139,46560,6,0,P|83:78|125:23,1,125.999996154785,6|8,0:0|0:0,0:0:0:0:
193,6,47028,1,2,0:0:0:0:
270,32,47185,2,0,P|302:44|355:43,1,62.9999980773926,2|8,0:0|0:0,0:0:0:0:
368,30,47419,1,8,0:0:0:0:
368,30,47497,1,8,0:0:0:0:
437,72,47653,1,8,0:0:0:0:
437,72,47731,1,8,0:0:0:0:
437,72,47810,6,0,P|428:105|425:153,1,62.9999980773926,6|2,0:0|0:0,0:0:0:0:
489,183,48122,1,8,0:0:0:0:
489,183,48278,2,0,P|442:215|372:191,1,125.999996154785,2|2,0:0|0:0,0:0:0:0:
334,129,48747,1,8,0:0:0:0:
334,129,48903,6,0,L|321:257,1,125.999996154785,2|2,0:0|0:0,0:0:0:0:
240,269,49372,2,0,L|250:184,1,62.9999980773926,8|2,0:0|0:0,0:0:0:0:
212,131,49685,1,2,0:0:0:0:
132,273,49997,2,0,P|93:284|52:281,1,62.9999980773926,8|2,0:0|0:0,0:0:0:0:
7,336,50310,6,0,P|-8:276|22:214,1,125.999996154785,2|8,0:0|0:0,0:0:0:0:
86,176,50778,2,0,P|125:178|159:191,1,62.9999980773926,2|0,0:0|0:0,0:0:0:0:
221,221,51091,2,0,P|255:223|308:214,1,62.9999980773926,2|8,0:0|0:0,0:0:0:0:
361,196,51403,6,0,L|385:50,1,125.999996154785,2|2,0:0|0:0,0:0:0:0:
321,15,51872,1,8,0:0:0:0:
252,59,52028,1,2,0:0:0:0:
252,59,52106,1,2,0:0:0:0:
252,59,52185,2,0,L|167:48,1,62.9999980773926,2|2,0:0|0:0,0:0:0:0:
112,22,52497,1,8,0:0:0:0:
26,162,52810,6,0,P|86:196|157:173,1,125.999996154785,2|8,0:0|0:0,0:0:0:0:
286,112,53435,2,0,P|299:148|298:198,1,62.9999980773926,2|0,0:0|0:0,0:0:0:0:
247,234,53747,2,0,P|236:263|237:312,1,62.9999980773926,8|0,0:0|0:0,0:0:0:0:
279,363,54060,6,0,P|344:378|405:329,1,125.999996154785,2|8,0:0|0:0,0:0:0:0:
436,279,54528,1,2,0:0:0:0:
436,279,54685,2,0,L|445:170,2,94.499997116089,2|2|2,0:0|0:0|0:0,0:0:0:0:
393,348,55310,6,0,P|366:347|322:331,1,62.9999980773926,6|0,0:0|0:0,0:0:0:0:
254,362,55622,2,0,P|236:335|223:282,1,62.9999980773926,8|0,0:0|0:0,0:0:0:0:
150,272,55935,2,0,P|156:234|179:195,1,62.9999980773926,2|0,0:0|0:0,0:0:0:0:
140,134,56247,2,0,P|165:108|208:95,1,62.9999980773926,8|0,0:0|0:0,0:0:0:0:
274,59,56560,6,0,L|284:194,2,125.999996154785,2|8|2,0:0|0:0|0:0,0:0:0:0:
202,14,57341,1,2,0:0:0:0:
202,14,57497,2,0,P|167:14|127:40,1,62.9999980773926,8|2,0:0|0:0,0:0:0:0:
79,77,57810,6,0,P|63:118|81:170,1,90.9999958343508,2|2,0:0|0:0,0:0:0:0:
129,216,58278,2,0,L|230:203,1,90.9999958343508,0|0,0:0|0:0,0:0:0:0:
275,151,58747,1,2,0:0:0:0:
275,151,58903,2,0,P|297:178|279:248,1,90.9999958343508,0|0,0:0|0:0,0:0:0:0:
244,294,59372,1,2,0:0:0:0:
244,294,59528,2,0,L|346:274,1,90.9999958343508,0|0,0:0|0:0,0:0:0:0:
399,227,59997,1,2,0:0:0:0:
479,328,60310,1,2,0:0:0:0:
479,328,60935,5,2,0:0:0:0:
396,243,61247,1,2,0:0:0:0:
335,344,61560,2,0,P|316:353|274:355,1,45.4999979171754,2|0,0:0|0:0,0:0:0:0:
254,289,61872,2,0,P|237:278|204:272,1,45.4999979171754,2|2,0:0|0:0,0:0:0:0:
165,334,62185,2,0,P|146:346|110:348,1,45.4999979171754,2|2,0:0|0:0,0:0:0:0:
89,279,62497,2,0,P|69:263|35:259,1,45.4999979171754,2|2,0:0|0:0,0:0:0:0:
25,333,62810,6,0,L|5:192,1,125.999996154785,6|8,0:0|0:0,0:0:0:0:
30,129,63278,1,0,0:0:0:0:
30,129,63435,2,0,P|58:115|106:116,1,62.9999980773926,2|0,0:0|0:0,0:0:0:0:
160,151,63747,2,0,P|170:123|167:72,1,62.9999980773926,8|0,0:0|0:0,0:0:0:0:
93,192,64060,6,0,P|142:230|216:201,1,125.999996154785,6|8,0:0|0:0,0:0:0:0:
267,169,64528,2,0,L|252:307,1,125.999996154785,2|2,0:0|0:0,0:0:0:0:
298,363,64997,2,0,P|345:383|398:374,1,94.499997116089,8|0,0:0|0:0,0:0:0:0:
423,358,65310,6,0,L|441:212,1,125.999996154785,2|2,0:0|0:0,0:0:0:0:
405,157,65778,1,2,0:0:0:0:
339,207,65935,2,0,P|307:219|269:212,1,62.9999980773926,2|2,0:0|0:0,0:0:0:0:
211,169,66247,1,2,0:0:0:0:
211,169,66403,1,2,0:0:0:0:
304,333,67653,6,0,P|363:347|434:291,1,140,6|0,0:0|0:0,0:0:0:0:
476,229,68122,1,8,0:0:0:0:
407,169,68278,1,0,0:0:0:0:
407,169,68356,1,2,0:0:0:0:
407,169,68435,2,0,P|366:172|314:186,1,70,2|2,0:0|0:0,0:0:0:0:
266,234,68747,2,0,P|227:232|186:221,1,70,8|0,0:0|0:0,0:0:0:0:
114,185,69060,6,0,P|103:123|160:69,1,140,2|8,0:0|0:0,0:0:0:0:
236,35,69528,2,0,P|268:47|319:49,1,70,2|2,0:0|0:0,0:0:0:0:
387,15,69841,2,0,L|403:107,1,70,2|8,0:0|0:0,0:0:0:0:
353,162,70153,6,0,P|417:108|487:129,1,140,2|0,0:0|0:0,0:0:0:0:
504,199,70622,1,8,0:0:0:0:
504,199,70778,2,0,L|491:281,1,70,2|0,0:0|0:0,0:0:0:0:
402,276,71091,2,0,L|422:360,1,70,2|8,0:0|0:0,0:0:0:0:
318,243,71403,1,2,0:0:0:0:
279,326,71560,6,0,P|226:258|249:191,1,140,2|8,0:0|0:0,0:0:0:0:
308,155,72028,1,2,0:0:0:0:
308,155,72106,1,2,0:0:0:0:
308,155,72185,1,2,0:0:0:0:
219,187,72341,1,2,0:0:0:0:
134,138,72497,1,8,0:0:0:0:
134,138,72653,6,0,L|119:286,1,140,6|0,0:0|0:0,0:0:0:0:
178,347,73122,2,0,P|215:350|260:332,1,70,8|0,0:0|0:0,0:0:0:0:
323,291,73435,2,0,P|386:261|455:291,1,140,2|8,0:0|0:0,0:0:0:0:
386,351,73903,6,0,L|415:190,1,140,2|2,0:0|0:0,0:0:0:0:
427,123,74372,1,8,0:0:0:0:
345,163,74528,1,2,0:0:0:0:
345,163,74606,1,2,0:0:0:0:
345,163,74685,1,2,0:0:0:0:
269,101,74841,2,0,L|254:184,1,70,2|8,0:0|0:0,0:0:0:0:
195,46,75153,6,0,L|163:209,1,140,6|0,0:0|0:0,0:0:0:0:
151,273,75622,1,8,0:0:0:0:
151,273,75778,2,0,P|189:263|231:260,1,70,2|2,0:0|0:0,0:0:0:0:
301,300,76091,2,0,L|290:387,1,70,2|8,0:0|0:0,0:0:0:0:
294,210,76403,1,2,0:0:0:0:
219,260,76560,6,0,P|181:183|217:118,1,140,6|8,0:0|0:0,0:0:0:0:
262,76,77028,1,2,0:0:0:0:
348,87,77185,2,0,L|357:46,5,35,8|8|8|8|8|8,0:0|0:0|0:0|0:0|0:0|0:0,0:0:0:0:
370,121,77653,6,0,L|386:263,1,140,6|0,0:0|0:0,0:0:0:0:
330,333,78122,1,8,0:0:0:0:
259,275,78278,1,2,0:0:0:0:
259,275,78356,1,2,0:0:0:0:
259,275,78435,2,0,P|218:278|166:292,1,70,2|2,0:0|0:0,0:0:0:0:
124,346,78747,2,0,P|106:313|105:263,1,70,8|0,0:0|0:0,0:0:0:0:
102,189,79060,6,0,P|122:150|221:132,1,140,2|8,0:0|0:0,0:0:0:0:
307,131,79528,1,2,0:0:0:0:
307,131,79606,1,2,0:0:0:0:
307,131,79685,1,2,0:0:0:0:
383,75,79841,2,0,P|392:114|423:160,1,70,2|8,0:0|0:0,0:0:0:0:
487,179,80153,6,0,P|432:169|362:230,1,140,2|2,0:0|0:0,0:0:0:0:
292,269,80622,1,8,0:0:0:0:
230,201,80778,1,8,0:0:0:0:
230,201,80856,1,8,0:0:0:0:
230,201,80935,1,8,0:0:0:0:
190,283,81091,2,0,L|208:366,1,70,2|8,0:0|0:0,0:0:0:0:
99,300,81403,6,0,L|68:140,1,140,6|0,0:0|0:0,0:0:0:0:
120,81,81872,1,8,0:0:0:0:
120,81,82028,2,0,P|157:94|219:87,1,70,6|0,0:0|0:0,0:0:0:0:
266,48,82341,2,0,P|297:31|348:33,1,70,8|8,0:0|0:0,0:0:0:0:
419,51,82653,6,0,P|442:103|384:181,1,140,6|0,0:0|0:0,0:0:0:0:
316,191,83122,2,0,P|281:193|223:179,1,70,8|2,0:0|0:0,0:0:0:0:
157,167,83435,2,0,L|174:323,1,140,2|8,0:0|0:0,0:0:0:0:
122,382,83903,6,0,P|165:335|254:337,1,140,2|0,0:0|0:0,0:0:0:0:
323,362,84372,2,0,P|363:363|408:348,1,70,8|2,0:0|0:0,0:0:0:0:
469,307,84685,2,0,L|478:223,1,70,2|8,0:0|0:0,0:0:0:0:
500,198,84919,1,8,0:0:0:0:
500,198,84997,1,8,0:0:0:0:
450,121,85153,6,0,P|378:106|320:176,1,140,6|2,0:0|0:0,0:0:0:0:
267,211,85622,1,8,0:0:0:0:
267,211,85778,2,0,P|243:181|244:131,1,70,2|0,0:0|0:0,0:0:0:0:
280,69,86091,2,0,P|239:58|194:68,1,70,2|8,0:0|0:0,0:0:0:0:
133,15,86403,6,0,L|103:171,1,140,6|0,0:0|0:0,0:0:0:0:
72,237,86872,2,0,P|118:243|161:216,1,70,12|2,0:0|0:0,0:0:0:0:
203,169,87185,2,0,P|217:170|247:175,3,35,8|8|8|8,0:0|0:0|0:0|0:0,0:0:0:0:
270,204,87497,2,0,P|288:200|323:187,3,35,8|8|8|8,0:0|0:0|0:0|0:0,0:0:0:0:
336,163,87810,5,12,0:0:0:0:
336,163,87966,1,8,0:0:0:0:
180,69,88278,1,8,0:0:0:0:
180,69,88435,1,8,0:0:0:0:
26,166,88747,5,8,0:0:0:0:
26,166,88903,1,8,0:0:0:0:
187,250,89216,2,0,P|255:239|337:229,1,140,12|2,0:0|0:0,0:0:0:0:
402,180,89685,6,0,P|420:215|413:266,1,70,2|2,0:0|0:0,0:0:0:0:
383,327,89997,2,0,P|366:324|349:321,3,35,2|2|2|2,0:0|0:0|0:0|0:0,0:0:0:0:
316,353,90310,6,0,P|244:373|179:317,1,140,12|2,0:0|0:0,0:0:0:0:
113,299,90778,2,0,L|104:389,1,70,2|2,0:0|0:0,0:0:0:0:
182,235,91091,1,2,0:0:0:0:
182,235,91247,2,0,L|190:152,1,70,2|2,0:0|0:0,0:0:0:0:
266,272,91560,5,8,0:0:0:0:
266,272,91716,1,8,0:0:0:0:
266,272,91872,1,8,0:0:0:0:
489,116,92653,6,0,P|416:131|358:86,1,140,6|0,0:0|0:0,0:0:0:0:
296,36,93122,2,0,P|277:69|275:117,1,70,8|2,0:0|0:0,0:0:0:0:
289,142,93356,1,2,0:0:0:0:
289,142,93435,2,0,L|194:155,1,70,2|2,0:0|0:0,0:0:0:0:
148,207,93747,2,0,P|130:168|137:126,1,70,8|0,0:0|0:0,0:0:0:0:
229,239,94060,6,0,P|185:288|104:286,1,140,2|8,0:0|0:0,0:0:0:0:
50,226,94528,1,0,0:0:0:0:
52,134,94685,2,0,P|98:83|166:82,1,140,2|8,0:0|0:0,0:0:0:0:
234,141,95153,6,0,L|258:-22,1,140,6|0,0:0|0:0,0:0:0:0:
322,140,95622,2,0,L|332:67,1,70,8|2,0:0|0:0,0:0:0:0:
359,34,95856,1,2,0:0:0:0:
359,34,95935,2,0,P|396:28|444:52,1,70,2|2,0:0|0:0,0:0:0:0:
491,100,96247,2,0,L|482:181,1,70,8|0,0:0|0:0,0:0:0:0:
451,255,96560,6,0,P|397:292|311:274,1,140,2|8,0:0|0:0,0:0:0:0:
262,219,97028,1,0,0:0:0:0:
208,290,97185,2,0,L|213:347,4,35,8|8|8|8|8,0:0|0:0|0:0|0:0|0:0,0:0:0:0:
133,238,97653,6,0,L|117:81,1,140,6|0,0:0|0:0,0:0:0:0:
173,24,98122,2,0,P|207:16|256:30,1,70,8|0,0:0|0:0,0:0:0:0:
278,48,98356,1,2,0:0:0:0:
278,48,98435,2,0,P|318:55|357:42,1,70,2|2,0:0|0:0,0:0:0:0:
434,25,98747,2,0,L|421:105,1,70,8|0,0:0|0:0,0:0:0:0:
427,201,99060,5,6,0:0:0:0:
353,148,99216,1,2,0:0:0:0:
436,111,99372,1,8,0:0:0:0:
341,231,99528,2,0,L|314:79,1,140,8|8,0:0|0:0,0:0:0:0:
263,20,99997,1,0,0:0:0:0:
263,20,100153,6,0,P|197:8|130:60,1,140,6|0,0:0|0:0,0:0:0:0:
97,127,100622,2,0,P|102:170|130:215,1,70,8|0,0:0|0:0,0:0:0:0:
146,224,100856,1,2,0:0:0:0:
146,224,100935,2,0,L|237:212,1,70,2|2,0:0|0:0,0:0:0:0:
285,157,101247,2,0,L|384:167,1,70,12|0,0:0|0:0,0:0:0:0:
428,218,101560,5,6,0:0:0:0:
304,351,101872,1,12,0:0:0:0:
143,264,102185,2,0,P|137:244|131:204,3,35,8|8|8|8,0:0|0:0|0:0|0:0,0:0:0:0:
159,192,102497,2,0,P|165:172|170:139,3,35,8|8|8|8,0:0|0:0|0:0|0:0,0:0:0:0:
147,116,102810,6,0,P|223:109|295:98,1,140,6|8,0:0|0:0,0:0:0:0:
363,147,103278,2,0,P|376:116|375:63,1,70,2|0,0:0|0:0,0:0:0:0:
291,183,103591,2,0,P|277:213|281:266,1,70,2|8,0:0|0:0,0:0:0:0:
333,317,103903,6,0,P|279:288|191:308,1,140,2|2,0:0|0:0,0:0:0:0:
129,353,104372,1,8,0:0:0:0:
129,353,104528,2,0,L|101:191,1,140,2|2,0:0|0:0,0:0:0:0:
33,158,104997,2,0,P|60:134|112:132,1,70,8|2,0:0|0:0,0:0:0:0:
181,148,105310,6,0,P|227:97|214:25,1,140,6|8,0:0|0:0,0:0:0:0:
137,72,105778,1,2,0:0:0:0:
80,0,105935,2,0,P|46:53|65:131,1,140,6|8,0:0|0:0,0:0:0:0:
137,72,106403,1,2,0:0:0:0:
181,148,106560,6,0,P|225:142|253:131,1,70,6|0,0:0|0:0,0:0:0:0:
337,114,106872,1,8,0:0:0:0:
337,114,107028,2,0,L|325:210,1,70,2|8,0:0|0:0,0:0:0:0:
292,267,107341,1,8,0:0:0:0:
292,267,107419,1,8,0:0:0:0:
292,267,107497,2,0,L|235:274,3,35,8|8|8|8,0:0|0:0|0:0|0:0,0:0:0:0:
330,298,107810,6,0,L|414:288,1,70,6|2,0:0|0:0,0:0:0:0:
432,205,108122,2,0,L|362:213,1,70,2|2,0:0|0:0,0:0:0:0:
308,139,108435,2,0,L|392:128,1,70,2|2,0:0|0:0,0:0:0:0:
409,45,108747,2,0,L|321:57,1,70,2|2,0:0|0:0,0:0:0:0:
249,69,109060,6,0,L|263:-14,2,70,8|8|8,0:0|0:0|0:0,0:0:0:0:
177,124,109528,1,8,0:0:0:0:
98,77,109685,2,0,L|95:37,4,35,8|8|8|8|8,0:0|0:0|0:0|0:0|0:0,0:0:0:0:
26,133,110153,5,12,0:0:0:0:
256,192,110310,12,2,115153,0:0:0:0:
