osu file format v14

[General]
AudioFilename: audio.mp3
AudioLeadIn: 0
PreviewTime: 66325
Countdown: 0
SampleSet: Soft
StackLeniency: 0.7
Mode: 0
LetterboxInBreaks: 0
WidescreenStoryboard: 0

[Editor]
Bookmarks: 5310,27810,92653
DistanceSpacing: 1.2
BeatDivisor: 4
GridSize: 4
TimelineZoom: 2.1

[Metadata]
Title:Kataomoi no Melody o short ver.
TitleUnicode:片想いのメロディを short ver.
Artist:Yamazaki Moe
ArtistUnicode:山崎もえ
Creator:Asuka_-
Version:Extra
Source:学校のセイイキ
Tags:feng 9th seiiki eroge visual novel Eir joker- Lasse Yamicchi Yasaija 714
BeatmapID:1579854
BeatmapSetID:750166

[Difficulty]
HPDrainRate:6
CircleSize:4
OverallDifficulty:8.5
ApproachRate:9.4
SliderMultiplier:1.9
SliderTickRate:1

[Events]
//Background and Video events
0,0,"bg.jpg",0,0
//Break Periods
//Storyboard Layer 0 (Background)
//Storyboard Layer 1 (Fail)
//Storyboard Layer 2 (Pass)
//Storyboard Layer 3 (Foreground)
//Storyboard Sound Samples

[TimingPoints]
310,312.5,4,2,1,40,1,0
5310,-125,4,2,1,40,0,0
7810,-125,4,2,1,60,0,0
10153,-100,4,2,1,72,0,0
27810,-153.846153846153,4,2,1,45,0,0
34685,-153.846153846153,4,2,1,55,0,0
35310,-153.846153846153,4,2,1,60,0,0
37810,-117.647058823529,4,2,1,67,0,0
57810,-153.846153846153,4,2,1,40,0,0
62810,-111.111111111111,4,2,1,60,0,0
66560,-111.111111111111,4,2,0,40,0,0
67653,-100,4,2,1,82,0,1
92653,-100,4,2,1,72,0,0
115153,-100,4,2,0,30,0,0

[Colours]
Combo1 : 255,255,140
Combo2 : 128,255,255
Combo3 : 177,177,177

[HitObjects]
79,267,5153,5,2,0:0:0:0:
79,267,5231,1,2,0:0:0:0:
79,267,5310,6,0,L|68:353,1,76,2|0,0:0|0:0,0:0:0:0:
180,242,5622,2,0,L|170:327,1,76,2|0,0:0|0:0,0:0:0:0:
287,219,5935,2,0,L|280:308,1,76,2|0,0:0|0:0,0:0:0:0:
402,190,6247,2,0,L|394:269,1,76,2|0,0:0|0:0,0:0:0:0:
442,150,6560,6,0,L|434:244,1,76,2|0,0:0|0:0,0:0:0:0:
321,106,6872,2,0,L|309:208,1,76,2|0,0:0|0:0,0:0:0:0:
180,242,7185,2,0,L|190:155,1,76,2|0,0:0|0:0,0:0:0:0:
92,15,7497,1,2,0:0:0:0:
209,89,7653,1,8,0:0:0:0:
209,89,7731,1,8,0:0:0:0:
209,89,7810,5,2,0:0:0:0:
91,224,7966,1,2,0:0:0:0:
308,147,8122,1,2,0:0:0:0:
90,87,8278,5,8,0:0:0:0:
308,147,8435,1,2,0:0:0:0:
91,224,8591,1,2,0:0:0:0:
189,13,8747,5,8,0:0:0:0:
228,293,8903,1,2,0:0:0:0:
228,293,8981,1,2,0:0:0:0:
228,293,9060,5,2,0:0:0:0:
403,100,9216,2,0,L|467:104,1,38,2|0,0:0|0:0,0:0:0:0:
232,162,9372,2,0,L|185:159,1,38,2|0,0:0|0:0,0:0:0:0:
419,256,9528,2,0,L|486:265,1,38,2|0,0:0|0:0,0:0:0:0:
349,10,9685,5,8,0:0:0:0:
257,363,9841,1,8,0:0:0:0:
41,109,10153,6,0,P|121:39|210:79,1,190,6|0,0:0|0:0,0:0:0:0:
302,220,10622,1,8,0:0:0:0:
137,136,10778,1,2,0:0:0:0:
137,136,10856,1,2,0:0:0:0:
137,136,10935,1,2,0:0:0:0:
286,47,11091,1,2,0:0:0:0:
184,299,11247,2,0,L|69:284,1,95,8|0,0:0|0:0,0:0:0:0:
59,268,11481,1,2,0:0:0:0:
59,268,11560,5,2,0:0:0:0:
241,158,11716,1,2,0:0:0:0:
246,370,11872,1,8,0:0:0:0:
126,199,12028,1,2,0:0:0:0:
126,199,12106,1,2,0:0:0:0:
126,199,12185,1,2,0:0:0:0:
345,229,12341,1,2,0:0:0:0:
268,24,12497,1,8,0:0:0:0:
293,317,12653,6,0,P|396:314|443:211,1,190,6|2,0:0|0:0,0:0:0:0:
237,170,13122,1,8,0:0:0:0:
420,57,13278,1,2,0:0:0:0:
420,57,13356,1,2,0:0:0:0:
420,57,13435,1,2,0:0:0:0:
345,229,13591,1,2,0:0:0:0:
155,94,13747,2,0,L|139:201,1,95,8|0,0:0|0:0,0:0:0:0:
159,235,13981,1,2,0:0:0:0:
163,239,14060,5,2,0:0:0:0:
244,135,14216,1,2,0:0:0:0:
82,278,14372,1,8,0:0:0:0:
161,102,14528,1,2,0:0:0:0:
161,102,14606,1,2,0:0:0:0:
161,102,14685,1,2,0:0:0:0:
205,301,14841,1,2,0:0:0:0:
329,172,14997,1,8,0:0:0:0:
408,374,15153,6,0,P|485:319|475:216,1,190,6|2,0:0|0:0,0:0:0:0:
329,172,15622,1,8,0:0:0:0:
483,81,15778,1,2,0:0:0:0:
483,81,15856,1,2,0:0:0:0:
483,81,15935,1,2,0:0:0:0:
238,25,16091,1,2,0:0:0:0:
313,265,16247,2,0,L|329:169,1,95,8|0,0:0|0:0,0:0:0:0:
279,356,16560,5,2,0:0:0:0:
494,159,16716,1,2,0:0:0:0:
203,81,16872,1,8,0:0:0:0:
287,364,17028,1,2,0:0:0:0:
287,364,17106,1,2,0:0:0:0:
287,364,17185,1,2,0:0:0:0:
134,212,17341,2,0,L|115:312,1,95,2|8,0:0|0:0,0:0:0:0:
393,55,17653,6,0,P|303:68|169:81,1,190,6|2,0:0|0:0,0:0:0:0:
414,277,18122,2,0,P|435:241|433:181,1,95,8|0,0:0|0:0,0:0:0:0:
415,152,18356,1,2,0:0:0:0:
415,152,18435,1,2,0:0:0:0:
285,355,18591,1,2,0:0:0:0:
83,200,18747,2,0,P|157:192|234:177,1,142.5,8|0,0:0|0:0,0:0:0:0:
262,138,19060,5,2,0:0:0:0:
138,330,19216,1,2,0:0:0:0:
161,83,19372,1,12,0:0:0:0:
246,375,19528,1,2,0:0:0:0:
272,108,19685,5,8,0:0:0:0:
320,74,19763,1,8,0:0:0:0:
378,74,19841,1,8,0:0:0:0:
427,105,19919,1,8,0:0:0:0:
454,156,19997,1,8,0:0:0:0:
438,212,20075,1,8,0:0:0:0:
399,256,20153,1,8,0:0:0:0:
348,285,20231,1,8,0:0:0:0:
290,289,20310,6,0,L|303:405,1,95,6|0,0:0|0:0,0:0:0:0:
354,174,20622,1,8,0:0:0:0:
197,356,20778,2,0,P|178:314|184:254,1,95,2|0,0:0|0:0,0:0:0:0:
423,113,21091,2,0,P|444:156|437:227,1,95,2|8,0:0|0:0,0:0:0:0:
127,67,21403,6,0,P|201:57|284:37,1,142.5,2|0,0:0|0:0,0:0:0:0:
306,0,21716,1,2,0:0:0:0:
177,170,21872,1,8,0:0:0:0:
450,80,22028,2,0,P|396:107|424:238,1,190,2|2,0:0|0:0,0:0:0:0:
468,323,22497,1,8,0:0:0:0:
297,237,22653,1,2,0:0:0:0:
157,356,22810,6,0,L|368:325,1,190,2|8,0:0|0:0,0:0:0:0:
202,257,23278,1,2,0:0:0:0:
343,118,23435,2,0,L|152:142,1,190,2|8,0:0|0:0,0:0:0:0:
283,34,23903,1,2,0:0:0:0:
108,238,24060,6,0,P|54:180|67:102,1,142.5,2|0,0:0|0:0,0:0:0:0:
81,82,24372,1,8,0:0:0:0:
265,190,24528,1,2,0:0:0:0:
161,378,24685,1,6,0:0:0:0:
292,103,24841,1,8,0:0:0:0:
338,135,24919,1,8,0:0:0:0:
357,191,24997,1,8,0:0:0:0:
336,244,25075,1,8,0:0:0:0:
290,277,25153,1,8,0:0:0:0:
233,274,25231,1,8,0:0:0:0:
183,250,25310,6,0,L|163:139,1,95,14|0,0:0|0:0,0:0:0:0:
338,135,25622,2,0,L|359:244,1,95,12|0,0:0|0:0,0:0:0:0:
86,308,25935,2,0,L|69:209,1,95,12|0,0:0|0:0,0:0:0:0:
428,71,26247,2,0,L|450:178,1,95,12|0,0:0|0:0,0:0:0:0:
253,345,26560,5,12,0:0:0:0:
483,262,26716,1,8,0:0:0:0:
198,157,26872,1,8,0:0:0:0:
428,71,27028,1,8,0:0:0:0:
328,300,27185,5,8,0:0:0:0:
212,30,27341,1,8,0:0:0:0:
410,177,27497,1,8,0:0:0:0:
150,322,27653,1,8,0:0:0:0:
30,106,27810,6,0,B|63:92|90:104|90:104|117:117|153:104,1,123.499994346619,6|0,3:0|0:0,0:0:0:0:
334,50,28435,2,0,L|329:121,1,61.7499971733095,2|0,0:3|0:0,0:0:0:0:
423,76,28747,2,0,L|416:162,1,61.7499971733095,2|0,0:3|0:0,0:0:0:0:
375,212,29060,6,0,P|454:217|491:176,1,123.499994346619,2|2,0:3|0:3,0:0:0:0:
232,360,29685,1,2,0:3:0:0:
133,261,29997,1,2,0:3:0:0:
192,128,30310,1,2,0:3:0:0:
340,144,30622,1,2,0:3:0:0:
384,280,30935,1,2,0:3:0:0:
264,356,31247,1,2,0:3:0:0:
232,360,31560,6,0,L|91:368,1,123.499994346619,2|2,0:3|0:3,0:0:0:0:
34,281,32028,1,0,0:0:0:0:
34,281,32185,2,0,L|102:279,1,61.7499971733095,2|0,0:3|0:0,0:0:0:0:
190,227,32497,1,2,0:0:0:0:
309,339,32810,6,0,P|345:288|326:217,1,123.499994346619,2|2,0:0|0:3,0:0:0:0:
253,138,33435,2,0,L|384:119,1,123.499994346619,2|2,0:0|0:3,0:0:0:0:
213,59,33903,1,0,0:0:0:0:
213,59,34060,2,0,L|356:39,1,123.499994346619,2|2,0:0|0:3,0:0:0:0:
139,220,34685,5,2,0:0:0:0:
139,220,34841,1,0,0:0:0:0:
81,82,34997,2,0,L|59:188,1,92.6249957599642,8|0,0:0|0:0,0:0:0:0:
59,212,35310,5,8,0:0:0:0:
238,202,35466,1,2,0:0:0:0:
150,155,35622,1,2,0:0:0:0:
239,101,35778,5,8,0:0:0:0:
140,253,35935,1,2,0:0:0:0:
51,128,36091,1,2,0:0:0:0:
247,238,36247,5,8,0:0:0:0:
45,231,36403,1,2,0:0:0:0:
166,149,36560,1,2,0:0:0:0:
134,310,36716,5,8,0:0:0:0:
62,88,36872,1,2,0:0:0:0:
275,155,37028,1,2,0:0:0:0:
99,198,37185,6,0,L|87:152,1,30.8749985866547,8|8,0:0|0:0,0:0:0:0:
212,86,37341,2,0,L|204:141,1,30.8749985866547,8|8,0:0|0:0,0:0:0:0:
321,198,37497,1,8,0:0:0:0:
331,165,37575,1,8,0:0:0:0:
338,134,37653,1,8,0:0:0:0:
348,99,37731,1,8,0:0:0:0:
359,68,37810,6,0,L|340:238,1,161.500003080368,6|8,0:0|0:0,0:0:0:0:
337,350,38278,1,0,0:0:0:0:
449,236,38435,2,0,L|435:330,1,80.750001540184,2|0,0:0|0:0,0:0:0:0:
337,350,38747,1,8,0:0:0:0:
236,226,38903,6,0,P|171:274|182:364,1,161.500003080368,2|2,0:0|0:0,0:0:0:0:
40,237,39372,2,0,L|59:336,1,80.750001540184,8|0,0:0|0:0,0:0:0:0:
55,316,39606,1,2,0:0:0:0:
55,316,39685,1,2,0:0:0:0:
139,165,39841,1,2,0:0:0:0:
249,311,39997,2,0,L|264:219,1,80.750001540184,8|0,0:0|0:0,0:0:0:0:
409,61,40310,6,0,L|322:70,1,80.750001540184,2|0,0:0|0:0,0:0:0:0:
184,151,40622,2,0,L|273:143,1,80.750001540184,8|0,0:0|0:0,0:0:0:0:
443,195,40935,2,0,L|345:200,1,80.750001540184,2|0,0:0|0:0,0:0:0:0:
167,273,41247,2,0,L|263:265,1,80.750001540184,8|0,0:0|0:0,0:0:0:0:
385,358,41560,6,0,L|357:168,1,161.500003080368,2|8,0:0|0:0,0:0:0:0:
390,89,42028,1,2,0:0:0:0:
390,89,42185,2,0,P|356:105|282:110,1,80.750001540184,2|0,0:0|0:0,0:0:0:0:
452,162,42497,2,0,L|471:256,1,80.750001540184,8|0,0:0|0:0,0:0:0:0:
224,342,42810,6,0,P|282:289|377:315,1,161.500003080368,2|8,0:0|0:0,0:0:0:0:
141,369,43278,1,2,0:0:0:0:
141,369,43356,1,2,0:0:0:0:
141,369,43435,2,0,L|110:188,1,161.500003080368,2|8,0:0|0:0,0:0:0:0:
270,104,43903,1,2,0:0:0:0:
270,104,44060,6,0,L|190:117,1,80.750001540184,2|0,0:0|0:0,0:0:0:0:
34,226,44372,2,0,L|136:204,1,80.750001540184,8|0,0:0|0:0,0:0:0:0:
222,286,44685,2,0,L|204:192,1,80.750001540184,2|0,0:0|0:0,0:0:0:0:
95,43,44997,2,0,L|110:137,1,80.750001540184,8|0,0:0|0:0,0:0:0:0:
118,345,45310,6,0,P|174:311|249:343,1,121.125002310276,2|0,0:0|0:0,0:0:0:0:
263,359,45622,2,0,L|281:257,1,80.750001540184,8|0,0:0|0:0,0:0:0:0:
413,100,45935,2,0,P|357:134|282:102,1,121.125002310276,2|0,0:0|0:0,0:0:0:0:
268,86,46247,2,0,L|250:188,1,80.750001540184,8|0,0:0|0:0,0:0:0:0:
440,259,46560,6,0,L|410:88,1,161.500003080368,6|8,0:0|0:0,0:0:0:0:
347,292,47028,1,2,0:0:0:0:
234,171,47185,1,2,0:0:0:0:
174,333,47341,1,8,0:0:0:0:
174,333,47419,1,8,0:0:0:0:
174,333,47497,1,8,0:0:0:0:
350,196,47653,1,8,0:0:0:0:
350,196,47731,1,8,0:0:0:0:
350,196,47810,5,6,0:0:0:0:
234,171,47966,1,2,0:0:0:0:
398,82,48122,1,8,0:0:0:0:
167,226,48278,2,0,P|149:188|161:134,1,80.750001540184,2|0,0:0|0:0,0:0:0:0:
398,82,48591,2,0,P|418:121|410:176,1,80.750001540184,2|8,0:0|0:0,0:0:0:0:
275,326,48903,6,0,L|288:165,1,161.500003080368,2|2,0:0|0:0,0:0:0:0:
334,74,49372,1,8,0:0:0:0:
334,74,49528,1,2,0:0:0:0:
117,174,49685,2,0,P|178:161|254:152,1,121.125002310276,2|0,0:0|0:0,0:0:0:0:
287,165,49997,1,8,0:0:0:0:
185,55,50153,1,2,0:0:0:0:
72,254,50310,6,0,P|27:189|52:116,1,161.500003080368,2|8,0:0|0:0,0:0:0:0:
189,264,50778,2,0,L|202:344,1,80.750001540184,2|0,0:0|0:0,0:0:0:0:
307,329,51091,2,0,L|316:249,1,80.750001540184,2|8,0:0|0:0,0:0:0:0:
446,333,51403,6,0,L|413:164,1,161.500003080368,2|2,0:0|0:0,0:0:0:0:
458,91,51872,1,8,0:0:0:0:
323,256,52028,1,2,0:0:0:0:
323,256,52106,1,2,0:0:0:0:
323,256,52185,1,2,0:0:0:0:
217,159,52341,1,2,0:0:0:0:
376,72,52497,2,0,P|335:61|291:59,1,80.750001540184,8|0,0:0|0:0,0:0:0:0:
134,198,52810,6,0,P|195:248|291:211,1,161.500003080368,2|8,0:0|0:0,0:0:0:0:
59,73,53435,2,0,L|157:60,1,80.750001540184,2|0,0:0|0:0,0:0:0:0:
318,120,53747,2,0,L|215:135,1,80.750001540184,8|0,0:0|0:0,0:0:0:0:
65,257,54060,6,0,L|204:238,1,121.125002310276,2|0,0:0|0:0,0:0:0:0:
232,247,54372,1,8,0:0:0:0:
318,120,54528,1,2,0:0:0:0:
434,229,54685,2,0,P|428:268|415:306,1,80.750001540184,2|0,0:0|0:0,0:0:0:0:
382,349,54919,1,2,0:0:0:0:
382,349,54997,2,0,L|280:359,1,80.750001540184,8|0,0:0|0:0,0:0:0:0:
101,342,55310,6,0,L|78:243,1,80.750001540184,2|0,0:0|0:0,0:0:0:0:
189,165,55622,2,0,L|178:257,1,80.750001540184,8|0,0:0|0:0,0:0:0:0:
301,356,55935,2,0,L|284:252,1,80.750001540184,2|0,0:0|0:0,0:0:0:0:
414,138,56247,2,0,L|393:241,1,80.750001540184,8|0,0:0|0:0,0:0:0:0:
280,29,56560,5,2,0:0:0:0:
280,29,56716,1,2,0:0:0:0:
419,49,56872,1,8,0:0:0:0:
419,49,57028,1,2,0:0:0:0:
230,144,57185,1,2,0:0:0:0:
230,144,57341,1,2,0:0:0:0:
467,233,57497,1,8,0:0:0:0:
467,233,57653,1,2,0:0:0:0:
198,357,57810,6,0,P|277:349|339:343,2,123.499994346619,2|2|2,0:0|0:0|0:0,0:0:0:0:
107,335,58591,1,0,0:0:0:0:
107,335,58747,2,0,P|89:310|84:264,1,61.7499971733095,2|0,0:0|0:0,0:0:0:0:
111,187,59060,6,0,P|23:199|-7:246,2,123.499994346619,2|2|2,0:0|0:0|0:0,0:0:0:0:
198,248,59841,1,0,0:0:0:0:
198,248,59997,2,0,P|213:218|212:179,1,61.7499971733095,2|0,0:0|0:0,0:0:0:0:
155,110,60310,5,2,0:0:0:0:
317,353,60622,1,2,0:0:0:0:
452,71,60935,2,0,L|300:85,1,123.499994346619,2|2,0:0|0:0,0:0:0:0:
245,55,61560,5,2,0:0:0:0:
245,55,61872,1,2,0:0:0:0:
307,187,62028,1,2,0:0:0:0:
177,130,62185,1,2,0:0:0:0:
325,35,62341,1,2,0:0:0:0:
159,222,62497,1,2,0:0:0:0:
21,22,62653,1,2,0:0:0:0:
103,310,62810,6,0,P|178:324|254:255,1,170.999994781494,6|8,0:0|0:0,0:0:0:0:
102,149,63278,1,0,0:0:0:0:
331,342,63435,2,0,L|345:246,1,85.4999973907472,2|0,0:0|0:0,0:0:0:0:
207,25,63747,2,0,L|225:134,1,85.4999973907472,8|0,0:0|0:0,0:0:0:0:
494,177,64060,6,0,L|329:156,1,128.249996086121,6|0,0:0|0:0,0:0:0:0:
323,186,64372,1,8,0:0:0:0:
143,350,64528,2,0,P|133:274|113:165,1,170.999994781494,2|2,0:0|0:0,0:0:0:0:
338,58,64997,2,0,P|328:124|322:210,1,128.249996086121,8|0,0:0|0:0,0:0:0:0:
346,233,65310,5,2,0:0:0:0:
190,134,65466,1,2,0:0:0:0:
436,63,65622,1,2,0:0:0:0:
245,263,65778,1,2,0:0:0:0:
88,68,65935,5,2,0:0:0:0:
310,29,66091,1,2,0:0:0:0:
123,269,66247,1,2,0:0:0:0:
0,9,66403,1,2,0:0:0:0:
223,134,66560,5,2,0:0:0:0:
223,134,67653,6,0,L|432:115,1,190,6|0,0:0|0:0,0:0:0:0:
340,339,68122,2,0,P|311:298|318:237,1,95,8|0,0:0|0:0,0:0:0:0:
336,213,68356,1,2,0:0:0:0:
340,217,68435,1,2,0:0:0:0:
231,353,68591,1,2,0:0:0:0:
436,384,68747,2,0,L|455:277,1,95,8|0,0:0|0:0,0:0:0:0:
280,97,69060,6,0,P|362:107|420:31,1,142.5,2|0,0:0|0:0,0:0:0:0:
423,28,69372,1,8,0:0:0:0:
305,224,69528,1,2,0:0:0:0:
305,224,69606,1,2,0:0:0:0:
305,224,69685,1,2,0:0:0:0:
174,86,69841,1,2,0:0:0:0:
361,136,69997,1,8,0:0:0:0:
176,326,70153,6,0,P|267:264|352:305,1,190,2|0,0:0|0:0,0:0:0:0:
272,367,70622,1,8,0:0:0:0:
58,260,70778,2,0,L|72:376,1,95,2|0,0:0|0:0,0:0:0:0:
230,152,71091,2,0,L|223:56,1,95,2|8,0:0|0:0,0:0:0:0:
406,318,71403,1,2,0:0:0:0:
406,318,71481,1,2,0:0:0:0:
406,318,71560,6,0,L|238:291,1,142.5,2|0,0:0|0:0,0:0:0:0:
226,271,71872,1,8,0:0:0:0:
430,124,72028,1,2,0:0:0:0:
430,124,72106,1,2,0:0:0:0:
430,124,72185,1,2,0:0:0:0:
333,218,72341,1,2,0:0:0:0:
194,65,72497,1,8,0:0:0:0:
38,301,72653,6,0,L|252:266,1,190,6|0,0:0|0:0,0:0:0:0:
333,218,73122,2,0,P|352:266|330:322,1,95,8|0,0:0|0:0,0:0:0:0:
158,40,73435,6,0,P|230:51|328:57,1,142.5,2|0,0:0|0:0,0:0:0:0:
346,37,73747,1,8,0:0:0:0:
123,224,73903,2,0,P|97:177|102:115,1,95,2|0,0:0|0:0,0:0:0:0:
299,56,74216,1,2,0:0:0:0:
233,301,74372,1,8,0:0:0:0:
448,202,74528,1,2,0:0:0:0:
448,202,74606,1,2,0:0:0:0:
448,202,74685,1,2,0:0:0:0:
353,136,74841,5,2,0:0:0:0:
449,342,74997,1,8,0:0:0:0:
409,55,75153,2,0,P|320:44|254:140,1,190,6|0,0:0|0:0,0:0:0:0:
344,229,75622,1,8,0:0:0:0:
125,172,75778,1,2,0:0:0:0:
257,112,75935,1,2,0:0:0:0:
114,358,76091,2,0,L|94:240,1,95,2|8,0:0|0:0,0:0:0:0:
60,72,76403,1,2,0:0:0:0:
340,144,76560,6,0,L|170:178,1,142.5,6|0,0:0|0:0,0:0:0:0:
165,153,76872,1,8,0:0:0:0:
318,329,77028,1,2,0:0:0:0:
481,141,77185,1,8,0:0:0:0:
439,113,77263,1,8,0:0:0:0:
384,113,77341,1,8,0:0:0:0:
340,144,77419,1,8,0:0:0:0:
324,200,77497,1,8,0:0:0:0:
342,255,77575,1,8,0:0:0:0:
384,290,77653,6,0,L|328:95,1,190,6|0,0:0|0:0,0:0:0:0:
162,308,78122,2,0,P|215:302|270:267,1,95,8|0,0:0|0:0,0:0:0:0:
440,107,78435,1,2,0:0:0:0:
249,30,78591,1,2,0:0:0:0:
384,290,78747,2,0,L|402:180,1,95,8|0,0:0|0:0,0:0:0:0:
82,185,79060,6,0,P|159:129|237:151,1,142.5,2|0,0:0|0:0,0:0:0:0:
235,163,79372,1,8,0:0:0:0:
91,338,79528,1,2,0:0:0:0:
91,338,79606,1,2,0:0:0:0:
91,338,79685,1,2,0:0:0:0:
18,103,79841,1,2,0:0:0:0:
169,226,79997,1,8,0:0:0:0:
401,22,80153,6,0,L|196:52,1,190,2|2,0:0|0:0,0:0:0:0:
177,87,80544,1,2,0:0:0:0:
177,87,80622,1,8,0:0:0:0:
397,230,80778,1,8,0:0:0:0:
397,230,80857,1,8,0:0:0:0:
397,230,80935,1,8,0:0:0:0:
169,226,81091,2,8,L|153:329,1,95,2|8,0:0|0:0,0:0:0:0:
467,163,81403,6,0,P|376:136|296:210,1,190,6|0,0:0|0:0,0:0:0:0:
481,258,81872,1,8,0:0:0:0:
200,124,82028,2,0,L|182:237,1,95,6|0,0:0|0:0,0:0:0:0:
289,55,82341,1,8,0:0:0:0:
289,55,82419,1,8,0:0:0:0:
289,55,82497,1,8,0:0:0:0:
120,348,82653,6,0,L|335:315,1,190,6|0,0:0|0:0,0:0:0:0:
403,260,83122,1,8,0:0:0:0:
254,137,83278,1,2,0:0:0:0:
407,0,83435,2,0,P|483:49|473:142,1,190,2|8,0:0|0:0,0:0:0:0:
112,327,83903,6,0,P|119:236|134:130,1,190,2|0,0:0|0:0,0:0:0:0:
73,24,84372,1,8,0:0:0:0:
228,232,84528,1,2,0:0:0:0:
262,47,84685,1,2,0:0:0:0:
51,198,84841,1,8,0:0:0:0:
51,198,84919,1,8,0:0:0:0:
51,198,84997,1,8,0:0:0:0:
327,379,85153,6,0,P|331:326|349:265,1,95,6|0,0:0|0:0,0:0:0:0:
435,69,85466,2,0,P|392:85|323:89,1,95,2|8,0:0|0:0,0:0:0:0:
109,26,85778,2,0,P|124:79|124:143,1,95,2|0,0:0|0:0,0:0:0:0:
130,344,86091,1,2,0:0:0:0:
203,190,86247,1,8,0:0:0:0:
431,351,86403,6,0,P|342:341|216:317,1,190,6|0,0:0|0:0,0:0:0:0:
407,76,86872,1,12,0:0:0:0:
261,219,87028,1,2,0:0:0:0:
65,102,87185,5,8,0:0:0:0:
99,62,87263,1,8,0:0:0:0:
149,47,87341,1,8,0:0:0:0:
199,60,87419,1,8,0:0:0:0:
234,97,87497,1,8,0:0:0:0:
275,128,87575,1,8,0:0:0:0:
324,144,87653,1,8,0:0:0:0:
375,135,87731,1,8,0:0:0:0:
417,103,87810,5,12,0:0:0:0:
204,346,87966,1,8,0:0:0:0:
110,72,88278,5,8,0:0:0:0:
313,349,88435,1,8,0:0:0:0:
352,31,88747,5,8,0:0:0:0:
204,346,88903,1,8,0:0:0:0:
171,24,89216,5,12,0:0:0:0:
481,156,89528,5,2,0:0:0:0:
481,156,89606,1,2,0:0:0:0:
481,156,89685,1,2,0:0:0:0:
374,90,89841,1,2,0:0:0:0:
353,111,89919,1,2,0:0:0:0:
344,140,89997,1,2,0:0:0:0:
344,170,90075,1,2,0:0:0:0:
363,199,90153,1,2,0:0:0:0:
375,241,90231,1,2,0:0:0:0:
361,276,90310,5,12,0:0:0:0:
240,112,90466,1,2,0:0:0:0:
193,353,90622,1,2,0:0:0:0:
313,179,90778,1,2,0:0:0:0:
100,287,90935,1,2,0:0:0:0:
402,324,91091,1,2,0:0:0:0:
195,213,91247,1,2,0:0:0:0:
468,124,91403,1,2,0:0:0:0:
286,352,91560,5,8,0:0:0:0:
186,56,91716,1,8,0:0:0:0:
88,378,91872,1,8,0:0:0:0:
96,326,92653,6,0,L|70:121,1,190,6|0,0:0|0:0,0:0:0:0:
193,211,93122,1,8,0:0:0:0:
0,336,93278,1,2,0:0:0:0:
0,336,93356,1,2,0:0:0:0:
0,336,93435,1,2,0:0:0:0:
72,137,93591,1,2,0:0:0:0:
193,363,93747,2,0,L|175:263,1,95,8|0,0:0|0:0,0:0:0:0:
201,221,93981,1,2,0:0:0:0:
201,221,94060,5,2,0:0:0:0:
27,142,94216,1,2,0:0:0:0:
275,293,94372,2,0,P|297:252|297:192,1,95,8|0,0:0|0:0,0:0:0:0:
193,363,94685,2,0,L|398:332,1,190,2|8,0:0|0:0,0:0:0:0:
247,67,95153,6,0,P|181:121|215:235,1,190,6|0,0:0|0:0,0:0:0:0:
335,101,95622,1,8,0:0:0:0:
125,45,95778,1,2,0:0:0:0:
125,45,95856,1,2,0:0:0:0:
125,45,95935,1,2,0:0:0:0:
290,15,96091,1,2,0:0:0:0:
183,276,96247,2,0,L|164:162,1,95,8|0,0:0|0:0,0:0:0:0:
196,140,96481,1,2,0:0:0:0:
196,140,96560,5,2,0:0:0:0:
326,260,96716,1,2,0:0:0:0:
95,113,96872,2,0,P|70:158|82:226,1,95,8|0,0:0|0:0,0:0:0:0:
296,61,97185,1,8,0:0:0:0:
292,113,97263,1,8,0:0:0:0:
289,165,97341,1,8,0:0:0:0:
287,217,97419,1,8,0:0:0:0:
284,269,97497,1,8,0:0:0:0:
237,3,97653,6,0,P|322:-13|379:65,1,190,6|0,0:0|0:0,0:0:0:0:
152,175,98122,2,0,P|105:170|57:160,1,95,8|0,0:0|0:0,0:0:0:0:
342,232,98435,1,2,0:0:0:0:
176,276,98591,1,2,0:0:0:0:
296,61,98747,2,0,L|280:173,1,95,8|0,0:0|0:0,0:0:0:0:
173,17,99060,5,6,0:0:0:0:
385,124,99216,1,2,0:0:0:0:
111,227,99372,1,8,0:0:0:0:
414,348,99528,2,0,L|397:226,1,95,8|0,0:0|0:0,0:0:0:0:
111,227,99841,2,0,L|125:119,1,95,8|0,0:0|0:0,0:0:0:0:
431,19,100153,6,0,P|340:32|207:45,1,190,6|0,0:0|0:0,0:0:0:0:
30,152,100622,2,0,P|87:137|134:131,1,95,8|0,0:0|0:0,0:0:0:0:
174,150,100856,1,2,0:0:0:0:
174,150,100935,1,2,0:0:0:0:
31,42,101091,1,2,0:0:0:0:
186,237,101247,2,0,P|226:225|236:102,1,142.5,12|0,0:0|0:0,0:0:0:0:
232,97,101560,5,6,0:0:0:0:
86,253,101716,1,2,0:0:0:0:
131,28,101872,1,12,0:0:0:0:
177,312,102028,1,0,0:0:0:0:
238,76,102185,5,8,0:0:0:0:
278,115,102263,1,8,0:0:0:0:
293,169,102341,1,8,0:0:0:0:
278,225,102419,1,8,0:0:0:0:
242,269,102497,1,8,0:0:0:0:
189,292,102575,1,8,0:0:0:0:
132,284,102653,1,8,0:0:0:0:
83,254,102731,1,8,0:0:0:0:
59,202,102810,6,0,L|44:307,1,95,6|0,0:0|0:0,0:0:0:0:
252,165,103122,1,8,0:0:0:0:
105,44,103278,2,0,P|157:37|209:30,1,95,2|0,0:0|0:0,0:0:0:0:
384,163,103591,2,0,L|278:177,1,95,2|8,0:0|0:0,0:0:0:0:
170,373,103903,6,0,P|229:329|323:352,1,142.5,2|0,0:0|0:0,0:0:0:0:
337,361,104216,1,2,0:0:0:0:
205,218,104372,1,8,0:0:0:0:
31,381,104528,2,0,L|60:169,1,190,2|2,0:0|0:0,0:0:0:0:
141,294,104997,1,8,0:0:0:0:
33,60,105153,1,2,0:0:0:0:
259,268,105310,6,0,P|351:199|345:121,1,190,6|8,0:0|0:0,0:0:0:0:
253,167,105778,1,2,0:0:0:0:
439,90,105935,2,0,P|366:13|252:37,1,190,6|8,0:0|0:0,0:0:0:0:
336,109,106403,1,2,0:0:0:0:
146,10,106560,6,0,L|112:183,1,142.5,6|0,0:0|0:0,0:0:0:0:
84,179,106872,1,8,0:0:0:0:
260,74,107028,1,2,0:0:0:0:
325,301,107185,1,8,0:0:0:0:
484,144,107341,1,8,0:0:0:0:
433,122,107419,1,8,0:0:0:0:
376,127,107497,1,8,0:0:0:0:
333,158,107575,1,8,0:0:0:0:
281,181,107653,1,8,0:0:0:0:
226,180,107731,1,8,0:0:0:0:
177,153,107810,5,6,0:0:0:0:
342,58,107966,1,2,0:0:0:0:
195,269,108122,1,2,0:0:0:0:
231,67,108278,1,2,0:0:0:0:
374,249,108435,5,2,0:0:0:0:
174,157,108591,1,2,0:0:0:0:
410,99,108747,1,2,0:0:0:0:
260,276,108903,1,2,0:0:0:0:
149,18,109060,5,8,0:0:0:0:
97,267,109216,1,8,0:0:0:0:
28,88,109372,1,8,0:0:0:0:
191,320,109528,1,8,0:0:0:0:
341,19,109685,5,8,0:0:0:0:
340,52,109763,1,8,0:0:0:0:
340,84,109841,1,8,0:0:0:0:
339,120,109919,1,8,0:0:0:0:
338,155,109997,1,8,0:0:0:0:
332,374,110153,5,12,0:0:0:0:
256,192,110231,12,2,115153,0:0:0:0:
