osu file format v14

[General]
AudioFilename: audio.mp3
AudioLeadIn: 0
PreviewTime: 66325
Countdown: 0
SampleSet: Soft
StackLeniency: 0.7
Mode: 0
LetterboxInBreaks: 0
WidescreenStoryboard: 1

[Editor]
DistanceSpacing: 6
BeatDivisor: 4
GridSize: 4
TimelineZoom: 2.1

[Metadata]
Title:Kataomoi no Melody o short ver.
TitleUnicode:片想いのメロディを short ver.
Artist:Yamazaki Moe
ArtistUnicode:山崎もえ
Creator:Asuka_-
Version:Eir's Insane
Source:学校のセイイキ
Tags:feng 9th seiiki eroge visual novel Eir joker- Lasse Yamicchi Yasaija 714
BeatmapID:1652159
BeatmapSetID:750166

[Difficulty]
HPDrainRate:5.5
CircleSize:3.8
OverallDifficulty:7
ApproachRate:9
SliderMultiplier:1.6
SliderTickRate:1

[Events]
//Background and Video events
0,0,"bg.jpg",0,0
//Break Periods
//Storyboard Layer 0 (Background)
//Storyboard Layer 1 (Fail)
//Storyboard Layer 2 (Pass)
//Storyboard Layer 3 (Foreground)
//Storyboard Sound Samples

[TimingPoints]
310,312.5,4,2,0,25,1,0
310,-142.857142857143,4,2,0,25,0,0
4841,-125,4,2,0,25,0,0
5310,-111.111111111111,4,2,1,40,0,0
7810,-100,4,2,1,60,0,0
10153,-100,4,2,1,72,0,0
19372,-83.3333333333333,4,2,1,72,0,0
20310,-100,4,2,1,72,0,0
20410,-100,4,2,1,72,0,0
25310,-90.9090909090909,4,2,1,72,0,0
27810,-111.111111111111,4,2,1,45,0,0
34685,-111.111111111111,4,2,1,55,0,0
35310,-100,4,2,1,60,0,0
37810,-100,4,2,1,67,0,0
57810,-111.111111111111,4,2,1,40,0,0
62810,-100,4,2,1,60,0,0
67653,-90.9090909090909,4,2,1,82,0,1
92653,-100,4,2,1,72,0,0
101872,-83.3333333333333,4,2,1,72,0,0
102731,-100,4,2,1,72,0,0
107810,-90.9090909090909,4,2,1,72,0,0
115153,-100,4,2,0,30,0,0

[Colours]
Combo1 : 255,255,140
Combo2 : 128,255,255
Combo3 : 197,197,197

[HitObjects]
237,49,310,6,0,P|203:90|212:163,1,111.999996582031,2|0,0:0|0:0,0:0:0:0:
351,198,935,2,0,P|332:148|264:119,1,111.999996582031,2|0,0:0|0:0,0:0:0:0:
166,221,1560,2,0,P|218:229|277:185,1,111.999996582031,2|0,0:0|0:0,0:0:0:0:
237,49,2185,2,0,L|172:60,1,55.9999982910157,2|0,0:0|0:0,0:0:0:0:
92,19,2497,1,0,0:0:0:0:
92,19,2653,1,0,0:0:0:0:
27,122,2810,6,0,P|36:182|44:253,1,111.999996582031,2|0,0:0|0:0,0:0:0:0:
150,331,3435,2,0,P|156:275|165:220,1,111.999996582031,2|0,0:0|0:0,0:0:0:0:
273,118,4060,2,0,P|281:173|288:228,1,111.999996582031,2|0,0:0|0:0,0:0:0:0:
372,346,4685,1,2,0:0:0:0:
372,346,4841,2,0,P|319:304|244:330,1,128,2|2,0:0|0:0,0:0:0:0:
228,353,5231,1,2,0:0:0:0:
228,353,5310,6,0,P|175:341|140:339,1,71.9999978027344,2|0,0:0|0:0,0:0:0:0:
96,255,5622,2,0,P|84:202|82:167,1,71.9999978027344,2|0,0:0|0:0,0:0:0:0:
151,101,5935,2,0,P|204:113|239:115,1,71.9999978027344,2|0,0:0|0:0,0:0:0:0:
318,69,6247,2,0,P|330:122|332:157,1,71.9999978027344,2|0,0:0|0:0,0:0:0:0:
265,205,6560,6,0,P|338:188|419:182,2,143.999995605469,2|2|2,0:0|0:0|0:0,0:0:0:0:
150,359,7497,2,0,P|138:313|133:285,1,71.9999978027344,2|8,0:0|0:0,0:0:0:0:
156,260,7731,1,8,0:0:0:0:
156,260,7810,6,0,P|212:308|314:271,1,160,2|2,0:0|0:0,0:0:0:0:
383,144,8278,2,0,P|396:224|405:302,1,160,8|2,0:0|0:0,0:0:0:0:
234,225,8747,2,0,P|219:178|225:141,1,80,8|2,0:0|0:0,0:0:0:0:
314,25,9060,5,2,0:0:0:0:
174,57,9216,1,2,0:0:0:0:
174,57,9294,1,2,0:0:0:0:
174,57,9372,2,0,L|122:45,3,40,2|2|2|2,0:0|0:0|0:0|0:0,0:0:0:0:
85,56,9685,1,8,0:0:0:0:
130,212,9841,1,8,0:0:0:0:
130,212,10153,6,0,P|222:202|289:196,1,160,6|0,0:0|0:0,0:0:0:0:
367,124,10622,2,0,P|328:216|363:276,1,160,8|2,0:0|0:0,0:0:0:0:
258,110,11091,1,2,0:0:0:0:
220,296,11247,1,8,0:0:0:0:
51,216,11403,1,2,0:0:0:0:
51,216,11481,1,2,0:0:0:0:
51,216,11560,6,0,B|95:193|128:211|128:211|178:235|230:193,1,160,2|8,0:0|0:0,0:0:0:0:
274,129,12028,1,2,0:0:0:0:
274,129,12106,1,2,0:0:0:0:
274,129,12185,2,0,P|312:124|351:110,1,80,2|2,0:0|0:0,0:0:0:0:
448,56,12497,1,8,0:0:0:0:
512,211,12653,6,0,P|438:192|368:251,1,160,6|2,0:0|0:0,0:0:0:0:
334,376,13122,2,0,P|293:347|269:305,1,80,8|2,0:0|0:0,0:0:0:0:
229,200,13435,1,2,0:0:0:0:
229,200,13591,1,2,0:0:0:0:
135,281,13747,2,0,P|110:236|107:188,1,80,8|0,0:0|0:0,0:0:0:0:
125,160,13981,1,2,0:0:0:0:
125,160,14060,6,0,P|164:111|138:15,1,160,2|8,0:0|0:0,0:0:0:0:
30,97,14528,1,2,0:0:0:0:
30,97,14606,1,2,0:0:0:0:
30,97,14685,2,0,P|5:141|2:189,1,80,2|2,0:0|0:0,0:0:0:0:
35,291,14997,1,8,0:0:0:0:
186,227,15153,6,0,P|269:218|353:214,1,160,6|2,0:0|0:0,0:0:0:0:
469,131,15622,1,8,0:0:0:0:
447,257,15778,1,2,0:0:0:0:
447,257,15856,1,2,0:0:0:0:
447,257,15935,2,0,P|436:304|425:366,1,80,2|2,0:0|0:0,0:0:0:0:
257,275,16247,1,8,0:0:0:0:
313,380,16403,1,0,0:0:0:0:
345,214,16560,6,0,P|267:226|206:155,1,160,2|8,0:0|0:0,0:0:0:0:
288,67,17028,1,2,0:0:0:0:
288,67,17106,1,2,0:0:0:0:
288,67,17185,1,2,0:0:0:0:
137,113,17341,2,0,P|121:167|113:209,1,80,2|8,0:0|0:0,0:0:0:0:
193,303,17653,6,0,P|250:250|326:263,1,160,6|2,0:0|0:0,0:0:0:0:
410,384,18122,1,8,0:0:0:0:
284,351,18278,1,2,0:0:0:0:
284,351,18356,1,2,0:0:0:0:
284,351,18435,2,0,P|238:342|184:333,1,80,2|2,0:0|0:0,0:0:0:0:
81,268,18747,1,8,0:0:0:0:
200,231,18903,1,2,0:0:0:0:
200,231,18981,1,2,0:0:0:0:
200,231,19060,6,0,L|187:98,1,120,2|0,0:0|0:0,0:0:0:0:
263,77,19372,6,0,P|174:84|128:26,1,143.999995605469,12|0,0:0|0:0,0:0:0:0:
55,14,19685,5,8,0:0:0:0:
57,34,19763,1,8,0:0:0:0:
59,54,19841,1,8,0:0:0:0:
61,74,19919,1,8,0:0:0:0:
66,94,19997,2,0,L|57:159,3,47.9999985351563,8|8|8|8,0:0|0:0|0:0|0:0,0:3:0:0:
3,204,20310,6,0,P|90:194|195:191,1,160,6|8,0:0|0:0,0:0:0:0:
279,76,20778,2,0,P|263:126|256:165,1,80,2|0,0:0|0:0,0:0:0:0:
406,235,21091,2,0,P|397:195|384:158,1,80,2|8,0:0|0:0,0:0:0:0:
287,285,21403,2,0,P|224:273|158:354,1,160,2|2,0:0|0:0,0:0:0:0:
81,203,21872,1,8,0:0:0:0:
54,310,22028,1,2,0:0:0:0:
188,236,22185,2,0,P|197:183|205:142,1,80,0|2,0:0|0:0,0:0:0:0:
102,37,22497,2,0,P|109:76|115:115,1,80,8|2,0:0|0:0,0:0:0:0:
279,80,22810,6,0,B|323:57|356:75|356:75|406:99|458:57,1,160,2|8,0:0|0:0,0:0:0:0:
393,3,23278,1,2,0:0:0:0:
322,152,23435,2,0,P|305:199|301:251,1,80,2|0,0:0|0:0,0:0:0:0:
432,73,23747,2,0,P|438:122|458:170,1,80,8|2,0:0|0:0,0:0:0:0:
503,313,24060,6,0,P|449:268|347:313,1,160,2|8,0:0|0:0,0:0:0:0:
289,379,24528,1,2,0:0:0:0:
219,233,24685,2,0,P|227:180|238:103,1,120,6|8,0:0|0:0,0:0:0:0:
185,47,24997,1,8,0:0:0:0:
165,49,25075,1,8,0:0:0:0:
146,51,25153,1,8,0:0:0:0:
127,53,25231,1,8,0:0:0:0:
109,54,25310,6,0,P|100:100|89:158,1,88.000002685547,14|0,0:0|0:0,0:0:0:0:
216,273,25622,2,0,P|207:229|199:186,1,88.000002685547,12|0,0:0|0:0,0:0:0:0:
321,55,25935,2,0,P|312:101|301:159,1,88.000002685547,12|0,0:0|0:0,0:0:0:0:
428,274,26247,2,0,P|419:230|411:187,1,88.000002685547,12|0,0:0|0:0,0:0:0:0:
278,341,26560,6,0,P|185:359|125:296,1,176.000005371094,12|8,0:0|0:0,0:0:0:0:
114,168,27028,1,8,0:0:0:0:
216,273,27185,1,8,0:0:0:0:
58,244,27341,1,8,0:0:0:0:
225,169,27497,1,8,0:0:0:0:
57,94,27653,1,8,0:0:0:0:
232,57,27810,6,0,P|202:140|328:105,2,287.999991210938,6|2|2,3:0|0:3|0:3,0:0:0:0:
247,49,29372,1,2,0:3:0:0:
265,45,29685,2,0,P|325:84|416:64,1,143.999995605469,2|2,0:3|0:3,0:0:0:0:
478,40,30153,1,2,0:0:0:0:
448,160,30310,6,0,P|436:226|423:313,1,143.999995605469,2|2,0:3|0:3,0:0:0:0:
295,212,30935,2,0,P|225:199|165:235,1,143.999995605469,2|2,0:3|0:3,0:0:0:0:
10,322,31560,2,0,B|56:291|112:316|112:316|173:345|215:315,1,215.999993408203,2|0,0:3|0:0,0:0:0:0:
319,262,32185,2,0,P|312:300|306:345,1,71.9999978027344,2|0,0:3|0:0,0:0:0:0:
230,209,32497,1,2,0:0:0:0:
230,209,32810,6,0,P|260:126|134:161,2,287.999991210938,2|2|2,0:0|0:0|0:0,0:0:0:0:
217,221,34372,1,2,0:3:0:0:
206,232,34685,6,0,L|328:225,1,107.999996704102,2|0,0:0|0:0,0:0:0:0:
367,222,34997,1,8,0:0:0:0:
422,74,35310,6,0,P|374:97|282:27,1,160,8|2,0:0|0:0,0:0:0:0:
176,154,35778,2,0,P|258:142|353:132,1,160,8|2,0:0|0:0,0:0:0:0:
485,239,36247,2,0,P|437:216|345:286,1,160,8|2,0:0|0:0,0:0:0:0:
233,384,36716,2,0,P|240:318|255:211,1,160,8|2,0:0|0:0,0:0:0:0:
208,84,37185,1,8,0:0:0:0:
188,85,37263,1,8,0:0:0:0:
169,87,37341,1,8,0:0:0:0:
150,89,37419,1,8,0:0:0:0:
132,90,37497,2,0,L|119:141,3,40,8|8|8|8,0:0|0:0|0:0|0:0,0:0:0:0:
58,183,37810,6,0,P|131:159|202:224,1,160,6|8,0:0|0:0,0:0:0:0:
274,300,38278,1,0,0:0:0:0:
346,177,38435,2,0,P|393:196|430:205,1,80,2|0,0:0|0:0,0:0:0:0:
466,33,38747,1,8,0:0:0:0:
508,140,38903,1,2,0:0:0:0:
350,68,39060,6,0,B|306:45|273:63|273:63|223:87|171:45,1,160,2|8,0:0|0:0,0:0:0:0:
130,192,39528,1,2,0:0:0:0:
130,192,39606,1,2,0:0:0:0:
130,192,39685,2,0,P|175:183|219:175,1,80,2|2,0:0|0:0,0:0:0:0:
350,68,39997,2,0,P|342:107|334:146,1,80,8|0,0:0|0:0,0:0:0:0:
419,279,40310,6,0,P|371:236|265:262,1,160,2|8,0:0|0:0,0:0:0:0:
201,346,40778,1,0,0:0:0:0:
134,205,40935,2,0,P|123:252|113:304,1,80,2|0,0:0|0:0,0:0:0:0:
286,251,41247,1,8,0:0:0:0:
286,251,41403,1,0,0:0:0:0:
300,80,41560,6,0,P|223:124|153:97,1,160,2|8,0:0|0:0,0:0:0:0:
56,17,42028,1,2,0:0:0:0:
6,170,42185,2,0,P|50:160|89:157,1,80,2|0,0:0|0:0,0:0:0:0:
179,287,42497,1,8,0:0:0:0:
189,296,42810,6,0,B|227:277|262:292|262:292|303:313|342:291,1,160,2|8,0:0|0:0,0:0:0:0:
388,154,43278,1,2,0:0:0:0:
388,154,43356,1,2,0:0:0:0:
388,154,43435,2,0,P|330:198|225:159,1,160,2|8,0:0|0:0,0:0:0:0:
111,130,43903,1,2,0:0:0:0:
227,21,44060,6,0,P|219:72|213:114,1,80,2|0,0:0|0:0,0:0:0:0:
345,228,44372,1,8,0:0:0:0:
353,237,44685,2,0,P|314:227|259:230,1,80,2|0,0:0|0:0,0:0:0:0:
195,338,44997,2,0,P|156:348|101:345,1,80,8|0,0:0|0:0,0:0:0:0:
31,188,45310,6,0,P|76:228|182:204,1,160,2|8,0:0|0:0,0:0:0:0:
229,109,45778,1,2,0:0:0:0:
229,109,45856,1,2,0:0:0:0:
229,109,45935,2,0,L|132:123,1,80,2|0,0:0|0:0,0:0:0:0:
323,14,46247,2,0,P|311:61|343:130,1,120,8|0,0:0|0:0,0:0:0:0:
411,186,46560,6,0,L|397:296,1,80,6|0,0:0|0:0,0:0:0:0:
271,208,46872,1,8,0:0:0:0:
271,208,47028,1,2,0:0:0:0:
379,347,47185,2,0,P|418:347|454:329,1,80,2|8,0:0|0:0,0:0:0:0:
495,312,47419,1,8,0:0:0:0:
495,312,47497,1,8,0:0:0:0:
419,193,47653,1,8,0:0:0:0:
419,193,47731,1,8,0:0:0:0:
419,193,47810,6,0,P|379:192|343:210,1,80,6|2,0:0|0:0,0:0:0:0:
247,294,48122,1,8,0:0:0:0:
166,180,48278,1,2,0:0:0:0:
166,180,48356,1,2,0:0:0:0:
166,180,48435,2,0,P|183:135|189:82,1,80,0|2,0:0|0:0,0:0:0:0:
20,108,48747,1,8,0:0:0:0:
82,224,48903,6,0,B|126:201|159:219|159:219|209:243|261:201,1,160,2|2,0:0|0:0,0:0:0:0:
353,270,49372,1,8,0:0:0:0:
256,140,49528,1,2,0:0:0:0:
256,140,49606,1,2,0:0:0:0:
256,140,49685,2,0,P|240:189|233:235,1,80,2|0,0:0|0:0,0:0:0:0:
126,317,49997,2,0,P|110:268|103:222,1,80,8|2,0:0|0:0,0:0:0:0:
1,144,50310,6,0,P|49:98|154:118,1,160,2|8,0:0|0:0,0:0:0:0:
234,216,50778,2,0,P|326:205|395:199,1,160,2|2,0:0|0:0,0:0:0:0:
465,83,51247,1,8,0:0:0:0:
504,205,51403,2,0,P|490:264|484:306,1,80,2|0,0:0|0:0,0:0:0:0:
355,358,51716,5,2,0:0:0:0:
393,199,51872,1,8,0:0:0:0:
272,285,52028,1,2,0:0:0:0:
272,285,52106,1,2,0:0:0:0:
272,285,52185,1,2,0:0:0:0:
197,138,52341,1,2,0:0:0:0:
25,235,52497,2,0,P|70:204|141:214,1,120,8|0,0:0|0:0,0:0:0:0:
168,226,52810,6,0,P|158:156|148:61,1,160,2|8,0:0|0:0,0:0:0:0:
241,4,53278,1,0,0:0:0:0:
364,75,53435,2,0,P|353:121|345:167,1,80,2|0,0:0|0:0,0:0:0:0:
486,128,53747,2,0,P|497:174|505:220,1,80,8|0,0:0|0:0,0:0:0:0:
400,317,54060,6,0,P|344:269|250:289,1,160,2|8,0:0|0:0,0:0:0:0:
165,363,54528,1,2,0:0:0:0:
92,252,54685,2,0,P|109:143|119:90,1,160,2|8,0:0|0:0,0:0:0:0:
210,16,55153,1,0,0:0:0:0:
348,141,55310,6,0,P|300:157|205:106,1,160,2|8,0:0|0:0,0:0:0:0:
61,308,55935,2,0,P|124:263|201:277,1,160,2|8,0:0|0:0,0:0:0:0:
286,369,56403,1,0,0:0:0:0:
393,256,56560,2,0,P|349:266|296:270,1,80,2|2,0:0|0:0,0:0:0:0:
193,188,56872,2,0,P|197:148|206:109,1,80,8|2,0:0|0:0,0:0:0:0:
319,25,57185,1,2,0:0:0:0:
319,25,57263,1,2,0:0:0:0:
319,25,57341,1,2,0:0:0:0:
410,116,57497,2,0,P|416:178|423:242,1,120,8|0,0:0|0:0,0:0:0:0:
426,277,57810,6,0,P|362:315|287:287,2,143.999995605469,2|2|2,0:0|0:0|0:0,0:0:0:0:
219,369,58747,1,2,0:0:0:0:
219,369,58903,2,0,P|143:355|73:346,1,143.999995605469
44,248,59372,1,2,0:0:0:0:
90,139,59528,2,0,P|144:175|222:163,1,143.999995605469
239,37,59997,2,0,L|222:157,1,107.999996704102,2|0,0:0|0:0,0:0:0:0:
219,164,60310,6,0,P|278:128|365:165,1,143.999995605469,2|2,0:0|0:0,0:0:0:0:
427,222,60778,1,0,0:0:0:0:
355,310,60935,2,0,P|318:275|296:240,1,71.9999978027344,2|0,0:0|0:0,0:0:0:0:
210,327,61247,2,0,P|192:279|187:238,1,71.9999978027344,2|0,0:0|0:0,0:0:0:0:
272,127,61560,6,0,P|204:85|138:107,1,143.999995605469,2|2,0:0|0:0,0:0:0:0:
48,186,62028,1,2,0:0:0:0:
196,171,62185,1,2,0:0:0:0:
31,164,62341,1,2,0:0:0:0:
213,192,62497,1,2,0:0:0:0:
15,144,62653,1,2,0:0:0:0:
225,211,62810,6,0,P|295:174|377:201,1,160,6|8,0:0|0:0,0:0:0:0:
276,340,63278,2,0,P|193:330|107:321,1,160,2|2,0:0|0:0,0:0:0:0:
20,154,63747,2,0,P|64:174|116:160,1,80,8|0,0:0|0:0,0:0:0:0:
241,35,64060,6,0,P|229:107|217:203,1,160,6|8,0:0|0:0,0:0:0:0:
349,113,64528,2,0,P|399:92|497:154,1,160,2|2,0:0|0:0,0:0:0:0:
420,263,64997,2,0,P|377:254|331:247,1,80,8|0,0:0|0:0,0:0:0:0:
304,269,65231,1,2,0:0:0:0:
304,269,65310,5,2,0:0:0:0:
190,192,65466,1,2,0:0:0:0:
318,164,65622,1,2,0:0:0:0:
193,287,65778,1,2,0:0:0:0:
115,125,65935,2,0,P|123:79|139:32,1,80,2|2,0:0|0:0,0:0:0:0:
276,0,66247,1,2,0:0:0:0:
318,164,66403,1,2,0:0:0:0:
318,164,67653,6,0,P|246:102|155:139,1,176.000005371094,6|0,0:0|0:0,0:0:0:0:
211,283,68122,2,0,P|218:237|232:186,1,88.000002685547,8|0,0:0|0:0,0:0:0:0:
74,129,68435,2,0,P|84:171|91:215,1,88.000002685547,2|2,0:0|0:0,0:0:0:0:
120,362,68747,2,0,P|163:321|264:340,1,132.00000402832,8|0,0:0|0:0,0:0:0:0:
299,381,69060,6,0,P|349:368|407:366,1,88.000002685547,2|0,0:0|0:0,0:0:0:0:
460,234,69372,1,8,0:0:0:0:
336,276,69528,1,2,0:0:0:0:
336,276,69606,1,2,0:0:0:0:
336,276,69685,1,2,0:0:0:0:
382,125,69841,2,0,P|331:140|281:145,1,88.000002685547,2|8,0:0|0:0,0:0:0:0:
87,41,70153,6,0,P|169:7|249:88,1,176.000005371094,2|0,0:0|0:0,0:0:0:0:
82,147,70622,1,8,0:0:0:0:
196,206,70778,2,0,P|178:269|173:314,1,88.000002685547,2|0,0:0|0:0,0:0:0:0:
80,137,71091,1,2,0:0:0:0:
239,61,71247,2,0,P|297:75|352:75,1,88.000002685547,8|2,0:0|0:0,0:0:0:0:
496,14,71560,6,0,P|451:51|464:173,1,176.000005371094,2|8,0:0|0:0,0:0:0:0:
491,286,72028,1,2,0:0:0:0:
491,286,72106,1,2,0:0:0:0:
491,286,72185,2,0,P|454:274|392:265,1,88.000002685547,2|2,0:0|0:0,0:0:0:0:
246,270,72497,1,8,0:0:0:0:
43,169,72653,6,0,B|83:145|127:165|127:165|175:187|246:141,1,176.000005371094,6|0,0:0|0:0,0:0:0:0:
199,3,73122,2,0,P|174:55|164:98,1,88.000002685547,8|0,0:0|0:0,0:0:0:0:
196,262,73435,2,0,P|246:308|357:276,1,176.000005371094,2|8,0:0|0:0,0:0:0:0:
418,154,73903,6,0,P|362:165|318:169,1,88.000002685547,2|0,0:0|0:0,0:0:0:0:
205,86,74216,1,2,0:0:0:0:
329,47,74372,1,8,0:0:0:0:
218,208,74528,1,2,0:0:0:0:
218,208,74606,1,2,0:0:0:0:
218,208,74685,1,2,0:0:0:0:
120,24,74841,2,0,P|112:76|100:130,1,88.000002685547,2|8,0:0|0:0,0:0:0:0:
0,286,75153,6,0,P|56:235|163:267,1,176.000005371094,6|0,0:0|0:0,0:0:0:0:
235,376,75622,1,8,0:0:0:0:
302,244,75778,2,0,P|352:228|396:220,1,88.000002685547,2|2,0:0|0:0,0:0:0:0:
461,91,76091,1,2,0:0:0:0:
294,10,76247,2,0,P|302:68|307:118,1,88.000002685547,8|2,0:0|0:0,0:0:0:0:
90,146,76560,6,0,P|162:119|249:192,1,176.000005371094,6|8,0:0|0:0,0:0:0:0:
97,262,77028,1,2,0:0:0:0:
255,375,77185,1,8,0:0:0:0:
258,342,77263,1,8,0:0:0:0:
261,310,77341,1,8,0:0:0:0:
264,277,77419,1,8,0:0:0:0:
268,245,77497,1,8,0:0:0:0:
387,120,77653,6,0,P|395:199|406:304,1,176.000005371094,6|0,0:0|0:0,0:0:0:0:
268,245,78122,2,0,P|218:227|160:224,1,88.000002685547,8|0,0:0|0:0,0:0:0:0:
62,361,78435,2,0,P|42:311|53:252,1,88.000002685547,2|2,0:0|0:0,0:0:0:0:
116,161,78747,2,0,P|191:176|239:121,1,132.00000402832,8|0,0:0|0:0,0:0:0:0:
180,46,79060,6,0,P|136:54|75:59,1,88.000002685547,2|0,0:0|0:0,0:0:0:0:
9,150,79372,1,8,0:0:0:0:
72,262,79528,1,2,0:0:0:0:
72,262,79606,1,2,0:0:0:0:
72,262,79685,1,2,0:0:0:0:
230,143,79841,2,0,P|214:211|207:244,1,88.000002685547,2|8,0:0|0:0,0:0:0:0:
266,365,80153,6,0,P|329:307|420:330,1,176.000005371094,2|2,0:0|0:0,0:0:0:0:
484,200,80622,1,8,0:0:0:0:
352,216,80778,1,8,0:0:0:0:
352,216,80856,1,8,0:0:0:0:
352,216,80935,1,8,0:0:0:0:
420,56,81091,2,0,P|412:107|405:154,1,88.000002685547,2|8,0:0|0:0,0:0:0:0:
279,33,81403,6,0,P|207:87|120:61,1,176.000005371094,6|0,0:0|0:0,0:0:0:0:
25,176,81872,1,8,0:0:0:0:
25,176,81950,1,2,0:0:0:0:
25,176,82028,2,0,P|71:170|117:165,1,88.000002685547,6|0,0:0|0:0,0:0:0:0:
186,266,82341,1,8,0:0:0:0:
186,266,82419,1,8,0:0:0:0:
186,266,82497,1,8,0:0:0:0:
310,157,82653,6,0,P|300:228|284:349,1,176.000005371094,6|0,0:0|0:0,0:0:0:0:
156,384,83122,2,0,P|151:335|144:277,1,88.000002685547,8|2,0:0|0:0,0:0:0:0:
97,119,83435,1,2,0:0:0:0:
52,238,83591,1,0,0:0:0:0:
226,195,83747,1,8,0:0:0:0:
14,97,83903,6,0,P|75:121|169:54,1,176.000005371094,2|0,0:0|0:0,0:0:0:0:
226,195,84372,2,0,P|272:183|321:175,1,88.000002685547,8|2,0:0|0:0,0:0:0:0:
397,47,84685,1,2,0:0:0:0:
471,156,84841,1,8,0:0:0:0:
471,156,84919,1,8,0:0:0:0:
471,156,84997,1,8,0:0:0:0:
304,84,85153,6,0,P|309:143|320:272,1,176.000005371094,6|2,0:0|0:0,0:0:0:0:
381,364,85622,1,8,0:0:0:0:
222,292,85778,2,0,P|143:276|79:350,1,176.000005371094,2|2,0:0|0:0,0:0:0:0:
169,364,86247,1,8,0:0:0:0:
76,181,86403,6,0,P|141:190|277:203,1,176.000005371094,6|0,0:0|0:0,0:0:0:0:
380,28,86872,2,0,P|369:83|360:126,1,88.000002685547,12|2,0:0|0:0,0:0:0:0:
231,52,87185,1,8,0:0:0:0:
198,55,87263,1,8,0:0:0:0:
166,58,87341,1,8,0:0:0:0:
133,61,87419,1,8,0:0:0:0:
101,65,87497,2,0,P|88:103|83:117,1,44.0000013427735,8|8,0:0|0:0,0:0:0:0:
118,223,87653,1,8,0:0:0:0:
320,171,87810,5,12,0:0:0:0:
110,209,87966,1,8,0:0:0:0:
315,157,88278,5,8,0:0:0:0:
105,195,88434,1,8,0:0:0:0:
310,145,88747,5,8,0:0:0:0:
100,183,88903,1,8,0:0:0:0:
306,133,89216,6,0,P|369:107|457:158,1,176.000005371094,12|2,0:0|0:0,0:0:0:0:
476,192,89606,1,2,0:0:0:0:
476,192,89685,2,0,P|464:261|459:290,1,88.000002685547,2|2,0:0|0:0,0:0:0:0:
343,364,89997,1,2,0:0:0:0:
340,331,90075,1,2,0:0:0:0:
337,299,90153,1,2,0:0:0:0:
334,266,90231,1,2,0:0:0:0:
330,234,90310,6,0,P|252:223|145:210,1,176.000005371094,12|2,0:0|0:0,0:0:0:0:
62,303,90778,1,2,0:0:0:0:
18,154,90935,1,2,0:0:0:0:
155,211,91091,1,2,0:0:0:0:
179,17,91247,2,0,P|169:60|161:104,1,88.000002685547,2|2,0:0|0:0,0:0:0:0:
216,301,91560,5,8,0:0:0:0:
339,126,91716,1,8,0:0:0:0:
155,211,91872,1,8,0:0:0:0:
155,211,92653,6,0,P|282:204|339:202,1,160,6|0,0:0|0:0,0:0:0:0:
378,129,93122,2,0,P|339:221|374:281,1,160,8|2,0:0|0:0,0:0:0:0:
426,361,93591,1,2,0:0:0:0:
267,317,93747,2,0,P|215:333|165:341,1,80,8|0,0:0|0:0,0:0:0:0:
314,202,94060,6,0,B|270:179|237:197|237:197|187:221|135:179,1,160,2|8,0:0|0:0,0:0:0:0:
97,109,94528,1,2,0:0:0:0:
97,109,94606,1,2,0:0:0:0:
97,109,94685,2,0,P|102:71|116:32,1,80,2|0,0:0|0:0,0:0:0:0:
244,3,94997,1,8,0:0:0:0:
373,138,95153,6,0,P|299:119|229:178,1,160,6|0,0:0|0:0,0:0:0:0:
311,274,95622,2,0,P|271:267|237:247,1,80,8|2,0:0|0:0,0:0:0:0:
150,157,95935,1,2,0:0:0:0:
150,157,96091,1,2,0:0:0:0:
80,267,96247,2,0,P|47:244|24:211,1,80,8|0,0:0|0:0,0:0:0:0:
11,176,96481,1,2,0:0:0:0:
11,176,96560,6,0,P|60:137|156:163,2,160,2|8|8,0:0|0:0|0:0,0:0:0:0:
12,205,97263,1,8,0:0:0:0:
14,244,97341,1,8,0:0:0:0:
17,284,97419,1,8,0:0:0:0:
20,324,97497,1,8,0:0:0:0:
151,253,97653,6,0,P|234:244|318:240,1,160,6|0,0:0|0:0,0:0:0:0:
442,150,98122,1,8,0:0:0:0:
428,277,98278,1,2,0:0:0:0:
428,277,98356,1,2,0:0:0:0:
428,277,98435,2,0,P|417:324|406:386,1,80,2|2,0:0|0:0,0:0:0:0:
222,280,98747,1,8,0:0:0:0:
283,377,98903,1,0,0:0:0:0:
310,240,99060,6,0,P|324:147|337:74,1,160,6|8,0:0|0:0,0:0:0:0:
419,30,99528,1,8,0:0:0:0:
419,30,99606,1,0,0:0:0:0:
419,30,99685,1,0,0:0:0:0:
484,148,99841,2,0,P|500:202|508:244,1,80,8|0,0:0|0:0,0:0:0:0:
407,337,100153,6,0,P|350:284|274:297,1,160,6|0,0:0|0:0,0:0:0:0:
196,369,100622,1,8,0:0:0:0:
127,264,100778,1,2,0:0:0:0:
127,264,100856,1,2,0:0:0:0:
127,264,100935,2,0,P|136:218|145:164,1,80,2|2,0:0|0:0,0:0:0:0:
64,124,101247,1,12,0:0:0:0:
231,230,101403,1,2,0:0:0:0:
231,230,101481,1,2,0:0:0:0:
231,230,101560,6,0,L|244:97,1,120,6|0,0:0|0:0,0:0:0:0:
194,38,101872,6,0,P|283:31|329:89,1,143.999995605469,12|0,0:0|0:0,0:0:0:0:
332,155,102185,5,8,0:0:0:0:
351,151,102263,1,8,0:0:0:0:
371,148,102341,1,8,0:0:0:0:
391,144,102419,1,8,0:0:0:0:
411,138,102497,2,0,L|476:142,3,47.9999985351563,8|8|8|8,0:0|0:0|0:0|0:0,0:3:0:0:
507,222,102810,6,0,P|428:229|346:238,1,160,6|8,0:0|0:0,0:0:0:0:
239,148,103278,2,0,P|223:198|216:237,1,80,2|0,0:0|0:0,0:0:0:0:
369,314,103591,2,0,P|360:274|347:237,1,80,2|8,0:0|0:0,0:0:0:0:
268,333,103903,2,0,P|208:347|123:295,1,160,2|2,0:0|0:0,0:0:0:0:
81,203,104372,1,8,0:0:0:0:
41,310,104528,1,2,0:0:0:0:
184,237,104685,2,0,P|193:184|201:143,1,80,0|2,0:0|0:0,0:0:0:0:
101,38,104997,2,0,P|108:77|114:116,1,80,8|2,0:0|0:0,0:0:0:0:
263,91,105310,6,0,B|307:68|340:86|340:86|390:110|442:68,1,160,6|8,0:0|0:0,0:0:0:0:
512,37,105778,1,2,0:0:0:0:
469,164,105935,2,0,P|452:211|448:263,1,80,6|0,0:0|0:0,0:0:0:0:
328,183,106247,2,0,P|334:232|354:280,1,80,8|2,0:0|0:0,0:0:0:0:
501,333,106560,6,0,P|447:288|345:333,1,160,6|8,0:0|0:0,0:0:0:0:
289,379,107028,1,2,0:0:0:0:
219,233,107185,2,0,P|227:180|238:103,1,120,8|8,0:0|0:0,0:0:0:0:
294,53,107497,1,8,0:0:0:0:
314,51,107575,1,8,0:0:0:0:
333,49,107653,1,8,0:0:0:0:
352,47,107731,1,8,0:0:0:0:
373,44,107810,6,0,P|382:90|393:148,1,88.000002685547,6|2,0:0|0:0,0:0:0:0:
266,263,108122,2,0,P|275:219|283:176,1,88.000002685547,2|2,0:0|0:0,0:0:0:0:
161,45,108435,2,0,P|170:91|181:149,1,88.000002685547,2|2,0:0|0:0,0:0:0:0:
54,264,108747,2,0,P|63:220|71:177,1,88.000002685547,2|2,0:0|0:0,0:0:0:0:
218,346,109060,5,8,0:0:0:0:
282,176,109216,1,8,0:0:0:0:
161,273,109372,1,8,0:0:0:0:
339,243,109528,1,8,0:0:0:0:
183,172,109685,1,8,0:0:0:0:
185,139,109763,1,8,0:0:0:0:
188,107,109841,1,8,0:0:0:0:
191,74,109919,1,8,0:0:0:0:
194,42,109997,1,8,0:0:0:0:
339,243,110153,5,12,0:0:0:0:
256,192,110231,12,2,115153,0:0:0:0:
