osu file format v14

[General]
AudioFilename: audio.mp3
AudioLeadIn: 0
PreviewTime: 64758
Countdown: 0
SampleSet: None
StackLeniency: 0.7
Mode: 0
LetterboxInBreaks: 0
WidescreenStoryboard: 1

[Editor]
DistanceSpacing: 0.6
BeatDivisor: 4
GridSize: 4
TimelineZoom: 1.3

[Metadata]
Title:Flyers!!!
TitleUnicode:Flyers!!!
Artist:Yamazaki Haruka, Tadokoro Azusa, Machico, Kouri Arisa, Minami Saki
ArtistUnicode:山崎はるか、田所あずさ、Machico、香里有佐、南早紀
Creator:_Star
Version:Rainbow's Insane
Source:アイドルマスター ミリオンライブ!
Tags:アイマス ミリマス ミリシタ 2nd anniversary mltd im@s imas million live idolm@ster 春日未来 Kasuga Mirai 最上静香 Mogami Shizuka 齊藤真知子 Saito 伊吹翼 Ibuki Tsubasa 桜守 歌織 Sakuramori Kaori 白石紬 Shiraishi Tsumugi
BeatmapID:2154828
BeatmapSetID:998462

[Difficulty]
HPDrainRate:6
CircleSize:4
OverallDifficulty:7
ApproachRate:9
SliderMultiplier:1.6
SliderTickRate:1

[Events]
//Background and Video events
Video,338,"mp4.mp4"
0,0,"bg.png",0,0
//Break Periods
//Storyboard Layer 0 (Background)
//Storyboard Layer 1 (Fail)
//Storyboard Layer 2 (Pass)
//Storyboard Layer 3 (Foreground)
//Storyboard Layer 4 (Overlay)
//Storyboard Sound Samples

[TimingPoints]
2270,461.538461538462,4,3,0,50,1,0
17055,348.837209302326,4,3,1,50,1,0
18450,-90.9090909090909,4,3,1,50,0,0
29613,-125,4,3,1,50,0,0
63799,-111.111111111111,4,3,1,50,0,0
65892,-333.333333333333,4,3,1,50,0,0
66241,-83.3333333333333,4,3,1,60,0,1
88217,-333.333333333333,4,3,1,50,0,0
88392,-83.3333333333333,4,3,1,60,0,1
116124,-90.9090909090909,4,3,1,50,0,0
130078,-100,4,3,1,50,0,0

[Colours]
Combo1 : 193,196,196
Combo2 : 132,108,91
Combo3 : 80,109,211
Combo4 : 239,122,92
Combo5 : 255,207,81
SliderTrackOverride : 0,0,0
SliderBorder : 180,140,70

[HitObjects]
127,191,17055,5,0,0:0:0:0:
385,191,17403,1,0,0:0:0:0:
256,96,17752,5,0,0:0:0:0:
256,104,17839,1,0,0:0:0:0:
256,112,17927,1,0,0:0:0:0:
256,120,18014,1,0,0:0:0:0:
256,128,18101,2,0,L|228:172,1,40
256,128,18275,2,0,L|284:172,1,40
256,192,18450,6,0,L|356:296,1,132.00000402832
352,312,18799,2,0,P|396:296|456:312,1,88.000002685547
404,376,19148,1,0,0:0:0:0:
276,360,19322,2,0,P|224:356|164:344,2,88.000002685547
116,328,19845,6,0,P|144:284|224:284,1,132.00000402832
216,268,20194,2,0,P|224:220|252:188,1,88.000002685547
336,176,20543,2,0,P|328:224|300:256,1,88.000002685547
280,112,20892,1,0,0:0:0:0:
303,253,21066,1,0,0:0:0:0:
416,164,21241,6,0,P|380:104|296:112,1,132.00000402832
280,112,21589,2,0,L|184:92,1,88.000002685547
32,168,21938,2,0,L|128:148,1,88.000002685547
292,208,22287,2,0,L|196:188,1,88.000002685547
36,264,22636,6,0,B|136:244|136:244|172:256,1,132.00000402832
180,260,22985,2,0,P|168:312|160:348,1,88.000002685547
176,364,23246,1,0,0:0:0:0:
176,364,23334,1,0,0:0:0:0:
328,300,23508,1,0,0:0:0:0:
205,190,23682,2,0,P|195:147|185:104,1,88.000002685547
228,32,24031,6,0,P|148:28|108:120,2,176.000005371094
316,80,24903,1,0,0:0:0:0:
408,132,25078,2,0,P|392:188|384:228,1,88.000002685547
380,320,25427,6,0,P|428:300|480:276,1,88.000002685547
385,217,25775,2,0,P|337:197|285:173,1,88.000002685547
296,268,26124,2,0,P|277:309|253:361,1,88.000002685547
288,168,26473,5,0,0:0:0:0:
260,348,26648,1,0,0:0:0:0:
236,352,26735,1,0,0:0:0:0:
216,356,26822,6,0,P|160:344|104:328,1,88.000002685547
60,252,27171,2,0,P|116:240|172:224,1,88.000002685547
84,160,27520,1,0,0:0:0:0:
112,320,27694,1,0,0:0:0:0:
236,192,27868,2,0,P|228:260|220:300,1,88.000002685547
72,136,28217,5,0,0:0:0:0:
88,112,28305,1,0,0:0:0:0:
112,92,28392,1,0,0:0:0:0:
140,84,28479,1,0,0:0:0:0:
164,96,28566,1,0,0:0:0:0:
184,72,28653,1,0,0:0:0:0:
212,64,28741,1,0,0:0:0:0:
240,68,28828,1,0,0:0:0:0:
268,84,28915,6,0,L|252:132,3,44.0000013427735
276,152,29264,2,0,L|320:136,1,44.0000013427735
348,160,29438,2,0,L|296:184,1,44.0000013427735
300,208,29613,6,0,P|296:260|304:336,1,128
384,368,30136,1,0,0:0:0:0:
303,335,30310,1,0,0:0:0:0:
444,304,30485,2,0,P|440:260|440:224,2,64
512,268,31008,1,0,0:0:0:0:
440,96,31357,6,0,P|396:88|332:112,1,96
336,120,31706,2,0,P|340:76|348:16,2,96
260,160,32403,2,0,P|264:208|284:292,1,128
224,348,32927,2,0,P|184:332|84:320,1,128
112,228,33450,2,0,P|132:192|144:164,1,64
112,96,33799,6,0,P|104:60|156:-20,1,128
200,64,34322,2,0,P|228:40|336:44,1,128
276,112,34845,1,0,0:0:0:0:
356,160,35020,1,0,0:0:0:0:
352,168,35107,1,0,0:0:0:0:
348,176,35194,6,0,P|340:232|332:316,1,128
436,248,35717,1,0,0:0:0:0:
332,303,35892,2,0,P|284:296|196:280,1,128
144,344,36415,1,0,0:0:0:0:
104,268,36589,6,0,P|102:236|95:204,1,64
40,128,36938,2,0,P|41:96|48:64,1,64
124,16,37287,1,0,0:0:0:0:
176,88,37461,1,0,0:0:0:0:
112,192,37636,2,0,P|172:200|196:204,1,64
260,144,37985,6,0,P|316:128|360:136,1,96
360,144,38334,2,0,P|356:104|352:72,1,64
480,32,38682,2,0,P|476:63|473:95,1,64
456,212,39031,1,0,0:0:0:0:
336,252,39206,1,0,0:0:0:0:
216,184,39380,5,0,0:0:0:0:
353,80,39555,1,0,0:0:0:0:
353,80,39642,1,0,0:0:0:0:
353,80,39729,1,0,0:0:0:0:
416,280,39903,2,0,P|432:320|432:368,1,64
256,256,40252,2,0,P|261:224|274:195,1,64
296,172,40514,1,0,0:0:0:0:
296,172,40601,1,0,0:0:0:0:
384,136,40775,6,0,P|416:148|472:164,1,64
500,48,41124,2,0,P|468:60|412:76,1,64
352,56,41473,2,0,P|321:46|291:35,1,64
168,76,41822,2,0,P|198:85|228:96,1,64
254,278,42171,6,0,P|250:222|298:170,1,128
336,248,42694,1,0,0:0:0:0:
254,278,42868,2,0,P|223:287|193:298,1,64
144,184,43217,2,0,P|174:193|204:204,1,64
72,244,43566,6,0,P|56:200|80:120,1,128
199,84,44089,2,0,P|220:143|203:204,1,128
156,284,44613,1,0,0:0:0:0:
204,204,44787,1,0,0:0:0:0:
156,284,44961,6,0,P|204:260|288:256,1,128
368,160,45485,2,0,P|310:133|246:130,1,128
152,88,46008,2,0,L|160:-8,1,96
176,8,46357,5,0,0:0:0:0:
76,132,46531,1,0,0:0:0:0:
176,8,46706,1,0,0:0:0:0:
208,168,46880,2,0,P|184:204|176:244,1,64
208,344,47229,1,0,0:0:0:0:
264,236,47403,2,0,P|296:224|336:216,1,64
136,296,47752,5,0,0:0:0:0:
320,304,47927,1,0,0:0:0:0:
136,296,48101,2,0,P|124:236|120:204,1,64
320,304,48450,5,0,0:0:0:0:
124,232,48624,1,0,0:0:0:0:
272,116,48799,1,0,0:0:0:0:
272,116,48886,1,0,0:0:0:0:
272,116,48973,1,0,0:0:0:0:
320,304,49148,6,0,P|316:264|316:224,1,64
336,52,49496,1,0,0:0:0:0:
244,200,49671,1,0,0:0:0:0:
448,180,49845,1,0,0:0:0:0:
336,32,50020,1,0,0:0:0:0:
248,176,50194,1,0,0:0:0:0:
456,152,50368,6,0,P|452:192|452:280,1,128
396,348,50892,2,0,P|368:332|332:316,1,64
316,324,51153,1,0,0:0:0:0:
316,324,51241,1,0,0:0:0:0:
248,224,51415,1,0,0:0:0:0:
256,208,51502,1,0,0:0:0:0:
264,192,51589,1,0,0:0:0:0:
372,176,51764,1,0,0:0:0:0:
184,320,51938,6,0,P|144:308|96:252,1,96
80,268,52287,2,0,P|84:232|76:192,1,64
192,228,52636,1,0,0:0:0:0:
32,132,52810,1,0,0:0:0:0:
32,132,52898,1,0,0:0:0:0:
32,132,52985,1,0,0:0:0:0:
