osu file format v14

[General]
AudioFilename: audio.mp3
AudioLeadIn: 0
PreviewTime: 64758
Countdown: 0
SampleSet: None
StackLeniency: 0.7
Mode: 0
LetterboxInBreaks: 0
WidescreenStoryboard: 1

[Editor]
Bookmarks: 29613,40775,51938,57520,60310,63799,64496,65892,71473,77055,88217,99380,104961,110543,111066,124496
DistanceSpacing: 1
BeatDivisor: 4
GridSize: 8
TimelineZoom: 1.3

[Metadata]
Title:Flyers!!!
TitleUnicode:Flyers!!!
Artist:Yamazaki Haruka, Tadokoro Azusa, Machico, Kouri Arisa, Minami Saki
ArtistUnicode:山崎はるか、田所あずさ、Machico、香里有佐、南早紀
Creator:_Star
Version:Irin's Normal
Source:アイドルマスター ミリオンライブ!
Tags:アイマス ミリマス ミリシタ 2nd anniversary mltd im@s imas million live idolm@ster 春日未来 Kasuga Mirai 最上静香 Mogami Shizuka 齊藤真知子 Saito 伊吹翼 Ibuki Tsubasa 桜守 歌織 Sakuramori Kaori 白石紬 Shiraishi Tsumugi
BeatmapID:2144832
BeatmapSetID:998462

[Difficulty]
HPDrainRate:3
CircleSize:3
OverallDifficulty:4
ApproachRate:5
SliderMultiplier:1
SliderTickRate:1

[Events]
//Background and Video events
Video,338,"mp4.mp4"
0,0,"bg.png",0,0
//Break Periods
//Storyboard Layer 0 (Background)
//Storyboard Layer 1 (Fail)
//Storyboard Layer 2 (Pass)
//Storyboard Layer 3 (Foreground)
//Storyboard Layer 4 (Overlay)
//Storyboard Sound Samples

[TimingPoints]
2270,461.538461538462,4,3,0,60,1,0
17055,348.837209302326,4,3,1,70,1,0
18450,-100,4,3,1,70,0,0
29613,-100,4,3,1,70,0,0
63799,-100,4,3,1,70,0,0
65892,-100,4,3,1,70,0,0
66241,-100,4,3,1,80,0,1
88217,-100,4,3,1,70,0,0
88392,-100,4,3,1,80,0,1
116124,-100,4,3,1,70,0,0
130078,-100,4,3,1,70,0,0

[Colours]
Combo1 : 193,196,196
Combo2 : 132,108,91
Combo3 : 80,109,211
Combo4 : 239,122,92
Combo5 : 255,207,81

[HitObjects]
67,47,17055,5,0,0:0:0:0:
25,137,17403,1,0,0:0:0:0:
65,228,17752,2,0,L|133:238,1,50
163,223,18101,2,0,L|233:216,1,50
262,224,18450,6,0,P|252:283|257:342,1,100
343,368,19148,2,0,P|402:358|461:363,1,100
504,281,19845,2,0,P|514:222|509:163,1,100
488,84,20543,1,0,0:0:0:0:
398,128,20892,1,0,0:0:0:0:
357,36,21241,6,0,P|298:26|239:31,1,100
184,95,21938,2,0,P|174:154|179:213,1,100
264,240,22636,2,0,P|265:289|255:338,1,100
216,371,23159,1,0,0:0:0:0:
216,371,23334,2,0,L|110:364,1,100
25,324,24031,6,0,P|11:276|7:226,1,100
57,139,24729,2,0,P|104:125|154:121,1,100
216,200,25427,1,0,0:0:0:0:
314,185,25775,1,0,0:0:0:0:
340,88,26124,2,0,P|366:72|387:68,1,50
433,79,26473,1,0,0:0:0:0:
474,169,26822,6,0,P|478:257|450:334,1,150
414,336,27520,2,0,P|368:288|324:285,1,100
243,323,28217,2,0,P|142:343|87:322,1,150
58,300,28915,2,0,B|97:253|81:194,1,100
30,121,29613,5,0,0:0:0:0:
101,51,29961,1,0,0:0:0:0:
187,102,30310,2,0,L|250:102,1,50
285,89,30659,2,0,L|356:86,1,50
382,103,31008,1,0,0:0:0:0:
460,41,31357,2,0,P|498:90|501:148,1,100
503,226,32055,1,0,0:0:0:0:
443,306,32404,5,0,0:0:0:0:
344,291,32752,2,0,L|279:299,1,50
244,301,33101,2,0,P|257:247|241:195,1,100
308,126,33799,1,0,0:0:0:0:
266,35,34148,2,0,L|201:27,1,50
166,25,34497,2,0,P|179:79|163:131,1,100
73,154,35194,6,0,P|50:212|58:268,1,100
68,296,35717,1,0,0:0:0:0:
68,296,35892,2,0,L|185:300,1,100
247,236,36589,1,0,0:0:0:0:
289,326,36938,1,0,0:0:0:0:
360,256,37287,1,0,0:0:0:0:
407,343,37636,1,0,0:0:0:0:
500,306,37985,6,0,P|505:238|498:196,1,100
405,174,38682,2,0,P|400:106|407:64,1,100
319,20,39380,1,0,0:0:0:0:
319,20,39555,2,0,P|262:28|211:23,1,100
121,6,40252,2,0,L|53:20,1,50
28,41,40601,1,0,0:0:0:0:
28,41,40775,6,0,P|50:96|36:149,1,100
4,227,41473,1,0,0:0:0:0:
103,236,41822,2,0,L|164:220,1,50
200,213,42171,1,0,0:0:0:0:
184,114,42520,1,0,0:0:0:0:
262,51,42868,1,0,0:0:0:0:
356,87,43217,1,0,0:0:0:0:
372,186,43566,6,0,P|366:251|386:294,1,100
403,325,44089,2,0,P|338:330|258:370,1,150
163,379,44961,1,0,0:0:0:0:
134,283,45310,1,0,0:0:0:0:
134,283,45485,2,0,P|149:205|132:130,1,150
85,50,46357,5,0,0:0:0:0:
183,32,46706,1,0,0:0:0:0:
183,32,46880,2,0,L|286:19,1,100
382,31,47578,1,0,0:0:0:0:
382,31,47752,2,0,P|370:93|386:137,1,100
459,188,48450,2,0,P|471:250|455:294,1,100
437,328,48973,1,0,0:0:0:0:
437,328,49148,6,0,L|331:335,1,100
253,279,49845,1,0,0:0:0:0:
200,364,50194,1,0,0:0:0:0:
200,364,50368,2,0,P|106:370|51:331,1,150
106,252,51241,2,0,L|86:145,1,100
69,55,51938,6,0,P|146:74|223:43,1,150
249,20,52636,2,0,P|297:15|350:28,1,100
392,46,53159,1,0,0:0:0:0:
392,46,53334,2,0,P|391:131|411:204,1,150
443,227,54031,2,0,P|458:280|439:318,1,100
340,342,54729,6,0,P|290:330|232:323,1,100
191,325,55252,1,0,0:0:0:0:
191,325,55427,1,0,0:0:0:0:
101,368,55775,1,0,0:0:0:0:
67,273,56124,2,0,P|71:214|79:165,1,100
98,75,56822,1,0,0:0:0:0:
190,113,57171,1,0,0:0:0:0:
259,40,57520,6,0,L|331:33,2,50
280,85,58043,2,0,P|282:139|250:186,1,100
222,210,58566,1,0,0:0:0:0:
175,298,58915,2,0,P|146:290|106:290,2,50
221,316,59438,2,0,P|310:343|375:339,1,150
432,265,60310,6,0,P|447:209|452:156,1,100
428,69,61008,2,0,P|372:54|319:49,1,100
241,97,61706,1,0,0:0:0:0:
308,171,62055,1,0,0:0:0:0:
258,258,62403,1,0,0:0:0:0:
160,237,62752,1,0,0:0:0:0:
160,237,62927,6,0,P|130:190|124:130,1,100
123,96,63450,1,0,0:0:0:0:
195,27,63799,2,0,P|241:33|285:14,2,75
150,3,64496,1,0,0:0:0:0:
52,25,64845,1,0,0:0:0:0:
22,120,65194,1,0,0:0:0:0:
89,193,65543,1,0,0:0:0:0:
188,186,65892,6,0,P|171:246|143:287,1,100
94,359,66589,1,0,0:0:0:0:
191,382,66938,2,0,L|252:373,1,50
271,335,67287,2,0,L|387:348,1,100
470,355,67985,1,0,0:0:0:0:
483,255,68334,1,0,0:0:0:0:
383,243,68682,6,0,P|392:190|415:141,1,100
503,110,69380,2,0,P|493:57|470:8,1,100
424,12,69903,1,0,0:0:0:0:
424,12,70078,2,0,L|316:31,1,100
271,113,70775,1,0,0:0:0:0:
189,55,71124,1,0,0:0:0:0:
127,133,71473,5,0,0:0:0:0:
69,51,71822,2,0,P|38:89|28:144,1,100
74,226,72520,2,0,P|71:259|64:282,1,50
55,323,72868,2,0,P|108:337|164:343,1,100
241,292,73566,1,0,0:0:0:0:
308,366,73915,1,0,0:0:0:0:
392,312,74264,6,0,L|401:202,1,100
486,161,74961,2,0,P|497:106|478:57,1,100
434,75,75485,1,0,0:0:0:0:
434,75,75659,2,0,P|379:86|330:67,1,100
242,42,76357,1,0,0:0:0:0:
200,132,76706,2,0,L|208:191,1,50
244,214,77055,6,0,L|240:328,1,100
171,384,77752,1,0,0:0:0:0:
73,360,78101,1,0,0:0:0:0:
100,263,78450,2,0,P|115:206|113:156,1,100
39,98,79148,1,0,0:0:0:0:
113,31,79496,2,0,L|177:39,1,50
212,44,79845,6,0,L|313:33,1,100
361,32,80368,1,0,0:0:0:0:
361,32,80543,2,0,P|346:87|357:139,1,100
395,154,81066,2,0,P|436:237|395:288,1,150
323,329,81938,1,0,0:0:0:0:
323,329,82113,2,0,L|328:400,2,50
290,290,82636,6,0,L|272:189,1,100
293,145,83159,2,0,P|235:46|198:44,1,150
111,47,84031,1,0,0:0:0:0:
143,141,84380,1,0,0:0:0:0:
43,146,84729,1,0,0:0:0:0:
75,240,85078,1,0,0:0:0:0:
36,332,85427,6,0,P|76:371|134:384,1,100
160,358,85950,1,0,0:0:0:0:
160,358,86124,2,0,L|278:345,1,100
342,290,86822,1,0,0:0:0:0:
416,357,87171,1,0,0:0:0:0:
502,307,87520,1,0,0:0:0:0:
481,209,87869,1,0,0:0:0:0:
381,198,88217,6,0,P|364:138|385:92,1,100
416,12,88915,1,0,0:0:0:0:
315,4,89264,2,0,L|251:13,1,50
224,39,89613,2,0,L|106:29,1,100
24,20,90310,1,0,0:0:0:0:
8,118,90659,1,0,0:0:0:0:
106,137,91008,6,0,P|110:188|102:240,1,100
84,334,91706,2,0,L|188:314,1,100
232,311,92229,1,0,0:0:0:0:
232,311,92403,2,0,P|213:251|214:200,1,100
303,172,93101,1,0,0:0:0:0:
347,80,93450,1,0,0:0:0:0:
273,9,93799,5,0,0:0:0:0:
182,57,94148,2,0,P|205:98|201:155,1,100
112,190,94845,2,0,L|119:239,1,50
128,288,95194,2,0,P|188:273|237:280,1,100
264,369,95892,1,0,0:0:0:0:
359,340,96241,1,0,0:0:0:0:
333,243,96589,6,0,P|321:192|330:142,1,100
428,136,97287,2,0,P|440:85|431:35,1,100
396,3,97810,1,0,0:0:0:0:
396,3,97985,2,0,P|341:21|289:6,1,100
201,4,98682,1,0,0:0:0:0:
230,100,99031,2,0,L|235:157,1,50
222,198,99380,6,0,L|213:314,1,100
281,372,100078,1,0,0:0:0:0:
375,338,100427,1,0,0:0:0:0:
330,248,100775,2,0,P|323:193|336:150,1,100
434,169,101473,1,0,0:0:0:0:
467,74,101822,1,0,0:0:0:0:
371,42,102171,6,0,L|270:29,1,100
186,81,102868,2,0,L|85:94,1,100
37,82,103392,2,0,P|14:154|44:238,1,150
122,177,104264,2,0,P|136:224|128:273,1,100
74,357,104961,6,0,P|130:373|177:359,1,100
232,285,105659,1,0,0:0:0:0:
225,185,106008,1,0,0:0:0:0:
225,185,106182,2,0,P|221:127|242:80,1,100
264,46,106706,1,0,0:0:0:0:
344,105,107055,2,0,P|398:115|451:98,1,100
485,80,107578,1,0,0:0:0:0:
485,80,107752,6,0,L|480:186,1,100
466,228,108275,1,0,0:0:0:0:
466,228,108450,2,0,L|475:339,1,100
466,377,108973,2,0,P|409:359|354:373,1,100
322,379,109496,1,0,0:0:0:0:
231,335,109845,1,0,0:0:0:0:
136,366,110194,2,0,L|127:310,1,50
119,267,110543,6,0,P|137:209|135:154,1,100
96,141,111066,2,0,P|109:81|138:35,1,100
162,10,111589,2,0,L|214:17,1,50
242,55,111938,2,0,L|308:61,2,50
206,148,112636,2,0,P|195:227|230:304,1,150
261,318,113334,6,0,L|360:330,1,100
459,321,114031,2,0,P|435:271|431:210,1,100
469,134,114729,1,0,0:0:0:0:
408,54,115077,1,0,2:0:0:0:
308,67,115427,1,0,2:0:0:0:
269,161,115775,1,0,2:0:0:0:
331,241,116124,6,0,P|286:275|239:283,1,100
150,247,116822,2,0,P|101:239|53:253,1,100
51,153,117520,2,0,L|70:45,1,100
164,83,118217,1,0,0:0:0:0:
232,10,118566,1,0,0:0:0:0:
302,80,118915,6,0,P|361:96|408:92,1,100
492,57,119613,2,0,P|508:116|504:163,1,100
414,194,120310,2,0,P|398:253|402:300,1,100
412,340,120834,1,0,0:0:0:0:
412,340,121008,2,0,P|349:351|297:337,1,100
227,293,121706,6,0,L|239:185,1,100
202,100,122403,2,0,L|94:112,1,100
3,126,123101,1,0,0:0:0:0:
69,200,123450,1,0,0:0:0:0:
0,272,123799,2,0,L|11:325,1,50
20,369,124148,1,0,0:0:0:0:
109,325,124496,6,0,P|164:302|215:306,1,100
239,209,125194,2,0,P|191:172|169:126,1,100
73,155,125892,2,0,P|65:214|36:256,1,100
109,325,126589,2,0,P|164:302|215:306,1,100
300,330,127287,6,0,P|359:322|401:293,1,100
415,203,127985,2,0,P|378:155|332:133,1,100
247,167,128682,2,0,P|224:222|228:273,1,100
129,290,129380,2,0,P|92:242|46:220,1,100
82,127,130078,6,0,B|138:133|189:85|189:85|316:-19|461:115,1,400
485,190,131822,2,0,L|480:244,3,33.3333333333333
