osu file format v14

[General]
AudioFilename: audio.mp3
AudioLeadIn: 0
PreviewTime: 64758
Countdown: 0
SampleSet: None
StackLeniency: 0.7
Mode: 0
LetterboxInBreaks: 0
WidescreenStoryboard: 0

[Editor]
DistanceSpacing: 0.6
BeatDivisor: 4
GridSize: 8
TimelineZoom: 1.3

[Metadata]
Title:Flyers!!!
TitleUnicode:Flyers!!!
Artist:Yamazaki Haruka, Tadokoro Azusa, Machico, Kouri Arisa, Minami Saki
ArtistUnicode:山崎はるか、田所あずさ、Machico、香里有佐、南早紀
Creator:_Star
Version:Insane
Source:アイドルマスター ミリオンライブ!
Tags:アイマス ミリマス ミリシタ 2nd anniversary mltd im@s imas million live idolm@ster 春日未来 Kasuga Mirai 最上静香 Mogami Shizuka 齊藤真知子 Saito 伊吹翼 Ibuki Tsubasa 桜守 歌織 Sakuramori Kaori 白石紬 Shiraishi Tsumugi
BeatmapID:2088389
BeatmapSetID:998462

[Difficulty]
HPDrainRate:6
CircleSize:4
OverallDifficulty:7
ApproachRate:9
SliderMultiplier:1.6
SliderTickRate:1

[Events]
//Background and Video events
Video,338,"mp4.mp4"
0,0,"bg.png",0,0
//Break Periods
//Storyboard Layer 0 (Background)
//Storyboard Layer 1 (Fail)
//Storyboard Layer 2 (Pass)
//Storyboard Layer 3 (Foreground)
//Storyboard Layer 4 (Overlay)
//Storyboard Sound Samples

[TimingPoints]
2270,461.538461538462,4,3,0,50,1,0
17055,348.837209302326,4,3,1,50,1,0
18450,-90.9090909090909,4,3,1,50,0,0
29613,-125,4,3,1,50,0,0
63799,-111.111111111111,4,3,1,50,0,0
65892,-333.333333333333,4,3,1,50,0,0
66241,-83.3333333333333,4,3,1,60,0,1
88217,-333.333333333333,4,3,1,50,0,0
88392,-83.3333333333333,4,3,1,60,0,1
116124,-90.9090909090909,4,3,1,50,0,0
130078,-100,4,3,1,50,0,0

[Colours]
Combo1 : 193,196,196
Combo2 : 132,108,91
Combo3 : 80,109,211
Combo4 : 239,122,92
Combo5 : 255,207,81
SliderTrackOverride : 0,0,0
SliderBorder : 180,140,70

[HitObjects]
69,165,2270,5,0,1:0:0:0:
149,93,2577,2,0,L|216:96,4,53.3333333333333
169,215,3539,2,0,L|306:190,1,120
365,113,4116,5,0,1:0:0:0:
406,325,4577,2,0,L|476:331,3,53.3333333333333
248,352,5346,1,0,0:0:0:0:
248,352,5500,2,0,P|272:310|251:238,1,106.666666666667,0|0,1:0|0:0,0:0:0:0:
180,291,5962,5,0,1:0:0:0:
91,342,6269,2,0,L|38:338,4,53.3333333333333
103,241,7231,2,0,L|114:108,1,120
19,131,7808,5,0,1:0:0:0:
185,30,8270,2,0,P|238:37|192:104,1,160
366,187,9039,1,0,0:0:0:0:
366,187,9193,2,0,L|314:195,2,53.3333333333333,0|0|0,1:0|0:0|0:0,0:0:0:0:
411,106,9654,6,0,P|447:154|429:262,1,160,0|0,1:0|0:0,0:0:0:0:
360,311,10270,1,0,0:0:0:0:
265,294,10423,1,0,0:0:0:0:
265,294,10577,2,0,P|192:289|152:306,1,106.666666666667
81,349,11039,2,0,L|71:211,1,106.666666666667,0|0,1:0|0:0,0:0:0:0:
56,151,11500,6,0,B|101:127|151:177|217:145,1,160,0|0,1:0|0:0,0:0:0:0:
266,73,12116,2,0,L|356:71,1,53.3333333333333
401,131,12423,2,0,P|425:189|406:234,2,106.666666666667
294,256,13346,5,0,1:0:0:0:
152,49,13808,2,0,L|79:51,2,53.3333333333333
212,113,14270,1,0,0:0:0:0:
415,266,14731,2,0,L|418:333,2,53.3333333333333,0|0|0,1:0|0:0|0:0,0:0:0:0:
468,191,15193,1,0,1:0:0:0:
256,192,15346,12,0,16577,0:0:0:0:
213,137,17055,5,4,1:3:0:0:
213,137,17403,1,4,1:3:0:0:
427,93,17752,1,8,0:0:0:0:
444,119,17839,1,8,0:0:0:0:
449,150,17927,1,8,0:0:0:0:
443,181,18014,1,8,0:0:0:0:
429,209,18100,2,8,L|377:214,1,40
329,291,18275,2,8,L|289:284,1,40
216,218,18450,6,0,P|169:254|232:339,1,176.000005371094,4|8,1:2|0:0,0:0:0:0:
90,121,19148,1,0,1:0:0:0:
11,186,19322,1,0,0:0:0:0:
17,34,19496,2,0,L|134:35,1,88.000002685547,8|0,0:0|0:0,0:0:0:0:
138,201,19845,6,0,P|214:150|178:89,1,176.000005371094,0|8,1:0|0:0,0:0:0:0:
263,159,20368,1,0,0:0:0:0:
369,44,20543,2,0,L|351:145,1,88.000002685547,0|0,1:0|0:0,0:0:0:0:
459,250,20892,2,0,L|441:149,1,88.000002685547,8|0,0:0|0:0,0:0:0:0:
352,265,21241,6,0,P|295:291|258:275,1,88.000002685547,0|0,1:0|0:0,0:0:0:0:
194,228,21589,1,8,0:0:0:0:
263,159,21764,1,0,0:0:0:0:
182,58,21938,2,0,P|156:115|172:152,1,88.000002685547,0|0,1:0|0:0,0:0:0:0:
94,209,22287,1,8,0:0:0:0:
39,119,22461,1,0,0:0:0:0:
65,284,22636,6,0,P|96:297|79:212,1,176.000005371094,0|8,1:0|0:0,0:0:0:0:
176,365,23159,1,0,0:0:0:0:
176,365,23246,1,0,0:0:0:0:
176,365,23334,2,0,L|270:360,1,88.000002685547,0|0,1:0|0:0,0:0:0:0:
313,276,23682,2,0,L|407:281,1,88.000002685547,8|0,0:0|0:0,0:0:0:0:
484,368,24031,6,0,L|492:261,1,88.000002685547,4|0,1:2|0:0,0:0:0:0:
425,107,24380,2,0,L|433:214,1,88.000002685547,8|0,0:0|0:0,0:0:0:0:
509,129,24729,1,0,1:0:0:0:
464,26,24903,1,0,0:0:0:0:
355,59,25078,2,0,P|343:116|358:154,1,88.000002685547,8|0,0:0|0:0,0:0:0:0:
358,256,25427,6,0,L|254:243,1,88.000002685547,0|0,1:0|0:0,0:0:0:0:
250,337,25775,2,0,L|146:350,1,88.000002685547,8|0,0:0|0:0,0:0:0:0:
72,269,26124,2,0,P|47:320|70:353,1,88.000002685547,0|0,1:0|1:0,0:0:0:0:
186,247,26473,1,8,0:0:0:0:
186,247,26560,1,8,0:0:0:0:
186,247,26648,1,8,0:0:0:0:
76,86,26822,6,0,P|58:130|142:147,1,132.00000402832,4|0,1:2|0:0,0:0:0:0:
149,147,27171,1,0,0:0:0:0:
149,147,27345,1,0,0:0:0:0:
271,198,27520,1,0,1:0:0:0:
271,198,27694,1,0,1:0:0:0:
253,51,27868,1,8,0:0:0:0:
253,51,28043,1,8,0:0:0:0:
413,70,28217,6,0,L|402:161,1,88.000002685547,0|0,1:0|0:0,0:0:0:0:
467,267,28566,1,0,1:0:0:0:
467,267,28741,1,0,1:0:0:0:
388,343,28915,1,8,3:0:0:0:
274,295,29089,1,0,1:0:0:0:
241,280,29177,1,0,1:2:0:0:
205,278,29264,1,8,0:3:0:0:
171,288,29351,1,8,0:3:0:0:
142,308,29438,1,8,0:3:0:0:
57,199,29613,6,0,B|100:175|138:221|188:193,1,128,6|0,1:2|0:0,0:0:0:0:
201,94,30136,1,0,0:0:0:0:
201,94,30310,2,0,L|275:97,1,64,2|0,0:2|0:0,0:0:0:0:
298,184,30659,2,0,L|372:181,1,64,2|2,0:2|0:2,0:0:0:0:
450,91,31008,6,0,L|466:175,1,64,6|0,0:0|0:0,0:0:0:0:
439,250,31357,2,0,L|455:334,1,64,2|2,0:2|0:2,0:0:0:0:
348,370,31706,2,0,L|331:276,1,96,2|0,0:2|0:0,0:0:0:0:
349,243,32055,1,2,0:2:0:0:
209,226,32229,1,2,0:2:0:0:
209,226,32403,6,0,P|184:279|237:295,1,128,6|2,0:0|0:2,0:0:0:0:
304,183,32927,2,0,L|307:41,1,128,2|2,0:2|0:2,0:0:0:0:
211,23,33450,1,2,0:2:0:0:
417,87,33799,6,0,P|442:34|389:18,1,128,6|0,0:0|0:0,0:0:0:0:
306,55,34323,2,0,L|303:197,1,128,2|0,0:2|0:0,0:0:0:0:
380,258,34846,1,2,0:2:0:0:
306,322,35020,1,0,0:0:0:0:
306,322,35194,6,0,P|252:360|198:326,1,128,4|0,0:2|0:0,0:0:0:0:
117,266,35717,1,2,0:2:0:0:
117,266,35892,2,0,L|120:128,1,128,2|0,0:2|0:0,0:0:0:0:
119,138,36589,6,0,L|200:143,1,64,6|0,0:0|0:0,0:0:0:0:
202,33,36938,2,0,L|283:38,1,64,2|0,0:2|0:0,0:0:0:0:
301,153,37287,2,0,L|382:158,1,64,2|0,0:2|0:0,0:0:0:0:
384,48,37636,2,0,L|465:53,1,64,2|0,0:2|0:0,0:0:0:0:
468,146,37985,6,0,P|437:178|357:142,1,128,6|2,0:0|0:2,0:0:0:0:
419,283,38682,2,0,L|411:366,1,64,4|0,0:0|0:0,0:0:0:0:
309,346,39031,2,0,L|301:263,1,64,4|0,0:0|0:0,0:0:0:0:
230,210,39380,5,0,1:0:0:0:
159,326,39555,1,8,0:0:0:0:
159,326,39642,1,8,0:0:0:0:
159,326,39729,1,8,0:0:0:0:
17,243,39903,2,0,B|70:209|92:273|151:227,1,128,0|0,1:0|1:0,0:0:0:0:
113,157,40427,1,8,0:0:0:0:
113,157,40514,1,8,0:0:0:0:
113,157,40601,1,8,0:0:0:0:
208,31,40775,6,0,L|211:176,1,128,4|8,1:2|0:0,0:0:0:0:
299,198,41299,1,0,0:0:0:0:
324,99,41473,2,0,L|400:99,1,64,2|0,1:3|0:0,0:0:0:0:
481,203,41822,2,0,L|405:203,1,64,8|0,0:0|0:0,0:0:0:0:
299,198,42171,6,0,P|277:226|287:251,1,64,0|0,1:0|0:0,0:0:0:0:
360,343,42520,2,0,P|382:315|372:290,1,64,8|0,0:0|0:0,0:0:0:0:
214,328,42868,2,0,P|242:350|267:340,1,64,2|0,1:3|0:0,0:0:0:0:
286,249,43217,2,0,P|258:227|233:237,1,64,8|0,0:0|0:0,0:0:0:0:
133,301,43566,6,0,L|134:173,1,128,0|8,1:0|0:0,0:0:0:0:
57,113,44089,2,0,P|106:79|188:89,1,128,0|0,1:0|1:0,0:0:0:0:
236,153,44613,1,10,0:0:0:0:
427,28,44961,6,0,L|426:156,1,128,0|8,1:0|0:0,0:0:0:0:
503,216,45485,2,0,P|454:250|372:240,1,128,0|0,1:0|1:0,0:0:0:0:
323,179,46008,2,0,L|246:177,1,64,10|0,0:0|0:0,0:0:0:0:
192,40,46357,6,0,L|184:113,1,64,4|0,1:2|0:0,0:0:0:0:
87,112,46706,1,8,0:0:0:0:
87,112,46880,2,0,L|116:179,1,64,0|2,0:0|1:3,0:0:0:0:
31,232,47229,2,0,L|90:275,1,64,0|8,0:0|0:0,0:0:0:0:
36,352,47578,1,0,0:0:0:0:
36,352,47752,6,0,L|108:359,1,64,0|0,1:0|0:0,0:0:0:0:
179,302,48101,2,0,L|252:294,1,64,8|0,0:0|0:0,0:0:0:0:
312,359,48450,1,2,1:3:0:0:
344,259,48624,1,0,1:0:0:0:
466,337,48799,1,8,0:0:0:0:
466,337,48886,1,8,0:0:0:0:
466,337,48973,1,8,0:0:0:0:
486,163,49148,6,0,L|369:152,1,96,4|0,1:2|0:0,0:0:0:0:
376,131,49496,1,0,0:0:0:0:
376,131,49671,1,0,0:0:0:0:
247,218,49845,1,0,1:0:0:0:
248,218,50020,1,0,1:0:0:0:
147,138,50194,1,10,0:0:0:0:
272,12,50368,6,0,P|296:50|267:150,1,128,4|0,1:2|1:0,0:0:0:0:
181,42,50892,1,8,0:0:0:0:
121,158,51066,2,0,L|73:157,2,32,0|8|8,1:0|0:0|0:0,0:0:0:0:
100,240,51415,1,0,1:0:0:0:
134,318,51589,1,0,1:0:0:0:
215,350,51764,1,0,1:0:0:0:
271,281,51938,6,0,P|333:285|398:277,1,128,4|0,1:2|0:0,0:0:0:0:
489,252,52461,1,0,1:0:0:0:
489,252,52636,2,0,L|489:348,2,96,8|0|0,0:0|0:0|1:0,0:0:0:0:
457,157,53334,6,0,P|402:157|407:81,1,128,0|0,1:0|0:0,0:0:0:0:
427,17,53857,1,0,1:0:0:0:
427,17,54031,2,0,L|284:20,1,128,8|0,0:0|0:0,0:0:0:0:
53,19,54729,6,0,L|46:153,1,128,0|0,1:0|0:0,0:0:0:0:
114,214,55252,1,0,1:0:0:0:
50,278,55427,2,0,P|80:301|166:287,1,128,8|0,0:0|0:0,0:0:0:0:
217,210,55950,1,0,1:0:0:0:
171,121,56124,5,0,1:0:0:0:
171,121,56299,2,0,L|307:118,1,128,8|0,0:0|1:0,0:0:0:0:
365,50,56822,2,0,P|389:93|392:131,1,64,8|0,0:0|1:0,0:0:0:0:
468,29,57171,1,8,0:0:0:0:
429,307,57520,6,0,L|349:303,1,64,4|0,1:2|0:0,0:0:0:0:
285,357,57868,1,8,0:0:0:0:
190,224,58043,2,0,L|319:221,1,128,0|0,1:0|1:0,0:0:0:0:
386,149,58566,1,8,0:0:0:0:
295,39,58741,1,8,0:0:0:0:
295,39,58828,1,8,0:0:0:0:
295,39,58915,6,0,L|292:124,1,64,0|0,1:0|1:0,0:0:0:0:
317,221,59264,1,8,0:0:0:0:
192,96,59438,2,0,L|189:237,1,128,0|0,1:0|1:0,0:0:0:0:
30,207,59961,1,8,0:0:0:0:
109,144,60136,1,0,1:0:0:0:
174,253,60310,6,0,P|166:294|174:318,1,64,8|0,0:0|0:0,0:0:0:0:
282,226,60659,1,8,0:0:0:0:
324,357,60834,1,0,1:0:0:0:
365,169,61008,1,8,0:0:0:0:
359,284,61183,1,0,1:0:0:0:
278,128,61357,1,8,0:0:0:0:
435,235,61531,1,0,1:0:0:0:
463,48,61706,6,0,P|398:53|403:90,1,96,8|0,0:0|0:0,0:0:0:0:
397,98,62055,1,8,0:0:0:0:
397,98,62229,1,8,0:0:0:0:
450,212,62403,1,0,1:0:0:0:
282,226,62578,1,8,0:0:0:0:
282,226,62665,1,8,0:0:0:0:
282,226,62752,1,8,0:0:0:0:
356,370,62927,6,0,P|395:316|339:285,1,128,0|0,1:0|1:0,0:0:0:0:
219,367,63450,1,8,0:0:0:0:
101,239,63624,1,0,1:0:0:0:
101,239,63711,1,0,1:0:0:0:
101,239,63799,2,0,L|185:227,1,71.9999978027344,8|0,0:0|0:0,0:0:0:0:
181,192,64060,2,0,L|265:204,1,71.9999978027344,8|0,0:0|0:0,0:0:0:0:
282,226,64322,1,8,0:0:0:0:
313,75,64496,5,8,0:3:0:0:
313,75,65194,5,8,0:0:0:0:
287,87,65281,1,8,0:0:0:0:
258,88,65368,1,8,0:0:0:0:
230,78,65456,1,8,0:0:0:0:
203,65,65543,5,8,0:0:0:0:
175,57,65630,1,8,0:0:0:0:
147,63,65717,1,8,0:0:0:0:
121,77,65805,1,8,0:0:0:0:
106,102,65892,6,0,L|107:143,1,35.9999989013672,4|0,1:2|0:0,0:0:0:0:
44,191,66241,6,0,P|101:218|187:132,1,191.999994140625,8|0,0:0|1:0,0:0:0:0:
54,361,66938,1,8,0:0:0:0:
107,254,67113,1,0,0:0:0:0:
190,345,67287,6,0,P|245:355|299:331,1,95.9999970703126,0|0,1:0|0:0,0:0:0:0:
334,224,67636,2,0,P|279:214|225:238,1,95.9999970703126,8|0,0:0|0:0,0:0:0:0:
381,322,67985,1,0,1:0:0:0:
497,256,68159,1,0,0:0:0:0:
399,157,68334,2,0,L|402:44,1,95.9999970703126,8|0,0:0|0:0,0:0:0:0:
256,22,68682,6,0,P|199:56|284:97,1,191.999994140625,0|8,1:0|0:0,0:0:0:0:
87,58,69380,2,0,L|53:259,1,191.999994140625,0|8,1:0|0:0,0:0:0:0:
18,369,69903,1,0,0:0:0:0:
142,321,70078,6,0,P|200:319|237:355,1,95.9999970703126,0|0,1:0|0:0,0:0:0:0:
241,215,70427,1,8,0:0:0:0:
336,313,70601,1,0,0:0:0:0:
426,217,70775,2,0,B|435:168|435:168|406:131,1,95.9999970703126,0|0,1:0|0:0,0:0:0:0:
303,98,71124,2,0,B|293:146|293:146|322:183,1,95.9999970703126,8|0,0:0|0:0,0:0:0:0:
456,46,71473,6,0,P|409:27|351:46,1,95.9999970703126,0|0,1:0|0:0,0:0:0:0:
208,164,71822,2,0,B|183:130|212:110|212:110|174:59|209:-14|279:40,1,191.999994140625,8|0,0:0|1:0,0:0:0:0:
48,360,72520,1,8,0:0:0:0:
48,360,72695,1,0,0:0:0:0:
155,312,72868,6,0,L|144:197,1,95.9999970703126,0|0,1:0|0:0,0:0:0:0:
73,141,73217,2,0,L|84:26,1,95.9999970703126,8|0,0:0|0:0,0:0:0:0:
191,137,73566,1,0,1:0:0:0:
242,32,73741,1,0,0:0:0:0:
334,129,73915,2,0,L|446:132,1,95.9999970703126,8|0,0:0|0:0,0:0:0:0:
492,295,74264,6,0,B|485:191|485:191|438:216|438:216|472:259,1,191.999994140625,0|8,1:0|0:0,0:0:0:0:
59,330,74961,2,0,L|268:340,1,191.999994140625,0|8,1:0|0:0,0:0:0:0:
313,242,75485,1,0,0:0:0:0:
210,199,75659,6,0,P|153:173|236:136,1,191.999994140625,0|8,1:0|0:0,0:0:0:0:
328,211,76182,1,0,0:0:0:0:
332,52,76357,1,0,1:0:0:0:
465,156,76531,2,0,L|514:159,2,47.9999985351563,8|8|0,0:0|0:0|1:0,0:0:0:0:
441,330,76880,1,8,0:0:0:0:
441,330,76967,1,8,0:0:0:0:
441,330,77055,6,0,L|316:329,1,95.9999970703126,4|0,1:2|0:0,0:0:0:0:
259,282,77403,2,0,L|134:283,1,95.9999970703126,8|0,0:0|0:0,0:0:0:0:
61,352,77752,2,0,L|62:227,1,95.9999970703126,0|0,1:0|0:0,0:0:0:0:
109,170,78100,2,0,L|108:45,1,95.9999970703126,8|0,0:0|0:0,0:0:0:0:
248,94,78450,6,0,P|283:146|193:142,2,191.999994140625,0|8|0,1:0|0:0|1:0,0:0:0:0:
200,16,79322,1,0,0:0:0:0:
200,16,79496,2,0,L|306:18,1,95.9999970703126,8|0,0:0|0:0,0:0:0:0:
419,58,79845,6,0,P|442:106|421:255,1,191.999994140625,0|8,1:0|0:0,0:0:0:0:
361,325,80368,1,0,0:0:0:0:
361,325,80543,2,0,P|304:304|316:249,1,95.9999970703126,0|0,1:0|0:0,0:0:0:0:
342,195,80892,1,8,0:0:0:0:
342,195,81066,6,0,P|263:189|208:297,1,191.999994140625,0|0,1:0|0:0,0:0:0:0:
133,384,81589,2,0,L|111:284,1,95.9999970703126,8|0,0:0|0:0,0:0:0:0:
21,292,81938,2,0,L|43:192,1,95.9999970703126,0|0,1:0|0:0,0:0:0:0:
129,191,82287,2,0,L|107:91,1,95.9999970703126,8|0,0:0|0:0,0:0:0:0:
26,49,82636,6,0,P|78:13|196:72,1,191.999994140625,4|8,1:2|0:0,0:0:0:0:
225,149,83159,2,0,L|337:146,1,95.9999970703126,0|0,0:0|1:0,0:0:0:0:
362,53,83508,1,0,0:0:0:0:
362,53,83682,2,0,L|468:68,1,95.9999970703126,8|0,0:0|0:0,0:0:0:0:
509,185,84031,6,0,P|454:175|468:144,1,95.9999970703126,0|0,1:0|0:0,0:0:0:0:
461,304,84380,2,0,P|406:294|420:263,1,95.9999970703126,8|0,0:0|0:0,0:0:0:0:
351,183,84729,1,0,1:0:0:0:
351,183,84903,1,0,1:0:0:0:
320,352,85078,1,8,0:0:0:0:
128,313,85252,1,0,1:0:0:0:
128,313,85339,1,0,1:0:0:0:
128,313,85427,5,8,0:0:0:0:
292,260,85601,1,0,1:0:0:0:
292,260,85775,1,0,1:0:0:0:
189,76,85950,1,8,0:0:0:0:
169,230,86124,1,0,1:0:0:0:
169,230,86299,1,0,1:0:0:0:
345,167,86473,1,8,0:0:0:0:
217,103,86648,1,0,1:0:0:0:
416,67,86822,5,8,0:0:0:0:
451,210,86996,1,0,1:0:0:0:
451,210,87084,1,0,1:0:0:0:
451,210,87171,2,0,P|473:259|369:268,1,191.999994140625,8|0,0:0|1:0,0:0:0:0:
288,368,87694,2,8,L|226:364,1,47.9999985351563
225,255,87868,2,8,L|163:251,1,47.9999985351563
131,364,88043,2,8,L|69:360,1,47.9999985351563
80,258,88217,6,0,L|81:217,1,35.9999989013672,4|0,1:2|0:0,0:0:0:0:
10,187,88566,6,0,B|75:129|133:219|205:155,1,191.999994140625,8|0,0:0|1:0,0:0:0:0:
54,23,89263,1,8,0:0:0:0:
107,130,89438,1,0,0:0:0:0:
215,34,89612,6,0,L|324:36,1,95.9999970703126,0|0,1:0|0:0,0:0:0:0:
370,139,89961,2,0,L|260:136,1,95.9999970703126,8|0,0:0|0:0,0:0:0:0:
418,56,90310,1,0,1:0:0:0:
409,222,90484,1,0,0:0:0:0:
486,130,90659,2,0,P|509:175|489:243,1,95.9999970703126,8|0,0:0|0:0,0:0:0:0:
386,321,91008,6,0,P|421:377|462:292,1,191.999994140625,0|8,1:0|0:0,0:0:0:0:
100,347,91706,2,0,L|313:323,1,191.999994140625,0|8,1:0|0:0,0:0:0:0:
183,248,92228,1,0,0:0:0:0:
294,193,92403,6,0,P|296:135|260:98,1,95.9999970703126,0|0,1:0|0:0,0:0:0:0:
214,164,92752,1,8,0:0:0:0:
276,18,92926,1,0,0:0:0:0:
125,91,93100,2,0,B|31:109,1,95.9999970703126,0|0,1:0|0:0,0:0:0:0:
96,283,93449,2,0,B|119:188,1,95.9999970703126,8|0,0:0|0:0,0:0:0:0:
291,324,93799,6,0,P|241:339|184:328,1,95.9999970703126,0|0,1:0|0:0,0:0:0:0:
211,173,94148,2,0,P|275:206|193:238,1,191.999994140625,8|0,0:0|1:0,0:0:0:0:
48,24,94845,1,8,0:0:0:0:
48,24,95020,1,0,0:0:0:0:
155,72,95193,6,0,L|144:187,1,95.9999970703126,0|0,1:0|0:0,0:0:0:0:
73,243,95542,2,0,L|84:358,1,95.9999970703126,8|0,0:0|0:0,0:0:0:0:
331,329,95891,1,0,1:0:0:0:
175,371,96066,1,0,0:0:0:0:
243,273,96240,2,0,L|245:163,1,95.9999970703126,8|0,0:0|0:0,0:0:0:0:
300,64,96589,2,0,P|386:72|341:155,1,191.999994140625,0|8,1:0|0:0,0:0:0:0:
59,54,97287,6,0,L|268:44,1,191.999994140625,0|8,1:0|0:0,0:0:0:0:
313,142,97810,1,0,0:0:0:0:
138,186,97985,5,0,1:0:0:0:
285,259,98159,1,8,0:0:0:0:
213,122,98334,1,8,0:0:0:0:
154,287,98507,1,0,1:0:0:0:
154,287,98595,1,0,1:0:0:0:
154,287,98682,1,8,0:0:0:0:
282,380,98857,2,0,L|331:377,2,47.9999985351563,0|0|0,1:0|1:0|1:0,0:0:0:0:
420,249,99205,1,0,1:0:0:0:
420,249,99292,1,0,1:0:0:0:
420,249,99380,6,0,L|411:143,1,95.9999970703126,4|0,1:2|0:0,0:0:0:0:
343,43,99728,2,0,L|218:42,1,95.9999970703126,8|0,0:0|0:0,0:0:0:0:
121,96,100078,2,0,L|130:202,1,95.9999970703126,0|0,1:0|0:0,0:0:0:0:
147,203,100339,1,0,0:0:0:0:
147,203,100427,1,8,0:0:0:0:
43,285,100601,6,0,L|37:342,2,47.9999985351563,0|0|0,0:0|0:0|1:0,0:0:0:0:
180,358,100950,1,0,0:0:0:0:
180,358,101037,1,0,0:0:0:0:
180,358,101124,1,8,0:0:0:0:
263,262,101299,1,0,0:0:0:0:
263,262,101386,1,0,0:0:0:0:
263,262,101473,2,0,L|317:263,4,47.9999985351563,0|0|0|0|8,1:0|0:0|0:0|0:0|0:0,0:0:0:0:
363,134,101996,5,0,0:0:0:0:
363,134,102084,1,0,0:0:0:0:
363,134,102171,1,0,1:0:0:0:
478,197,102345,2,0,L|483:247,2,47.9999985351563,0|0|8,0:0|0:0|0:0,0:0:0:0:
471,64,102694,1,0,0:0:0:0:
445,50,102781,1,0,0:0:0:0:
416,52,102868,1,0,1:0:0:0:
273,76,103043,2,0,L|223:71,2,47.9999985351563,0|0|8,0:0|0:0|0:0,0:0:0:0:
244,243,103392,1,0,0:0:0:0:
244,243,103479,1,0,0:0:0:0:
244,243,103566,6,0,P|192:256|148:243,1,95.9999970703126,0|0,1:0|0:0,0:0:0:0:
36,172,103915,1,0,1:0:0:0:
191,151,104089,1,8,0:0:0:0:
191,151,104264,1,8,0:0:0:0:
209,326,104438,1,0,1:0:0:0:
236,332,104525,1,0,1:0:0:0:
265,330,104613,1,8,0:0:0:0:
293,326,104700,1,8,0:0:0:0:
318,312,104787,1,0,1:0:0:0:
357,136,104961,6,0,B|409:133|409:133|419:280,1,191.999994140625,4|8,1:2|0:0,0:0:0:0:
292,216,105485,1,0,1:0:0:0:
510,115,105659,1,8,0:0:0:0:
299,75,105834,1,0,1:0:0:0:
505,214,106008,1,8,0:0:0:0:
221,140,106182,6,0,L|14:144,1,191.999994140625,4|0,1:2|1:0,0:0:0:0:
21,262,106706,2,0,P|67:269|110:249,1,95.9999970703126,8|0,0:0|0:0,0:0:0:0:
221,341,107055,1,0,1:0:0:0:
221,341,107229,1,0,1:0:0:0:
246,188,107403,2,0,P|303:193|308:261,1,95.9999970703126,8|0,0:0|0:0,0:0:0:0:
322,355,107752,5,0,1:0:0:0:
322,355,107839,1,0,1:0:0:0:
322,355,107927,1,0,1:0:0:0:
322,355,108014,1,0,1:0:0:0:
322,355,108101,2,0,P|382:348|394:215,1,191.999994140625,8|8,0:0|0:0,0:0:0:0:
382,138,108624,2,0,L|329:141,2,47.9999985351563,0|0|8,1:0|1:0|0:0,0:0:0:0:
493,40,108973,6,0,L|285:29,1,191.999994140625,4|0,1:2|0:0,0:0:0:0:
244,172,109496,1,8,0:0:0:0:
210,76,109671,1,0,1:0:0:0:
210,76,109758,1,0,1:0:0:0:
210,76,109845,1,8,0:0:0:0:
100,155,110020,1,0,1:0:0:0:
128,6,110194,1,8,0:0:0:0:
168,224,110368,1,0,1:0:0:0:
168,224,110456,1,0,1:0:0:0:
168,224,110543,5,8,0:0:0:0:
338,248,110717,1,0,1:0:0:0:
142,326,110892,1,8,0:0:0:0:
323,289,111066,1,0,1:0:0:0:
187,151,111241,1,8,0:0:0:0:
422,194,111415,1,0,1:0:0:0:
230,353,111589,1,8,0:0:0:0:
447,298,111764,1,0,1:0:0:0:
293,127,111938,5,8,0:0:0:0:
76,255,112113,1,8,0:0:0:0:
305,384,112287,1,8,0:0:0:0:
52,36,113334,6,0,P|32:105|92:117,1,143.999995605469,4|0,1:2|0:0,0:0:0:0:
120,112,113682,1,0,0:0:0:0:
120,112,113857,1,0,0:0:0:0:
57,265,114031,1,0,1:0:0:0:
57,265,114206,1,0,1:0:0:0:
213,218,114380,1,8,0:0:0:0:
213,218,114555,1,8,0:0:0:0:
16,172,114729,5,0,1:0:0:0:
16,172,114903,1,0,1:0:0:0:
174,310,115078,1,8,0:0:0:0:
174,310,115252,1,8,0:0:0:0:
42,377,115427,1,8,0:0:0:0:
25,351,115514,1,8,0:0:0:0:
20,320,115602,1,8,0:0:0:0:
26,289,115689,1,8,0:0:0:0:
40,261,115775,2,0,L|92:256,1,47.9999985351563,8|8,0:0|0:0,0:0:0:0:
159,206,115950,2,0,L|211:211,1,47.9999985351563,8|8,0:0|0:0,0:0:0:0:
293,295,116124,6,0,P|340:259|277:174,1,176.000005371094,4|8,1:2|0:0,0:0:0:0:
422,263,116823,1,0,1:0:0:0:
501,198,116997,1,0,0:0:0:0:
495,350,117171,2,0,L|378:349,1,88.000002685547,8|0,0:0|0:0,0:0:0:0:
374,183,117520,6,0,P|298:234|334:295,1,176.000005371094,0|8,1:0|0:0,0:0:0:0:
249,225,118043,1,0,0:0:0:0:
143,340,118218,2,0,L|161:239,1,88.000002685547,0|0,1:0|0:0,0:0:0:0:
53,134,118567,2,0,L|71:235,1,88.000002685547,8|0,0:0|0:0,0:0:0:0:
160,119,118916,6,0,P|217:93|254:109,1,88.000002685547,0|0,1:0|0:0,0:0:0:0:
318,156,119264,1,8,0:0:0:0:
249,225,119439,1,0,0:0:0:0:
330,326,119613,2,0,P|356:269|340:232,1,88.000002685547,0|0,1:0|0:0,0:0:0:0:
418,175,119961,1,8,0:0:0:0:
473,265,120136,1,0,0:0:0:0:
447,100,120311,6,0,P|416:87|433:172,1,176.000005371094,0|8,1:0|0:0,0:0:0:0:
336,19,120834,1,0,0:0:0:0:
336,19,120921,1,0,0:0:0:0:
336,19,121009,2,0,L|242:24,1,88.000002685547,0|0,1:0|0:0,0:0:0:0:
199,108,121357,2,0,L|105:103,1,88.000002685547,8|0,0:0|0:0,0:0:0:0:
28,16,121706,6,0,L|20:123,1,88.000002685547,4|0,1:2|0:0,0:0:0:0:
87,277,122055,2,0,L|79:170,1,88.000002685547,8|0,0:0|0:0,0:0:0:0:
3,255,122404,1,0,1:0:0:0:
48,358,122578,1,0,0:0:0:0:
157,325,122753,2,0,P|169:268|154:230,1,88.000002685547,8|0,0:0|0:0,0:0:0:0:
154,128,123102,6,0,L|258:141,1,88.000002685547,0|0,1:0|0:0,0:0:0:0:
262,47,123450,2,0,L|366:34,1,88.000002685547,8|0,0:0|0:0,0:0:0:0:
440,115,123799,2,0,P|465:64|442:31,1,88.000002685547,0|0,1:0|0:0,0:0:0:0:
326,137,124148,1,8,0:0:0:0:
326,137,124235,1,8,0:0:0:0:
326,137,124323,1,8,0:0:0:0:
436,298,124497,6,0,P|454:254|370:237,1,132.00000402832,4|0,1:2|0:0,0:0:0:0:
363,237,124846,1,0,0:0:0:0:
363,237,125020,1,0,0:0:0:0:
241,186,125195,1,0,1:0:0:0:
241,186,125369,1,0,1:0:0:0:
259,333,125543,1,8,0:0:0:0:
259,333,125718,1,8,0:0:0:0:
99,314,125892,6,0,L|110:223,1,88.000002685547,0|0,1:0|0:0,0:0:0:0:
57,138,126241,1,0,1:0:0:0:
188,123,126415,1,0,1:0:0:0:
188,123,126502,1,8,0:0:0:0:
188,123,126589,1,8,0:0:0:0:
254,196,126764,1,0,1:0:0:0:
345,192,126938,1,0,1:0:0:0:
404,125,127113,1,0,1:0:0:0:
469,220,127287,6,0,L|456:321,1,88.000002685547,4|0,1:2|0:0,0:0:0:0:
372,361,127636,1,0,1:0:0:0:
266,357,127898,1,0,1:0:0:0:
266,357,127985,1,8,0:0:0:0:
160,353,128246,1,0,1:0:0:0:
160,353,128334,1,0,1:0:0:0:
54,349,128595,1,0,1:0:0:0:
54,349,128682,5,8,0:0:0:0:
63,248,128944,1,0,1:0:0:0:
63,248,129031,1,0,1:0:0:0:
67,142,129293,1,0,1:0:0:0:
67,142,129380,1,8,0:0:0:0:
71,36,129641,1,0,1:0:0:0:
71,36,129729,1,0,1:0:0:0:
196,47,129991,1,0,1:0:0:0:
196,47,130078,6,0,B|246:57|282:84|282:84|218:101|188:132|188:132|371:156|350:293|273:336|177:322|115:234|148:187,1,640,4|8,1:2|0:0,0:0:0:0:
144,193,131822,2,0,L|65:197,2,53.3333333333333,8|8|8,0:0|0:0|0:0,0:0:0:0:
196,47,132171,5,4,1:2:0:0:
