osu file format v14

[General]
AudioFilename: audio.mp3
AudioLeadIn: 0
PreviewTime: 64758
Countdown: 0
SampleSet: None
StackLeniency: 0.7
Mode: 0
LetterboxInBreaks: 0
WidescreenStoryboard: 1

[Editor]
Bookmarks: 44613
DistanceSpacing: 1.2
BeatDivisor: 3
GridSize: 8
TimelineZoom: 1.3

[Metadata]
Title:Flyers!!!
TitleUnicode:Flyers!!!
Artist:Yamazaki Haruka, Tadokoro Azusa, Machico, Kouri Arisa, Minami Saki
ArtistUnicode:山崎はるか、田所あずさ、Machico、香里有佐、南早紀
Creator:_Star
Version:Firika's Hard
Source:アイドルマスター ミリオンライブ!
Tags:アイマス ミリマス ミリシタ 2nd anniversary mltd im@s imas million live idolm@ster 春日未来 Kasuga Mirai 最上静香 Mogami Shizuka 齊藤真知子 Saito 伊吹翼 Ibuki Tsubasa 桜守 歌織 Sakuramori Kaori 白石紬 Shiraishi Tsumugi
BeatmapID:2144831
BeatmapSetID:998462

[Difficulty]
HPDrainRate:5
CircleSize:3.2
OverallDifficulty:6
ApproachRate:8
SliderMultiplier:1.4
SliderTickRate:1

[Events]
//Background and Video events
Video,338,"mp4.mp4"
0,0,"bg.png",0,0
//Break Periods
//Storyboard Layer 0 (Background)
//Storyboard Layer 1 (Fail)
//Storyboard Layer 2 (Pass)
//Storyboard Layer 3 (Foreground)
//Storyboard Layer 4 (Overlay)
//Storyboard Sound Samples

[TimingPoints]
2270,461.538461538462,4,3,0,50,1,0
17055,348.837209302326,4,3,1,50,1,0
18450,-90.9090909090909,4,3,1,50,0,0
29613,-125,4,3,1,50,0,0
40775,-111.111111111111,4,3,1,50,0,0
51938,-125,4,3,1,50,0,0
57171,-111.111111111111,4,3,1,50,0,0
57520,-100,4,3,1,50,0,0
65892,-83.3333333333333,4,3,1,60,0,0
66241,-83.3333333333333,4,3,1,60,0,1
88217,-83.3333333333333,4,3,1,50,0,0
88566,-83.3333333333333,4,3,1,60,0,1
116124,-90.9090909090909,4,3,1,50,0,0
130078,-100,4,3,1,50,0,0

[Colours]
Combo1 : 193,196,196
Combo2 : 132,108,91
Combo3 : 80,109,211
Combo4 : 239,122,92
Combo5 : 255,207,81
SliderTrackOverride : 0,0,0
SliderBorder : 180,140,70

[HitObjects]
464,331,2270,6,0,P|421:301|370:302,1,105
345,310,2731,2,0,L|337:355,2,46.6666666666667
326,281,3193,2,0,P|278:302|222:294,2,105
394,201,4116,1,0,0:0:0:0:
393,201,4577,6,0,P|414:189|436:185,2,46.6666666666667
361,189,5039,2,0,L|266:182,1,93.3333333333333
233,180,5500,1,0,0:0:0:0:
91,24,5962,6,0,P|139:45|140:99,1,105
132,116,6423,2,0,L|82:125,2,46.6666666666667
157,141,6885,2,0,P|147:203|176:246,2,105
250,92,7808,5,0,0:0:0:0:
250,92,8270,2,0,P|255:52|252:32,2,46.6666666666667
272,119,8731,2,0,L|368:109,1,93.3333333333333
400,106,9193,2,0,L|395:157,2,46.6666666666667
430,88,9654,6,0,L|415:246,1,140
395,255,10270,2,0,L|403:313,1,46.6666666666667
408,335,10577,2,0,P|458:311|501:318,2,93.3333333333333
271,303,11500,6,0,B|218:335|195:269|137:300,1,140
108,319,12116,2,0,L|44:310,1,46.6666666666667
40,285,12423,2,0,L|32:192,2,93.3333333333333
162,216,13346,6,0,B|177:186|177:186|163:75,1,140
132,65,13962,2,0,P|108:65|87:74,1,46.6666666666667
161,44,14270,2,0,L|316:60,1,140
336,61,14885,2,0,L|329:14,1,46.6666666666667
365,81,15193,6,0,B|312:137|334:211|334:211|368:289|475:307|496:160|333:205|333:205|274:256|295:331,1,560
298,337,17403,5,0,0:0:0:0:
301,343,17752,5,0,0:0:0:0:
318,341,17839,1,0,0:0:0:0:
335,339,17926,1,0,0:0:0:0:
353,337,18013,1,0,0:0:0:0:
370,336,18101,2,0,L|408:344,3,35
423,347,18450,6,0,P|482:303|462:233,1,154.000004699707
385,182,18973,1,0,0:0:0:0:
306,231,19148,2,0,P|203:224|145:186,1,154.000004699707
105,124,19671,1,0,0:0:0:0:
174,63,19845,2,0,P|197:134|160:199,1,154.000004699707
74,234,20368,2,0,L|84:310,1,77.0000023498536
161,361,20717,1,0,0:0:0:0:
161,361,20892,2,0,P|211:342|255:351,1,77.0000023498536
421,337,21241,6,0,P|348:349|308:289,1,154.000004699707
341,202,21764,1,0,0:0:0:0:
430,224,21938,2,0,P|442:170|432:62,1,154.000004699707
364,11,22461,1,0,0:0:0:0:
298,76,22636,2,0,L|146:57,1,154.000004699707
62,97,23159,1,0,0:0:0:0:
62,97,23246,1,0,0:0:0:0:
62,97,23334,2,0,P|51:144|65:186,1,77.0000023498536
128,229,23682,2,0,L|208:217,1,77.0000023498536
351,159,24031,6,0,P|416:160|477:234,2,154.000004699707
292,231,24903,1,0,0:0:0:0:
292,231,25078,2,0,L|300:309,1,77.0000023498536
371,366,25427,2,0,P|288:339|204:358,2,154.000004699707
454,324,26299,1,0,0:0:0:0:
419,238,26473,1,0,0:0:0:0:
402,228,26560,1,0,0:0:0:0:
384,221,26647,1,0,0:0:0:0:
365,218,26734,1,0,0:0:0:0:
346,217,26822,6,0,L|178:240,1,154.000004699707
130,170,27345,1,0,0:0:0:0:
148,79,27520,2,0,P|195:36|281:68,1,154.000004699707
366,73,28043,1,0,0:0:0:0:
427,142,28217,2,0,L|410:295,1,154.000004699707
340,356,28741,1,0,0:0:0:0:
260,309,28915,2,0,P|204:314|172:334,1,77.0000023498536
101,360,29264,1,0,0:0:0:0:
85,348,29351,1,0,0:0:0:0:
73,333,29438,1,0,0:0:0:0:
66,315,29525,1,0,0:0:0:0:
62,296,29613,1,0,0:0:0:0:
62,296,29961,6,0,L|53:235,1,56
133,214,30310,2,0,L|142:153,1,56
67,117,30659,1,0,0:0:0:0:
67,117,30834,2,0,L|58:56,1,56
222,24,31357,2,0,L|213:85,1,56
268,143,31706,2,0,P|325:123|365:138,2,84
324,204,32403,6,0,P|326:248|309:279,1,56
261,317,32752,1,0,0:0:0:0:
186,278,32927,2,0,P|136:302|81:299,1,112
6,260,33450,1,0,0:0:0:0:
6,260,33624,1,0,0:0:0:0:
49,163,33799,2,0,L|160:155,1,112
232,110,34322,2,0,P|304:120|345:167,1,112
365,222,34845,2,0,L|357:256,3,28
370,274,35194,6,0,P|419:250|473:262,1,112
430,335,35717,1,0,0:0:0:0:
348,357,35892,2,0,P|298:332|244:344,1,112
167,310,36415,1,0,0:0:0:0:
97,357,36589,2,0,P|57:360|35:354,1,56
71,277,36938,2,0,P|48:243|42:221,1,56
76,151,37287,2,0,L|132:146,1,56
199,196,37636,2,0,L|255:191,1,56
344,123,37985,6,0,P|406:120|451:163,1,112
466,230,38508,1,0,0:0:0:0:
413,295,38682,2,0,L|418:351,2,56
264,194,39380,1,0,0:0:0:0:
207,256,39555,1,0,0:0:0:0:
209,269,39642,1,0,0:0:0:0:
211,283,39729,1,0,0:0:0:0:
294,340,39903,2,0,P|309:316|311:288,1,56
264,194,40252,1,0,0:0:0:0:
182,176,40427,1,0,0:0:0:0:
168,178,40514,1,0,0:0:0:0:
154,180,40601,1,0,0:0:0:0:
66,109,40775,6,0,P|73:44|132:24,2,125.999996154785
207,256,41822,2,0,L|132:249,1,62.9999980773926
49,240,42171,2,0,P|50:272|63:300,1,62.9999980773926
143,352,42520,2,0,P|171:338|202:337,1,62.9999980773926
291,304,42868,2,0,L|300:229,1,62.9999980773926
384,201,43217,2,0,L|393:276,1,62.9999980773926
480,335,43566,6,0,L|495:209,1,125.999996154785
506,115,44089,1,0,0:0:0:0:
433,53,44264,2,0,L|399:55,3,31.4999990386963
384,71,44613,2,0,L|350:73,3,31.4999990386963
335,89,44961,2,0,P|288:98|209:38,1,125.999996154785
132,29,45485,2,0,L|146:156,1,125.999996154785
224,207,46008,2,0,L|215:269,1,62.9999980773926
129,362,46357,6,0,P|72:357|36:291,1,125.999996154785
53,209,46880,2,0,L|123:198,1,62.9999980773926
193,253,47229,2,0,L|319:263,1,125.999996154785
400,215,47752,2,0,B|427:272|427:272|483:241,2,125.999996154785
467,147,48624,1,0,0:0:0:0:
414,68,48799,2,0,P|373:57|340:61,1,62.9999980773926
233,98,49148,5,0,0:0:0:0:
233,98,49496,2,0,L|242:160,1,62.9999980773926
259,253,49845,1,0,0:0:0:0:
170,219,50020,2,0,P|117:225|90:247,1,62.9999980773926
50,340,50368,6,0,B|77:357|77:357|170:343,1,125.999996154785
239,278,50892,2,0,P|271:276|300:288,1,62.9999980773926
457,329,51241,1,0,0:0:0:0:
367,354,51415,1,0,0:0:0:0:
390,263,51589,2,0,L|407:188,1,62.9999980773926
490,121,51938,6,0,P|446:87|391:84,1,112
326,139,52461,1,0,0:0:0:0:
326,139,52636,2,0,P|313:190|273:215,2,84
280,49,53334,2,0,P|208:48|155:67,1,112
104,112,53857,1,0,0:0:0:0:
164,169,54031,2,0,P|164:234|123:264,1,112
306,363,54729,6,0,P|267:324|272:270,1,112
339,218,55252,1,0,0:0:0:0:
339,218,55427,2,0,P|394:237|448:237,1,112
299,143,56125,1,0,0:0:0:0:
299,143,56299,2,0,L|243:151,2,56
362,85,56822,2,0,P|366:58|361:31,1,56
271,60,57171,2,0,P|235:34|214:29,1,62.9999980773926
104,85,57520,6,0,L|34:93,2,70
31,198,58043,2,0,P|113:188|192:228,1,140
233,288,58566,1,0,0:0:0:0:
318,226,58741,1,0,0:0:0:0:
318,226,58828,1,0,0:0:0:0:
317,225,58915,2,0,P|334:256|337:291,2,70
435,253,59438,2,0,P|435:183|479:106,1,140
398,39,59961,2,0,L|323:55,1,70
250,152,60310,6,0,P|198:107|130:114,1,140
51,184,60834,1,0,0:0:0:0:
78,285,61008,2,0,P|172:316|235:314,1,140
310,278,61531,1,0,0:0:0:0:
384,353,61706,2,0,P|413:291|400:223,1,140
329,145,62229,1,0,0:0:0:0:
383,54,62403,1,0,0:0:0:0:
486,75,62578,1,0,0:0:0:0:
486,75,62665,1,0,0:0:0:0:
486,75,62752,1,0,0:0:0:0:
497,180,62927,6,0,P|435:218|343:213,1,140
266,198,63450,2,0,L|192:214,1,70
71,207,63799,2,0,P|69:270|96:326,2,105
124,93,64496,5,0,0:0:0:0:
130,89,64845,5,0,0:0:0:0:
136,85,65194,5,0,0:0:0:0:
153,87,65281,1,0,0:0:0:0:
170,89,65368,1,0,0:0:0:0:
188,92,65455,1,0,0:0:0:0:
205,94,65543,2,0,L|239:87,3,35
260,83,65892,6,0,P|310:92|344:123,1,83.9999974365235
450,138,66241,2,0,P|396:208|382:287,1,167.999994873047
159,360,66938,1,0,0:0:0:0:
159,360,67113,1,0,0:0:0:0:
53,309,67287,2,0,P|74:273|110:253,1,83.9999974365235
227,237,67636,2,0,L|310:248,1,83.9999974365235
403,321,67985,2,0,P|423:284|428:243,1,83.9999974365235
310,248,68334,2,0,P|289:211|284:170,1,83.9999974365235
431,119,68682,6,0,B|399:148|399:148|275:132,1,167.999994873047
157,114,69206,1,0,0:0:0:0:
45,149,69380,2,0,P|49:67|107:9,1,167.999994873047
157,114,69903,1,0,0:0:0:0:
257,52,70078,2,0,B|284:82|284:82|259:224,1,167.999994873047
187,299,70601,1,0,0:0:0:0:
187,299,70775,2,0,P|154:275|112:270,1,83.9999974365235
284,365,71124,2,0,P|317:340|359:335,1,83.9999974365235
464,281,71473,6,0,L|475:193,1,83.9999974365235
360,226,71822,2,0,L|346:50,1,167.999994873047
120,126,72520,1,0,0:0:0:0:
120,126,72694,1,0,0:0:0:0:
13,78,72868,2,0,P|32:41|68:20,1,83.9999974365235
120,126,73217,2,0,P|161:124|197:145,1,83.9999974365235
255,248,73566,2,0,L|245:331,1,83.9999974365235
132,365,73915,2,0,L|122:282,1,83.9999974365235
34,167,74264,6,0,P|117:171|197:145,1,167.999994873047
294,78,74787,1,0,0:0:0:0:
398,131,74961,1,0,0:0:0:0:
398,131,75136,2,0,P|444:107|488:109,2,83.9999974365235
331,227,75659,2,0,P|284:159|293:78,2,167.999994873047
444,261,76531,1,0,0:0:0:0:
411,374,76706,1,0,0:0:0:0:
394,360,76793,1,0,0:0:0:0:
375,352,76880,1,0,0:0:0:0:
355,348,76967,1,0,0:0:0:0:
334,350,77055,6,0,L|243:368,1,83.9999974365235
138,330,77403,2,0,P|114:297|112:256,1,83.9999974365235
230,256,77752,2,0,P|246:219|281:196,1,83.9999974365235
397,176,78101,2,0,L|488:194,1,83.9999974365235
388,61,78450,2,0,B|330:122|330:122|243:85,1,167.999994873047
144,43,78973,1,0,0:0:0:0:
33,83,79148,2,0,P|19:135|22:178,1,83.9999974365235
64,273,79496,1,0,0:0:0:0:
64,273,79671,1,0,0:0:0:0:
169,220,79845,6,0,B|241:209|250:280|325:268,1,167.999994873047
426,208,80368,1,0,0:0:0:0:
457,94,80543,2,0,P|375:96|320:157,1,167.999994873047
426,208,81066,2,0,P|445:287|402:357,1,167.999994873047
304,291,81589,2,0,P|262:286|222:301,1,83.9999974365235
128,369,81938,1,0,0:0:0:0:
25,310,82113,2,0,L|14:220,2,83.9999974365235
145,249,82636,6,0,L|167:69,1,167.999994873047
263,15,83159,2,0,P|344:21|398:83,1,167.999994873047
484,164,83682,2,0,P|458:197|445:255,1,83.9999974365235
394,343,84031,2,0,L|488:362,1,83.9999974365235
363,220,84380,2,0,L|445:236,1,83.9999974365235
271,145,84729,1,0,0:0:0:0:
271,145,84903,1,0,0:0:0:0:
253,263,85078,1,0,0:0:0:0:
161,188,85252,1,0,0:0:0:0:
161,188,85339,1,0,0:0:0:0:
161,188,85427,6,0,P|113:184|74:213,2,83.9999974365235
253,263,85950,2,0,P|273:306|318:325,2,83.9999974365235
270,145,86473,2,0,P|296:112|298:70,1,83.9999974365235
196,10,86822,1,0,0:0:0:0:
107,87,86996,1,0,0:0:0:0:
107,87,87084,1,0,0:0:0:0:
107,87,87171,2,0,L|119:177,1,83.9999974365235
134,287,87520,1,0,0:0:0:0:
245,251,87694,2,0,L|250:207,2,41.9999987182618
321,341,88043,1,0,0:0:0:0:
321,341,88130,1,0,0:0:0:0:
321,341,88217,6,0,P|368:324|406:326,1,83.9999974365235
488,245,88566,2,0,P|436:208|323:195,1,167.999994873047
112,271,89264,1,0,0:0:0:0:
112,271,89438,1,0,0:0:0:0:
35,180,89613,2,0,L|47:94,1,83.9999974365235
149,40,89961,2,0,L|161:126,1,83.9999974365235
234,215,90310,2,0,P|286:177|327:174,1,83.9999974365235
324,57,90659,2,0,P|363:69|394:96,1,83.9999974365235
497,203,91008,6,0,P|464:279|454:373,1,167.999994873047
371,278,91531,1,0,0:0:0:0:
270,339,91706,2,0,P|203:337|111:299,1,167.999994873047
32,210,92229,1,0,0:0:0:0:
72,99,92403,2,0,L|241:81,1,167.999994873047
337,15,92927,1,0,0:0:0:0:
337,15,93101,2,0,P|355:52|356:93,1,83.9999974365235
263,213,93450,2,0,P|300:194|341:193,1,83.9999974365235
459,193,93799,6,0,L|443:275,1,83.9999974365235
353,352,94148,2,0,P|266:316|170:322,1,167.999994873047
43,135,94845,1,0,0:0:0:0:
43,135,95020,1,0,0:0:0:0:
131,58,95194,2,0,L|214:74,1,83.9999974365235
330,59,95543,2,0,L|314:142,1,83.9999974365235
224,218,95892,2,0,P|189:195|147:196,1,83.9999974365235
74,288,96241,2,0,P|108:310|150:309,1,83.9999974365235
255,361,96589,6,0,P|303:311|420:321,1,167.999994873047
487,54,97287,2,0,P|426:109|344:107,1,167.999994873047
253,31,97810,1,0,0:0:0:0:
212,141,97985,1,0,0:0:0:0:
102,100,98159,2,0,P|58:100|15:122,2,83.9999974365235
212,141,98682,1,0,0:0:0:0:
214,161,98769,1,0,0:0:0:0:
216,182,98856,1,0,0:0:0:0:
218,203,98943,1,0,0:0:0:0:
220,224,99031,2,0,L|206:281,3,41.9999987182618
203,285,99380,6,0,L|95:271,1,83.9999974365235
45,182,99729,2,0,L|153:168,1,83.9999974365235
210,86,100078,2,0,P|269:68|368:140,1,167.999994873047
465,345,100775,1,0,0:0:0:0:
369,275,100950,2,0,L|326:282,2,41.9999987182618
478,227,101299,1,0,0:0:0:0:
478,227,101386,1,0,0:0:0:0:
478,227,101473,2,0,L|484:179,3,41.9999987182618
471,156,101822,2,0,L|477:108,3,41.9999987182618
464,85,102171,6,0,P|410:126|312:126,1,167.999994873047
207,73,102694,1,0,0:0:0:0:
154,179,102868,1,0,0:0:0:0:
48,126,103043,2,0,L|42:78,2,41.9999987182618
154,179,103392,1,0,0:0:0:0:
154,179,103479,1,0,0:0:0:0:
154,179,103566,2,0,L|145:286,1,83.9999974365235
259,225,103915,2,0,L|250:332,1,83.9999974365235
364,271,104264,1,0,0:0:0:0:
469,317,104438,1,0,0:0:0:0:
469,317,104613,2,0,L|476:233,1,83.9999974365235
432,88,104961,6,0,P|404:120|364:130,1,83.9999974365235
253,91,105310,1,0,0:0:0:0:
253,91,105485,1,0,0:0:0:0:
154,154,105659,1,0,0:0:0:0:
154,154,105834,2,0,L|72:141,1,83.9999974365235
32,277,106182,2,0,L|212:253,1,167.999994873047
292,182,106706,1,0,0:0:0:0:
364,276,106880,1,0,0:0:0:0:
364,276,106967,1,0,0:0:0:0:
364,276,107055,2,0,P|429:291|494:242,2,125.999996154785
274,156,107752,6,0,P|281:84|378:37,1,167.999994873047
469,72,108275,1,0,0:0:0:0:
428,182,108450,1,0,0:0:0:0:
428,182,108624,2,0,L|442:264,1,83.9999974365235
365,354,108973,2,0,B|334:327|334:327|209:342,1,167.999994873047
99,295,109496,1,0,0:0:0:0:
195,223,109671,1,0,0:0:0:0:
195,223,109758,1,0,0:0:0:0:
195,223,109845,1,0,0:0:0:0:
85,176,110020,2,0,P|73:135|74:94,1,83.9999974365235
173,31,110368,1,0,0:0:0:0:
173,31,110456,1,0,0:0:0:0:
173,31,110543,6,0,L|272:41,1,83.9999974365235
365,85,110892,2,0,P|374:135|357:193,1,83.9999974365235
255,202,111241,2,0,P|246:252|263:310,1,83.9999974365235
339,361,111589,1,0,0:0:0:0:
436,294,111764,1,0,0:0:0:0:
436,294,111851,1,0,0:0:0:0:
436,294,111938,5,0,0:0:0:0:
453,177,112113,1,0,0:0:0:0:
470,60,112287,1,0,0:0:0:0:
470,60,113334,6,0,B|395:42|399:117|312:95,1,167.999994873047
205,46,113857,1,0,0:0:0:0:
205,46,114031,2,0,L|118:59,1,83.9999974365235
68,163,114380,2,0,L|151:175,1,83.9999974365235
248,241,114729,1,0,0:0:0:0:
248,241,114903,1,0,0:0:0:0:
350,182,115078,1,0,0:0:0:0:
350,182,115252,1,0,0:0:0:0:
447,248,115427,1,0,0:0:0:0:
445,268,115514,1,0,0:0:0:0:
443,289,115601,1,0,0:0:0:0:
441,310,115688,1,0,0:0:0:0:
439,331,115775,2,0,L|405:364,3,41.9999987182618
381,353,116124,6,0,P|312:325|230:346,1,154.000004699707
151,304,116648,1,0,0:0:0:0:
73,353,116822,2,0,P|63:278|111:221,1,154.000004699707
199,194,117345,1,0,0:0:0:0:
273,248,117520,2,0,P|386:246|440:204,1,154.000004699707
478,155,118043,2,0,L|485:76,1,77.0000023498536
412,19,118392,1,0,0:0:0:0:
412,19,118566,2,0,P|352:54|323:54,1,77.0000023498536
178,125,118915,6,0,P|185:53|255:35,1,154.000004699707
332,86,119438,1,0,0:0:0:0:
357,174,119613,2,0,P|338:251|261:302,1,154.000004699707
215,361,120136,1,0,0:0:0:0:
130,323,120310,2,0,P|114:228|121:142,1,154.000004699707
73,87,120834,1,0,0:0:0:0:
73,87,120921,1,0,0:0:0:0:
73,87,121008,2,0,P|121:76|167:91,1,77.0000023498536
229,123,121357,1,0,0:0:0:0:
323,56,121531,1,0,0:0:0:0:
323,56,121618,1,0,0:0:0:0:
323,56,121706,6,0,P|378:46|448:109,2,154.000004699707
258,122,122578,1,0,0:0:0:0:
258,122,122752,2,0,L|266:198,1,77.0000023498536
214,275,123101,2,0,L|61:298,2,154.000004699707
286,332,123973,1,0,0:0:0:0:
372,301,124148,1,0,0:0:0:0:
384,285,124235,1,0,0:0:0:0:
392,268,124322,1,0,0:0:0:0:
397,249,124409,1,0,0:0:0:0:
397,230,124496,6,0,P|386:142|400:68,1,154.000004699707
320,25,125020,1,0,0:0:0:0:
286,111,125194,2,0,P|220:149|127:126,1,154.000004699707
70,83,125717,1,0,0:0:0:0:
19,160,125892,2,0,L|30:240,1,77.0000023498536
121,246,126241,2,0,L|110:326,1,77.0000023498536
188,370,126589,1,0,0:0:0:0:
204,358,126676,1,0,0:0:0:0:
222,350,126763,1,0,0:0:0:0:
240,346,126850,1,0,0:0:0:0:
259,345,126938,2,0,L|336:357,1,77.0000023498536
462,302,127287,6,0,P|430:283|392:283,1,77.0000023498536
358,196,127636,2,0,P|324:214|305:247,1,77.0000023498536
233,305,127985,2,0,P|213:272|213:234,1,77.0000023498536
142,174,128334,1,0,0:0:0:0:
167,85,128508,1,0,0:0:0:0:
167,85,128595,1,0,0:0:0:0:
167,85,128682,2,0,L|321:71,1,154.000004699707
396,17,129206,1,0,0:0:0:0:
470,71,129380,1,0,0:0:0:0:
434,156,129555,2,0,L|440:197,2,38.5000011749268
347,188,129903,1,0,0:0:0:0:
327,185,129990,1,0,0:0:0:0:
308,183,130078,6,0,B|118:147|102:275|92:329|134:366|270:333|217:222|70:180|144:42,1,560
305,64,131822,2,0,L|313:18,2,46.6666666666667
299,99,132171,1,0,0:0:0:0:
