osu file format v14

[General]
AudioFilename: audio.mp3
AudioLeadIn: 0
PreviewTime: 93572
Countdown: 0
SampleSet: Soft
StackLeniency: 0.3
Mode: 0
LetterboxInBreaks: 0
WidescreenStoryboard: 0

[Editor]
Bookmarks: 750,18814,35588,51072,71717,94943,115588,136233,151717,167201,187846,208491,226556,226637,226717,226798,226879,226959,227040,227120,227201,227282,227362,227443,227524,227604,227685,227766,227846,227927,228008,228088,228169,228249,228330,228411,228491,228572,228653,228733,228814,228895,228975,229056,229137,229217,229298,229379,229459,229540,229620,229701,229782,229862,229943,230024,230104,230185,230266,230346,230427,230508,230588,230669,230749,230830,230911,230991,231072,231153,231233,231314,231395,231475,231556,231637,231717,231798,231879,231959,232040,232120,232201,232282,232362,232443,232524,232604,232685,232766,232846,232927,233008,233088,233169,233249,233330,233411,233491,233572,233653,233733,233814,233895,233975,234056,234137,234217,234298,234379,234459,234540,234620,234701,234782,234862,234943,235024,235104,235185,235266,235346,235427,235508,235588,235669,235749,235830,235911,235991,236072,236153,236233,252362,270427,270508,270588,270669,270749,270830,270911,270991,271072,271153,271233,271314,271395,271475,271556,271637,271717,271798,271879,271959,272040,272120,272201,272282,272362,272443,272524,272604,272685,272766,272846,272927,273008,273088,273169,273249,273330,273411,273491,273572,273653,273733,273814,273895,273975,274056,274137,274217,274298,274379,274459,274540,274620,274701,274782,274862,274943,275024,275104,275185,275266,275346,275427,275508,275588,275669,275749,275830,275911,275991,276072,276153,276233,276314,276395,276475,276556,276637,276717,276798,276879,276959,277040,277120,277201,277282,277362,277443,277524,277604,277685,277766,277846,277927,278008,278088,278169,278249,278330,278411,278491,278572,278653,278733,278814,278895,278975,279056,279137,279217,279298,279379,279459,279540,279620,279701,279782,279862,279943,280024,280104,291072,311717,339943
DistanceSpacing: 1.4
BeatDivisor: 4
GridSize: 4
TimelineZoom: 1.9

[Metadata]
Title:Kimi to no Asu o Negau kara
TitleUnicode:君との明日を願うから
Artist:Yamazaki Haruka, Tadokoro Azusa, Machico
ArtistUnicode:山崎はるか、田所あずさ、Machico
Creator:Andrea
Version:We are all MILLION!!
Source:アイドルマスター ミリオンライブ!
Tags:Anime Japanese Pop J-Pop JPop osuplayer111 Sekai Sekaii Sekai-nyan Idolmaster Imas Im@s Idolm@ster Million Live Idol Mogami Shizuka Ibuki Tsubasa Mirai Kasuga 最上静香 伊吹翼 春日未来
BeatmapID:3632720
BeatmapSetID:1774192

[Difficulty]
HPDrainRate:6
CircleSize:4
OverallDifficulty:9
ApproachRate:9.2
SliderMultiplier:1.6
SliderTickRate:1

[Events]
//Background and Video events
0,0,"5.jpg",0,0
//Break Periods
2,226756,235663
2,270427,279534
//Storyboard Layer 0 (Background)
//Storyboard Layer 1 (Fail)
//Storyboard Layer 2 (Pass)
//Storyboard Layer 3 (Foreground)
//Storyboard Layer 4 (Overlay)
//Storyboard Sound Samples

[TimingPoints]
750,322.58064516129,4,2,1,40,1,0
750,-125,4,2,1,40,0,0
2603,-125,4,2,1,5,0,0
2685,-125,4,2,1,40,0,0
7120,-125,4,2,1,5,0,0
7201,-125,4,2,1,50,0,0
18733,-125,4,2,1,5,0,0
18814,-100,4,2,1,70,0,0
23330,-100,4,2,1,5,0,0
23491,-100,4,2,1,70,0,0
29137,-125,4,2,1,60,0,0
30427,-111.111111111111,4,2,1,60,0,0
40668,-111.111111111111,4,2,1,5,0,0
40749,-111.111111111111,4,2,1,60,0,0
48491,-111.111111111111,4,2,1,70,0,0
51072,-100,4,2,1,70,0,0
66072,-100,4,2,1,70,0,0
69861,-100,4,2,1,5,0,0
69943,-100,4,2,1,70,0,0
71717,-111.111111111111,4,2,1,60,0,0
76797,-111.111111111111,4,2,1,5,0,0
76879,-111.111111111111,4,2,1,60,0,0
81313,-111.111111111111,4,2,1,5,0,0
81395,-111.111111111111,4,2,1,60,0,0
81636,-111.111111111111,4,2,1,5,0,0
81717,-111.111111111111,4,2,1,60,0,0
82040,-100,4,2,1,70,0,0
86797,-100,4,2,1,5,0,0
86879,-100,4,2,1,70,0,0
88732,-100,4,2,1,5,0,0
88814,-100,4,2,1,70,0,0
89620,-100,4,2,1,5,0,0
89700,-100,4,2,1,5,0,0
89782,-100,4,2,1,70,0,0
90507,-100,4,2,1,5,0,0
90588,-100,4,2,1,70,0,0
91474,-100,4,2,1,5,0,0
91556,-100,4,2,1,70,0,0
94943,-90.9090909090909,4,2,1,80,0,1
103975,-90.9090909090909,4,2,1,5,0,1
104137,-90.9090909090909,4,2,1,80,0,1
105507,-90.9090909090909,4,2,1,5,0,1
105588,-90.9090909090909,4,2,1,80,0,1
115829,-90.9090909090909,4,2,1,5,0,1
115911,-90.9090909090909,4,2,1,80,0,1
116474,-90.9090909090909,4,2,1,5,0,1
116556,-90.9090909090909,4,2,1,80,0,1
117765,-90.9090909090909,4,2,1,5,0,1
117846,-90.9090909090909,4,2,1,80,0,1
118410,-90.9090909090909,4,2,1,5,0,1
118491,-90.9090909090909,4,2,1,80,0,1
126152,-90.9090909090909,4,2,1,5,0,1
126233,-90.9090909090909,4,2,1,80,0,1
128087,-90.9090909090909,4,2,1,5,0,1
128169,-90.9090909090909,4,2,1,80,0,1
128732,-90.9090909090909,4,2,1,5,0,1
128814,-90.9090909090909,4,2,1,80,0,1
131313,-90.9090909090909,4,2,1,5,0,1
131395,-90.9090909090909,4,2,1,80,0,1
136233,-100,4,2,1,80,0,0
136474,-100,4,2,1,5,0,0
136556,-100,4,2,1,80,0,0
140588,-100,4,2,1,5,0,0
140749,-100,4,2,1,80,0,0
141636,-100,4,2,1,5,0,0
141717,-100,4,2,1,80,0,0
146556,-100,4,2,1,70,0,0
152524,-100,4,2,1,70,0,0
154216,-100,4,2,1,5,0,0
154298,-100,4,2,1,70,0,0
156879,-100,4,2,1,70,0,0
159700,-100,4,2,1,5,0,0
159782,-100,4,2,1,70,0,0
160023,-100,4,2,1,5,0,0
160104,-100,4,2,1,70,0,0
162281,-100,4,2,1,5,0,0
162362,-100,4,2,1,70,0,0
162846,-100,4,2,1,70,0,0
163249,-100,4,2,1,5,0,0
163330,-100,4,2,1,70,0,0
167201,-111.111111111111,4,2,1,60,0,0
176474,-111.111111111111,4,2,1,5,0,0
176556,-111.111111111111,4,2,1,60,0,0
177524,-100,4,2,1,60,0,0
182685,-100,4,2,1,70,0,0
186072,-100,4,2,1,70,0,0
187846,-90.9090909090909,4,2,1,80,0,1
193249,-90.9090909090909,4,2,1,5,0,1
193330,-90.9090909090909,4,2,1,80,0,1
193814,-90.9090909090909,4,2,1,80,0,1
194216,-90.9090909090909,4,2,1,5,0,1
194298,-90.9090909090909,4,2,1,80,0,1
197765,-90.9090909090909,4,2,1,5,0,1
197846,-90.9090909090909,4,2,1,80,0,1
198410,-90.9090909090909,4,2,1,5,0,1
198491,-90.9090909090909,4,2,1,80,0,1
200345,-90.9090909090909,4,2,1,5,0,1
200427,-90.9090909090909,4,2,1,80,0,1
200990,-90.9090909090909,4,2,1,5,0,1
201072,-90.9090909090909,4,2,1,80,0,1
208732,-90.9090909090909,4,2,1,5,0,1
208814,-90.9090909090909,4,2,1,80,0,1
218732,-90.9090909090909,4,2,1,5,0,1
218814,-90.9090909090909,4,2,1,80,0,1
226556,-125,4,2,1,80,0,0
236879,-100,4,2,1,80,0,0
239378,-100,4,2,1,5,0,0
239459,-100,4,2,1,80,0,0
242281,-100,4,2,1,5,0,0
242362,-100,4,2,1,80,0,0
247201,-100,4,2,1,70,0,0
248732,-100,4,2,1,5,0,0
248814,-100,4,2,1,70,0,0
251233,-100,4,2,1,70,0,0
261636,-100,4,2,1,5,0,0
261717,-100,4,2,1,70,0,0
267846,-125,4,2,1,50,0,0
269137,-125,4,2,1,50,0,0
270427,-125,4,2,1,40,0,0
280104,-125,4,2,1,60,0,0
280749,-111.111111111111,4,2,1,60,0,0
285911,-100,4,2,1,70,0,0
291072,-90.9090909090909,4,2,1,80,0,1
295749,-90.9090909090909,4,2,1,5,0,1
295911,-90.9090909090909,4,2,1,80,0,1
300990,-90.9090909090909,4,2,1,5,0,1
301072,-90.9090909090909,4,2,1,80,0,1
301313,-90.9090909090909,4,2,1,5,0,1
301395,-90.9090909090909,4,2,1,80,0,1
304216,-90.9090909090909,4,2,1,5,0,1
304298,-90.9090909090909,4,2,1,80,0,1
310427,-83.3333333333333,4,2,1,80,0,1
311314,-90.9090909090909,4,2,1,5,0,1
311395,-90.9090909090909,4,2,1,80,0,1
311636,-90.9090909090909,4,2,1,5,0,1
311717,-100,4,2,1,80,0,0
312603,-100,4,2,1,5,0,0
312685,-100,4,2,1,80,0,0
313894,-100,4,2,1,5,0,0
313975,-100,4,2,1,80,0,0
317120,-100,4,2,1,5,0,0
317201,-100,4,2,1,80,0,0
317685,-100,4,2,1,80,0,0
318087,-100,4,2,1,5,0,0
318169,-100,4,2,1,80,0,0
320829,-100,4,2,1,5,0,0
320911,-100,4,2,1,80,0,0
322040,-111.111111111111,4,2,1,70,0,0
325749,-100,4,2,1,70,0,0
327201,-125,4,2,1,60,0,0
328330,-125,4,2,1,5,0,0
328491,-125,4,2,1,60,0,0
329137,-100,4,2,1,60,0,0
329782,-100,4,2,1,80,0,0
330023,-100,4,2,1,5,0,0
330104,-100,4,2,1,80,0,0
330990,-100,4,2,1,5,0,0
331072,-100,4,2,1,80,0,0

[Colours]
Combo1 : 128,191,255
Combo2 : 170,170,213
Combo3 : 255,128,128
Combo4 : 255,255,128
SliderBorder : 200,200,200
SliderTrackOverride : 25,34,58

[HitObjects]
116,172,750,6,0,P|144:148|152:120,1,64,2|2,0:0|0:0,0:0:0:0:
168,32,1072,1,2,0:0:0:0:
240,96,1233,2,0,B|300:80|296:124|364:108,2,128,2|2|2,0:0|0:0|0:0,0:0:0:0:
448,84,2362,2,0,P|448:124|408:180,1,96,2|0,0:0|0:0,0:0:0:0:
392,200,2685,1,2,0:0:0:0:
340,352,3008,1,2,0:0:0:0:
228,232,3330,6,0,P|220:268|204:288,1,64,2|2,0:0|0:0,0:0:0:0:
120,320,3653,1,2,0:0:0:0:
76,244,3814,2,0,P|76:180|124:128,2,128,2|2|2,0:0|0:0|0:0,0:0:0:0:
76,244,5911,5,2,0:0:0:0:
208,128,6233,1,2,0:0:0:0:
228,304,6556,1,2,0:0:0:0:
352,180,6879,2,0,P|388:192|416:188,1,64,2|2,0:0|0:0,0:0:0:0:
404,44,7201,6,0,P|406:75|395:105,1,64,2|2,0:0|0:0,0:0:0:0:
316,64,7524,1,2,0:0:0:0:
316,64,7685,2,0,B|264:60|244:28|244:28|196:24,1,128,2|2,0:0|0:0,0:0:0:0:
180,164,8169,2,0,P|200:132|204:100,1,64,2|2,0:2|0:2,0:0:0:0:
72,76,8491,6,0,P|48:116|40:200,1,128,2|2,0:2|0:2,0:0:0:0:
208,332,9137,2,0,P|144:328|88:299,1,128,2|2,0:2|0:2,0:0:0:0:
168,124,9782,2,0,P|284:48|448:188,1,384,2|2,0:2|0:2,0:0:0:0:
456,280,10911,1,2,0:2:0:0:
376,332,11072,2,0,B|304:300|252:360|252:360|188:304|112:356|112:356|-4:264|60:160,1,512,2|2,0:0|0:0,0:0:0:0:
57,164,13330,5,2,0:2:0:0:
141,128,13491,1,2,0:2:0:0:
180,212,13653,2,0,P|220:248|296:236,1,128,2|2,0:2|0:2,0:0:0:0:
252,156,14137,1,2,0:2:0:0:
252,156,14943,6,0,P|241:94|280:46,1,128,2|2,0:2|0:2,0:0:0:0:
456,88,15588,2,0,P|466:149|427:197,1,128,2|2,0:2|0:2,0:0:0:0:
328,228,16072,1,2,0:2:0:0:
252,156,16233,2,0,B|176:48|32:64|32:64|136:168|56:300,1,512,2|2,0:0|0:0,0:0:0:0:
55,300,18330,5,8,0:2:0:0:
200,360,18491,2,0,P|248:372|296:344,1,96,8|0,0:1|0:0,0:0:0:0:
324,336,18814,6,0,P|332:294|351:173,1,160,14|8,0:2|0:1,0:0:0:0:
401,56,19298,2,0,P|438:56|480:81,1,80,2|8,0:0|0:2,0:0:0:0:
324,40,19620,1,8,0:2:0:0:
350,178,19781,1,10,0:1:0:0:
475,76,19942,1,10,0:2:0:0:
248,56,20104,6,0,P|261:106|271:142,1,80,10|8,0:2|0:2,0:0:0:0:
209,267,20427,1,10,0:1:0:0:
308,224,20588,1,0,0:0:0:0:
179,166,20749,2,0,P|128:167|83:169,1,80,10|8,0:2|0:2,0:0:0:0:
219,339,21072,2,0,B|229:297|229:297|206:262,1,80,10|0,0:1|0:0,0:0:0:0:
339,356,21395,6,0,P|378:334|487:273,1,160,10|8,0:2|0:1,0:0:0:0:
375,154,21879,2,0,P|373:219|371:244,1,80,2|8,0:0|0:2,0:0:0:0:
252,262,22201,1,8,0:2:0:0:
271,103,22362,1,10,0:1:0:0:
371,233,22524,1,2,0:0:0:0:
271,103,22685,6,0,P|220:154|122:142,1,160,10|8,0:2|0:1,0:0:0:0:
47,36,23169,2,0,P|102:48|139:56,1,80,14|0,0:2|0:0,0:0:0:0:
37,175,23491,1,8,0:2:0:0:
194,80,23653,1,14,0:1:0:0:
47,36,23814,1,10,0:2:0:0:
131,219,23975,6,0,P|183:230|293:252,1,160,14|14,0:2|0:1,0:0:0:0:
447,226,24459,2,0,P|424:271|405:311,1,80,2|8,0:0|0:2,0:0:0:0:
326,138,24782,1,8,0:2:0:0:
463,103,24943,2,0,P|500:134|532:157,1,80,8|0,0:1|0:1,0:0:0:0:
326,138,25266,5,14,0:2:0:0:
407,30,25427,1,8,0:2:0:0:
447,226,25588,1,10,0:1:0:0:
329,46,25749,1,8,0:3:0:0:
329,46,25830,1,8,0:3:0:0:
329,46,25911,2,0,P|285:52|258:81,1,80,4|8,0:3|0:2,0:0:0:0:
120,172,26233,2,0,P|183:188|214:199,1,80,14|8,0:1|0:2,0:0:0:0:
349,315,26556,5,14,0:1:0:0:
197,192,26717,1,8,0:2:0:0:
358,136,26879,1,8,0:2:0:0:
252,319,27040,5,14,0:1:0:0:
239,96,27201,1,8,0:2:0:0:
407,248,27362,1,8,0:2:0:0:
392,63,27524,6,0,P|371:109|354:143,1,80,14|8,0:1|0:3,0:0:0:0:
314,319,27846,1,14,0:2:0:0:
436,183,28008,1,8,0:1:0:0:
436,183,28088,1,8,0:1:0:0:
436,183,28169,1,8,0:2:0:0:
234,233,28330,1,8,0:2:0:0:
452,321,28491,5,10,0:1:0:0:
294,132,28653,1,10,0:1:0:0:
345,364,28814,1,10,0:1:0:0:
458,125,28975,1,10,0:1:0:0:
234,233,29137,5,2,0:0:0:0:
234,153,29298,1,2,0:0:0:0:
157,128,29459,1,2,0:0:0:0:
110,193,29620,1,2,0:0:0:0:
157,258,29782,1,2,0:0:0:0:
234,233,29943,1,2,0:0:0:0:
234,153,30104,2,0,P|277:138|300:131,1,64,6|2,0:2|0:0,0:0:0:0:
322,125,30346,5,2,0:0:0:0:
322,125,30427,2,0,P|328:161|332:205,1,71.9999978027344,12|0,0:2|0:0,0:0:0:0:
431,339,30749,2,0,P|398:310|353:306,1,71.9999978027344,10|0,0:2|0:0,0:0:0:0:
241,320,31072,2,0,P|253:259|259:236,1,71.9999978027344,10|0,0:2|0:0,0:0:0:0:
135,159,31395,2,0,P|143:194|149:229,1,71.9999978027344,10|0,0:2|0:0,0:0:0:0:
58,39,31717,6,0,P|119:54|213:75,1,143.999995605469,10|10,0:2|0:2,0:0:0:0:
379,16,32201,2,0,P|339:50|336:152,1,143.999995605469,2|2,0:2|0:2,0:0:0:0:
412,236,32685,2,0,P|432:204|436:164,1,71.9999978027344,8|2,0:2|0:0,0:0:0:0:
258,122,33008,6,0,P|313:133|345:141,1,71.9999978027344,10|0,0:2|0:0,0:0:0:0:
192,32,33330,2,0,P|144:34|116:59,1,71.9999978027344,8|0,0:2|0:0,0:0:0:0:
45,161,33653,2,0,P|101:161|135:163,1,71.9999978027344,8|0,0:2|0:0,0:0:0:0:
257,193,33975,2,0,P|257:137|259:103,1,71.9999978027344,10|2,0:2|0:2,0:0:0:0:
328,284,34298,6,0,P|277:279|173:273,1,143.999995605469,10|8,0:2|0:2,0:0:0:0:
69,348,34782,1,0,0:0:0:0:
69,348,34943,2,0,P|79:299|84:268,1,71.9999978027344,10|0,0:2|0:0,0:0:0:0:
198,202,35266,2,0,P|188:251|183:282,1,71.9999978027344,14|2,0:2|0:0,0:0:0:0:
176,313,35508,5,2,0:0:0:0:
176,313,35588,2,0,P|215:345|302:300,1,143.999995605469,14|10,0:2|0:2,0:0:0:0:
376,232,36072,1,0,0:0:0:0:
456,148,36233,2,0,P|480:184|476:292,1,143.999995605469,10|10,0:2|0:2,0:0:0:0:
396,360,36717,1,0,0:0:0:0:
376,232,36879,6,0,B|360:176|360:176|336:160|336:160|320:104,1,143.999995605469,10|10,0:2|0:2,0:0:0:0:
220,40,37362,2,0,B|152:20|152:72|80:40,2,143.999995605469,2|2|2,0:2|0:2|0:2,0:0:0:0:
140,248,38169,6,0,P|176:204|192:120,1,143.999995605469,10|8,0:2|0:2,0:0:0:0:
192,120,38814,2,0,P|224:100|260:100,1,71.9999978027344,10|0,0:2|0:0,0:0:0:0:
356,188,39137,2,0,P|324:208|288:208,1,71.9999978027344,10|2,0:2|0:2,0:0:0:0:
380,100,39459,6,0,P|424:132|444:232,1,143.999995605469,10|8,0:2|0:2,0:0:0:0:
432,332,39943,2,0,B|384:328|356:352|356:352|284:340,1,143.999995605469,2|2,0:2|0:0,0:0:0:0:
240,184,40427,2,0,P|208:216|208:276,1,107.999996704102,12|0,0:2|0:0,0:0:0:0:
196,320,40749,6,0,P|136:336|64:292,1,143.999995605469,14|10,0:2|0:2,0:0:0:0:
20,192,41233,1,0,0:0:0:0:
108,120,41395,2,0,P|168:104|240:148,1,143.999995605469,10|10,0:2|0:2,0:0:0:0:
236,142,42040,2,0,P|264:106|268:78,1,71.9999978027344,10|0,0:2|0:0,0:0:0:0:
360,8,42362,1,10,0:2:0:0:
428,104,42524,2,0,P|392:144|388:240,1,143.999995605469,2|0,0:2|0:0,0:0:0:0:
428,348,43008,1,10,0:2:0:0:
428,348,43330,6,0,B|395:328|359:340|359:340|334:309|280:309,1,143.999995605469,10|10,0:2|0:2,0:0:0:0:
180,288,43814,1,0,0:0:0:0:
260,204,43975,2,0,P|300:164|320:76,1,143.999995605469,10|10,0:2|0:2,0:0:0:0:
232,8,44459,1,2,0:2:0:0:
320,81,44620,2,0,P|360:93|464:57,1,143.999995605469,10|8,0:2|0:2,0:0:0:0:
500,180,45104,2,0,P|495:251|455:309,1,143.999995605469,2|2,0:0|0:0,0:0:0:0:
352,368,45588,1,14,0:2:0:0:
455,309,45749,1,0,0:0:0:0:
312,272,45911,6,0,B|268:264|236:288|236:288|172:256,1,143.999995605469,14|10,0:2|0:2,0:0:0:0:
72,208,46395,1,0,0:0:0:0:
176,152,46556,2,0,P|208:120|216:20,1,143.999995605469,10|10,0:2|0:2,0:0:0:0:
218,25,47201,2,0,B|162:37|162:37|146:57|146:57|82:69,1,143.999995605469,10|10,0:2|0:2,0:0:0:0:
24,168,47685,1,0,0:0:0:0:
120,236,47846,2,0,B|176:224|176:224|192:204|192:204|256:192,1,143.999995605469,10|14,0:2|0:1,0:0:0:0:
360,80,48330,5,8,0:1:0:0:
360,80,48411,1,8,0:1:0:0:
360,80,48491,1,14,0:2:0:0:
468,148,48653,1,8,0:2:0:0:
392,248,48814,2,0,P|348:264|312:316,1,107.999996704102,8|8,0:1|0:1,0:0:0:0:
308,352,49137,1,2,0:2:0:0:
456,304,49298,1,8,0:2:0:0:
324,184,49459,2,0,P|312:148|280:124,1,71.9999978027344,8|8,0:1|0:2,0:0:0:0:
140,28,49782,5,6,0:3:0:0:
60,128,49943,1,8,0:2:0:0:
60,128,50024,1,8,0:2:0:0:
60,128,50104,1,10,0:1:0:0:
232,64,50266,2,0,B|284:60|308:12|308:12|360:24,1,143.999995605469,14|8,0:2|0:1,0:0:0:0:
400,36,50669,1,8,0:1:0:0:
400,36,50749,1,4,0:3:0:0:
488,144,50911,1,8,0:1:0:0:
337,333,51072,5,14,0:2:0:0:
300,197,51233,1,0,0:0:0:0:
421,287,51395,1,10,0:1:0:0:
260,271,51556,1,0,0:0:0:0:
373,209,51717,2,0,P|380:169|390:131,1,80,10|8,0:2|0:2,0:0:0:0:
232,64,52040,2,0,P|253:112|266:156,1,80,10|0,0:1|0:0,0:0:0:0:
167,275,52362,5,10,0:2:0:0:
156,142,52524,1,8,0:2:0:0:
247,243,52685,1,10,0:1:0:0:
75,228,52846,2,0,P|68:267|62:307,1,80,10|0,0:2|0:0,0:0:0:0:
156,142,53169,2,0,P|111:121|70:99,1,80,10|8,0:2|0:1,0:0:0:0:
167,275,53491,1,2,0:2:0:0:
232,64,53653,6,0,P|307:67|353:134,1,160,10|8,0:2|0:1,0:0:0:0:
299,263,54137,1,2,0:0:0:0:
260,136,54298,1,8,0:2:0:0:
377,204,54459,1,8,0:2:0:0:
213,206,54620,2,0,P|204:250|196:286,1,80,10|2,0:1|0:2,0:0:0:0:
340,124,54943,5,8,0:2:0:0:
321,310,55104,1,8,0:2:0:0:
441,175,55266,1,8,0:1:0:0:
308,327,55427,2,0,P|266:312|224:296,1,80,14|8,0:2|0:2,0:0:0:0:
192,284,55669,1,8,0:1:0:0:
192,284,55749,1,8,0:2:0:0:
268,146,55911,2,0,P|265:199|264:239,1,80,10|0,0:1|0:0,0:0:0:0:
71,352,56233,6,0,P|68:299|67:259,1,80,14|0,0:2|0:0,0:0:0:0:
179,352,56556,1,10,0:1:0:0:
136,185,56717,2,0,P|78:164|-18:212,1,160,2|8,0:2|0:2,0:0:0:0:
117,18,57201,2,0,P|130:73|140:110,1,80,8|0,0:1|0:0,0:0:0:0:
247,240,57524,5,10,0:2:0:0:
271,76,57685,1,2,0:0:0:0:
136,185,57846,2,0,P|177:171|216:156,1,80,10|0,0:1|0:0,0:0:0:0:
322,267,58169,2,0,P|284:252|246:239,1,80,10|8,0:2|0:2,0:0:0:0:
118,326,58491,2,0,P|170:317|200:342,1,80,10|0,0:1|0:0,0:0:0:0:
11,369,58814,6,0,P|28:314|63:204,1,160,10|8,0:2|0:1,0:0:0:0:
137,62,59298,1,0,0:0:0:0:
142,231,59459,1,10,0:2:0:0:
56,111,59620,1,10,0:2:0:0:
236,111,59782,2,0,P|191:132|160:148,1,80,10|2,0:1|0:2,0:0:0:0:
327,229,60104,5,8,0:2:0:0:
425,72,60266,1,8,0:2:0:0:
430,240,60427,1,8,0:1:0:0:
309,131,60588,2,0,P|360:144|401:153,1,80,10|0,0:2|0:0,0:0:0:0:
449,278,60911,1,8,0:2:0:0:
297,303,61072,2,0,P|316:255|329:223,1,80,10|0,0:1|0:0,0:0:0:0:
141,320,61395,5,14,0:2:0:0:
202,166,61556,1,0,0:0:0:0:
51,211,61717,2,0,P|99:230|131:243,1,80,10|2,0:1|0:2,0:0:0:0:
112,57,62040,1,10,0:2:0:0:
51,211,62201,1,8,0:2:0:0:
183,115,62362,1,10,0:1:0:0:
11,128,62524,1,2,0:0:0:0:
195,31,62685,6,0,P|265:40|361:52,1,160,10|10,0:2|0:1,0:0:0:0:
449,156,63169,1,0,0:0:0:0:
312,206,63330,2,0,P|322:154|329:112,1,80,10|8,0:2|0:2,0:0:0:0:
291,312,63653,2,0,P|326:295|365:301,1,80,10|0,0:1|0:0,0:0:0:0:
193,256,63975,6,0,B|106:241|131:301|20:276,1,160,10|10,0:2|0:1,0:0:0:0:
164,336,64459,1,0,0:0:0:0:
185,166,64620,1,10,0:2:0:0:
280,264,64782,1,8,0:2:0:0:
99,251,64943,2,0,P|98:211|100:171,1,80,10|2,0:1|0:2,0:0:0:0:
142,15,65266,5,10,0:1:0:0:
185,166,65427,1,10,0:3:0:0:
44,75,65588,1,4,0:3:0:0:
217,75,65749,2,0,P|272:86|329:98,1,80,14|0,0:2|0:0,0:0:0:0:
435,72,66072,1,10,0:2:0:0:
380,210,66233,2,0,P|320:200|288:194,1,80,14|2,0:1|0:2,0:0:0:0:
461,343,66556,6,0,P|472:279|488:169,1,160,12|10,0:2|0:1,0:0:0:0:
368,74,67040,1,2,0:2:0:0:
380,210,67201,1,10,0:2:0:0:
475,79,67362,1,8,0:2:0:0:
294,112,67524,2,0,P|283:75|294:36,1,80,8|0,0:1|0:0,0:0:0:0:
163,132,67846,6,0,P|190:204|226:289,1,160,10|8,0:2|0:1,0:0:0:0:
88,249,68330,1,0,0:0:0:0:
222,280,68491,2,0,P|255:248|286:219,1,80,10|8,0:2|0:2,0:0:0:0:
220,76,68814,6,0,P|187:108|156:137,1,80,14|10,0:1|0:2,0:0:0:0:
140,153,69056,1,8,0:2:0:0:
140,153,69137,1,10,0:1:0:0:
326,156,69298,1,8,0:3:0:0:
326,156,69379,1,8,0:3:0:0:
326,156,69459,1,4,0:3:0:0:
126,45,69620,6,0,P|63:43|11:89,1,120,14|0,0:1|0:0,0:0:0:0:
5,100,69943,1,8,0:1:0:0:
77,229,70104,1,8,0:3:0:0:
126,45,70266,1,4,0:3:0:0:
272,248,70427,5,14,0:2:0:0:
96,156,70588,1,8,0:2:0:0:
296,97,70749,2,0,P|306:138|295:175,1,80,14|0,0:1|0:0,0:0:0:0:
400,52,71072,5,10,0:1:0:0:
228,132,71233,1,8,0:1:0:0:
423,190,71395,1,6,0:3:0:0:
260,28,71556,1,8,0:2:0:0:
288,260,71717,6,0,P|268:296|172:308,1,143.999995605469,14|2,0:2|0:0,0:0:0:0:
80,272,72201,1,8,0:2:0:0:
112,176,72362,2,0,P|132:140|228:128,1,143.999995605469,8|2,0:1|0:2,0:0:0:0:
320,164,72846,1,10,0:2:0:0:
400,104,73008,2,0,P|428:76|436:36,1,71.9999978027344,2|8,0:2|0:1,0:0:0:0:
296,0,73330,2,0,P|324:28|364:36,1,71.9999978027344,10|0,0:2|0:0,0:0:0:0:
512,64,73653,2,0,P|500:108|432:176,1,143.999995605469,10|2,0:1|0:2,0:0:0:0:
336,216,74137,1,8,0:1:0:0:
372,338,74298,6,0,B|360:298|324:282|324:282|336:210,1,143.999995605469,10|2,0:2|0:2,0:0:0:0:
348,116,74782,1,8,0:2:0:0:
252,152,74943,2,0,P|208:144|144:72,1,143.999995605469,10|2,0:1|0:2,0:0:0:0:
60,12,75427,1,8,0:2:0:0:
24,108,75588,1,8,0:1:0:0:
144,72,75749,1,8,0:1:0:0:
24,108,75911,2,0,B|44:160|44:160|64:180|64:180|88:236,1,143.999995605469,8|8,0:2|0:1,0:0:0:0:
144,344,76395,1,8,0:1:0:0:
224,264,76556,2,0,P|264:240|324:256,1,107.999996704102,10|0,0:3|0:0,0:0:0:0:
360,276,76879,6,0,P|396:244|420:148,2,143.999995605469,14|2|8,0:2|0:0|0:1,0:0:0:0:
360,276,77846,2,0,P|368:312|356:352,1,71.9999978027344,2|8,0:2|0:1,0:0:0:0:
212,312,78169,2,0,P|246:320|281:312,1,71.9999978027344,10|8,0:2|0:1,0:0:0:0:
276,200,78491,1,10,0:2:0:0:
360,276,78653,1,0,0:0:0:0:
192,224,78814,2,0,P|192:164|264:116,1,143.999995605469,10|6,0:1|0:3,0:0:0:0:
372,72,79298,1,8,0:1:0:0:
412,264,79459,6,0,P|356:224|336:148,1,143.999995605469,12|2,0:2|0:0,0:0:0:0:
335,154,79862,1,2,0:0:0:0:
335,154,79943,1,10,0:2:0:0:
456,72,80104,1,8,0:1:0:0:
488,216,80266,1,8,0:1:0:0:
372,72,80427,1,8,0:3:0:0:
388,232,80588,1,8,0:3:0:0:
512,132,80749,1,12,0:2:0:0:
300,20,81072,6,0,P|256:24|216:80,1,107.999996704102,14|0,0:2|0:0,0:0:0:0:
204,112,81395,2,0,P|164:100|112:52,1,107.999996704102,14|0,0:2|0:0,0:0:0:0:
88,24,81717,1,14,0:1:0:0:
8,108,81879,1,4,0:3:0:0:
96,244,82040,6,0,B|160:228|160:228|192:240|192:240|252:224,1,160,14|14,0:2|0:1,0:0:0:0:
392,184,82524,1,0,0:0:0:0:
321,375,82685,2,0,P|341:335|325:223,1,160,8|10,0:2|0:1,0:0:0:0:
268,76,83169,1,2,0:0:0:0:
268,76,83249,1,2,0:0:0:0:
268,76,83330,1,10,0:2:0:0:
168,176,83491,1,8,0:2:0:0:
336,120,83653,2,0,P|352:80|340:36,1,80,10|0,0:1|0:0,0:0:0:0:
172,24,83975,6,0,P|100:16|40:76,1,160,10|10,0:2|0:1,0:0:0:0:
100,240,84459,1,2,0:0:0:0:
100,240,84540,1,2,0:0:0:0:
100,240,84620,2,0,B|180:216|180:272|256:240,1,160,14|8,0:2|0:1,0:0:0:0:
144,320,85104,1,0,0:0:0:0:
216,168,85266,2,0,P|236:132|232:92,1,80,10|8,0:2|0:2,0:0:0:0:
104,0,85588,1,8,0:1:0:0:
156,120,85749,1,4,0:3:0:0:
284,32,85911,6,0,B|336:44|372:16|372:16|444:48,1,160,10|14,0:2|0:1,0:0:0:0:
496,180,86395,1,8,0:3:0:0:
496,180,86475,1,4,0:3:0:0:
496,180,86556,2,0,P|496:224|452:288,1,120,8|0,0:2|0:0,0:0:0:0:
420,308,86879,1,14,0:1:0:0:
276,192,87040,5,10,0:2:0:0:
276,192,87120,1,10,0:2:0:0:
276,192,87201,2,0,P|304:156|308:120,1,80,14|8,0:2|0:2,0:0:0:0:
180,32,87524,1,10,0:1:0:0:
308,122,87685,1,10,0:3:0:0:
148,156,87846,1,4,0:3:0:0:
272,48,88008,1,4,0:3:0:0:
104,8,88169,1,8,0:1:0:0:
220,120,88330,1,4,0:3:0:0:
64,156,88491,6,0,P|40:196|44:272,1,120,10|0,0:2|0:0,0:0:0:0:
60,304,88814,1,10,0:1:0:0:
188,248,88975,2,0,P|228:244|264:260,1,80,10|4,0:2|0:3,0:0:0:0:
420,208,89298,1,8,0:2:0:0:
420,208,89379,1,8,0:2:0:0:
420,208,89459,2,0,P|444:172|448:136,1,80,14|0,0:1|0:0,0:0:0:0:
284,16,89782,5,14,0:1:0:0:
312,204,89943,1,8,0:2:0:0:
432,52,90104,1,8,0:2:0:0:
200,16,90266,2,0,B|160:24|144:60|144:60|92:48,1,120,14|0,0:1|0:0,0:0:0:0:
64,36,90588,1,8,0:2:0:0:
236,104,90749,5,14,0:1:0:0:
104,244,90911,1,8,0:2:0:0:
0,88,91072,1,8,0:2:0:0:
192,176,91233,2,0,P|228:192|268:264,1,120,14|0,0:1|0:0,0:0:0:0:
276,296,91556,1,8,0:2:0:0:
440,244,91717,5,8,0:1:0:0:
459,209,91797,1,8,0:3:0:0:
468,170,91878,1,4,0:3:0:0:
464,130,91958,1,4,0:3:0:0:
449,93,92039,1,14,0:2:0:0:
312,12,92201,1,2,0:2:0:0:
256,212,92362,5,14,0:2:0:0:
176,76,92524,1,10,0:2:0:0:
344,160,92685,1,8,0:2:0:0:
144,156,92846,1,8,0:1:0:0:
312,12,93008,1,8,0:1:0:0:
344,252,93169,1,8,0:1:0:0:
232,24,93330,1,8,0:1:0:0:
80,244,93491,1,8,0:1:0:0:
368,80,93653,5,14,0:2:0:0:
468,260,93814,1,8,0:1:0:0:
468,260,93895,1,8,0:1:0:0:
468,260,93975,2,0,P|492:220|492:184,1,80,6|8,0:3|0:2,0:0:0:0:
288,36,94298,5,10,0:1:0:0:
288,36,94379,1,8,0:1:0:0:
288,36,94459,2,0,P|264:40|248:52,1,40,8|8,0:3|0:3,0:0:0:0:
227,212,94620,1,6,0:3:0:0:
196,237,94700,1,4,0:3:0:0:
159,251,94781,1,10,0:1:0:0:
119,254,94861,1,8,0:1:0:0:
80,244,94943,6,0,P|88:200|94:152,1,88.000002685547,14|0,0:2|0:0,0:0:0:0:
167,8,95266,2,0,P|186:63|201:106,1,88.000002685547,14|0,0:1|0:1,0:0:0:0:
356,165,95588,1,8,0:2:0:0:
278,25,95749,1,8,0:2:0:0:
454,49,95911,2,0,P|399:67|362:79,1,88.000002685547,10|2,0:1|0:2,0:0:0:0:
308,240,96233,5,10,0:2:0:0:
425,161,96395,1,8,0:2:0:0:
270,121,96556,1,10,0:1:0:0:
416,265,96717,1,0,0:0:0:0:
248,297,96879,2,0,P|280:250|315:238,1,88.000002685547,10|8,0:2|0:2,0:0:0:0:
161,89,97201,2,0,P|182:142|192:191,1,88.000002685547,10|0,0:1|0:0,0:0:0:0:
322,357,97524,6,0,P|264:335|146:296,1,176.000005371094,10|8,0:2|0:1,0:0:0:0:
15,274,98008,2,0,P|32:315|53:357,1,88.000002685547,2|8,0:0|0:2,0:0:0:0:
185,198,98330,1,8,0:2:0:0:
128,372,98491,1,10,0:1:0:0:
68,190,98653,6,0,B|78:68|78:68|105:111|139:110,1,176.000005371094,2|10,0:2|0:2,0:0:0:0:
236,201,99137,1,8,0:1:0:0:
190,45,99298,1,2,0:0:0:0:
148,203,99459,1,8,0:2:0:0:
286,74,99620,1,8,0:2:0:0:
222,282,99782,1,10,0:1:0:0:
222,282,99862,1,8,0:1:0:0:
222,282,99943,1,6,0:3:0:0:
115,105,100104,6,0,P|157:116|199:129,1,88.000002685547,14|0,0:2|0:0,0:0:0:0:
347,245,100427,1,10,0:1:0:0:
328,116,100588,2,0,P|286:170|212:261,1,176.000005371094,2|8,0:2|0:2,0:0:0:0:
399,191,101072,1,8,0:1:0:0:
216,114,101233,1,0,0:1:0:0:
399,191,101395,6,0,P|408:134|417:94,1,88.000002685547,10|8,0:2|0:2,0:0:0:0:
218,253,101717,2,0,P|237:293|263:345,1,88.000002685547,10|8,0:1|0:2,0:0:0:0:
276,368,101959,1,8,0:1:0:0:
276,368,102040,1,10,0:2:0:0:
252,160,102201,1,8,0:2:0:0:
422,185,102362,2,0,L|430:228,1,44.0000013427735,10|8,0:1|0:1,0:0:0:0:
256,332,102524,2,0,L|261:279,1,44.0000013427735,6|4,0:3|0:3,0:0:0:0:
314,77,102685,6,0,P|245:56|167:141,1,176.000005371094,14|8,0:2|0:1,0:0:0:0:
101,269,103169,1,8,0:2:0:0:
101,269,103249,1,8,0:1:0:0:
101,269,103330,2,0,P|57:249|14:229,1,88.000002685547,10|8,0:2|0:2,0:0:0:0:
171,117,103653,1,8,0:1:0:0:
253,311,103814,2,0,L|176:367,1,88.000002685547,14|0,0:2|0:0,0:0:0:0:
382,100,104137,5,8,0:1:0:0:
337,280,104298,1,10,0:2:0:0:
241,172,104459,1,8,0:2:0:0:
429,233,104620,2,0,P|487:215|525:202,1,88.000002685547,10|8,0:1|0:2,0:0:0:0:
428,336,104943,1,14,0:1:0:0:
378,144,105104,1,2,0:2:0:0:
420,355,105266,6,0,P|368:330|306:362,1,132.00000402832,14|0,0:2|0:0,0:0:0:0:
281,379,105588,1,10,0:1:0:0:
49,368,105749,2,0,B|80:356|80:356|100:362|100:362|135:352,1,88.000002685547,2|8,0:2|0:2,0:0:0:0:
81,174,106072,2,0,B|104:219|104:219|88:260,1,88.000002685547,10|8,0:2|0:1,0:0:0:0:
280,378,106395,2,0,B|265:311|265:311|220:285|220:285|203:233,1,176.000005371094,2|10,0:2|0:2,0:0:0:0:
149,44,106878,5,10,0:1:0:0:
13,149,107040,1,8,0:3:0:0:
13,149,107120,1,8,0:3:0:0:
13,149,107201,1,8,0:2:0:0:
149,44,107362,1,8,0:2:0:0:
72,229,107524,1,14,0:1:0:0:
21,46,107685,1,0,0:1:0:0:
183,148,107846,6,0,P|255:114|342:167,1,176.000005371094,14|10,0:2|0:1,0:0:0:0:
400,295,108330,1,2,0:2:0:0:
400,295,108411,1,2,0:0:0:0:
400,295,108491,1,8,0:2:0:0:
451,132,108653,1,10,0:2:0:0:
303,266,108814,1,8,0:1:0:0:
490,224,108975,1,2,0:2:0:0:
244,197,109137,6,0,P|227:246|214:286,1,88.000002685547,10|8,0:2|0:2,0:0:0:0:
205,309,109379,1,8,0:2:0:0:
205,309,109459,1,8,0:1:0:0:
30,352,109620,2,0,P|42:294|48:266,1,88.000002685547,8|8,0:1|0:2,0:0:0:0:
145,348,109943,1,8,0:2:0:0:
13,145,110104,5,10,0:1:0:0:
50,122,110184,1,8,0:1:0:0:
93,118,110265,1,8,0:3:0:0:
133,134,110345,1,8,0:3:0:0:
162,167,110426,5,14,0:1:0:0:
317,357,110588,1,8,0:2:0:0:
306,90,110749,5,10,0:1:0:0:
167,316,110911,1,8,0:2:0:0:
413,227,111072,5,10,0:1:0:0:
167,82,111233,1,8,0:2:0:0:
274,341,111395,5,10,0:1:0:0:
402,72,111556,1,8,0:2:0:0:
137,252,111717,5,10,0:1:0:0:
449,367,111879,1,8,0:2:0:0:
192,62,112040,5,10,0:1:0:0:
282,378,112201,1,8,0:2:0:0:
386,59,112362,5,10,0:1:0:0:
169,336,112524,1,8,0:2:0:0:
132,65,112685,5,14,0:1:0:0:
329,247,112846,1,10,0:2:0:0:
50,96,113008,6,0,P|101:78|156:52,1,88.000002685547,14|8,0:1|0:2,0:0:0:0:
314,85,113330,1,8,0:2:0:0:
150,243,113491,6,0,P|169:190|185:144,1,88.000002685547,14|8,0:1|0:2,0:0:0:0:
277,10,113814,1,8,0:2:0:0:
278,210,113975,5,14,0:1:0:0:
131,64,114137,1,8,0:2:0:0:
387,192,114298,5,10,0:1:0:0:
387,192,114379,1,8,0:1:0:0:
387,192,114459,2,0,P|380:232|372:258,1,44.0000013427735,8|8,0:2|0:2,0:0:0:0:
213,325,114620,2,0,P|241:284|254:267,1,44.0000013427735,10|8,0:1|0:2,0:0:0:0:
110,161,114782,2,0,L|127:213,1,44.0000013427735,8|8,0:2|0:1,0:0:0:0:
195,67,114943,5,10,0:3:0:0:
233,47,115023,1,8,0:3:0:0:
277,44,115104,1,8,0:1:0:0:
318,60,115184,1,8,0:1:0:0:
348,91,115266,2,0,L|324:133,1,44.0000013427735,6|4,0:3|0:3,0:0:0:0:
146,240,115427,2,0,L|123:202,1,44.0000013427735,10|8,0:2|0:1,0:0:0:0:
320,244,115588,6,0,P|380:228|448:268,1,132.00000402832,14|0,0:2|0:0,0:0:0:0:
472,284,115911,1,14,0:1:0:0:
324,336,116072,1,8,0:3:0:0:
392,152,116233,2,0,P|420:112|424:20,1,132.00000402832,8|0,0:2|0:0,0:0:0:0:
388,8,116556,1,10,0:1:0:0:
224,68,116717,5,2,0:2:0:0:
224,68,116798,1,2,0:0:0:0:
224,68,116879,2,0,P|268:60|308:76,1,88.000002685547,10|8,0:2|0:2,0:0:0:0:
252,208,117201,1,10,0:1:0:0:
140,88,117362,1,0,0:0:0:0:
60,232,117524,2,0,B|108:244|108:244|136:272|136:272|180:284,1,132.00000402832,10|0,0:2|0:0,0:0:0:0:
224,296,117846,1,10,0:1:0:0:
376,224,118008,5,2,0:0:0:0:
376,224,118088,1,2,0:0:0:0:
376,224,118169,2,0,P|408:264|416:348,1,132.00000402832,14|0,0:2|0:0,0:0:0:0:
400,376,118491,2,0,P|364:372|312:352,1,88.000002685547,8|2,0:1|0:0,0:0:0:0:
272,208,118814,1,8,0:2:0:0:
315,354,118975,1,8,0:2:0:0:
184,224,119137,6,0,P|188:188|208:136,1,88.000002685547,10|2,0:1|0:2,0:0:0:0:
228,104,119379,1,2,0:0:0:0:
228,104,119459,1,10,0:2:0:0:
352,44,119620,1,10,0:2:0:0:
184,8,119782,1,8,0:1:0:0:
404,108,119943,5,8,0:2:0:0:
404,108,120024,1,8,0:1:0:0:
404,108,120104,2,0,P|432:72|436:28,1,88.000002685547,8|8,0:2|0:2,0:0:0:0:
328,164,120427,2,0,L|352:208,1,44.0000013427735,10|8,0:1|0:1,0:0:0:0:
408,288,120588,1,10,0:3:0:0:
208,264,120749,6,0,B|144:252|144:252|112:268|112:268|36:256,1,176.000005371094,14|8,0:2|0:1,0:0:0:0:
100,16,121233,2,0,P|124:64|92:184,1,176.000005371094,2|8,0:2|0:2,0:0:0:0:
172,304,121717,1,8,0:1:0:0:
97,178,121879,1,0,0:1:0:0:
148,380,122040,6,0,P|200:380|232:360,1,88.000002685547,10|10,0:2|0:2,0:0:0:0:
264,336,122282,1,10,0:2:0:0:
264,336,122362,1,10,0:1:0:0:
336,184,122524,1,8,0:3:0:0:
336,184,122604,1,8,0:3:0:0:
336,184,122685,1,10,0:2:0:0:
432,320,122846,5,8,0:2:0:0:
264,240,123008,1,10,0:1:0:0:
232,209,123088,1,8,0:1:0:0:
212,170,123169,1,10,0:3:0:0:
208,127,123249,1,8,0:3:0:0:
219,84,123330,6,0,P|208:40|224:0,1,88.000002685547,12|2,0:2|0:2,0:0:0:0:
456,72,123653,2,0,B|408:68|380:28|380:28|288:48,1,176.000005371094,8|10,0:1|0:3,0:0:0:0:
232,209,124137,1,8,0:1:0:0:
232,209,124217,1,8,0:1:0:0:
232,209,124298,1,8,0:1:0:0:
392,300,124459,6,0,P|412:252|372:136,1,176.000005371094,14|8,0:2|0:1,0:0:0:0:
240,88,124943,1,6,0:3:0:0:
328,224,125104,1,8,0:2:0:0:
348,56,125266,1,10,0:1:0:0:
348,56,125588,1,14,0:1:0:0:
160,28,125749,5,2,0:0:0:0:
160,28,125830,1,2,0:0:0:0:
160,28,125911,2,0,P|104:52|72:120,1,132.00000402832,14|0,0:2|0:0,0:0:0:0:
72,152,126233,1,10,0:1:0:0:
192,240,126395,1,2,0:2:0:0:
240,104,126556,2,0,P|284:104|320:128,1,88.000002685547,8|10,0:2|0:2,0:0:0:0:
271,263,126879,2,0,P|227:263|191:239,1,88.000002685547,8|2,0:1|0:2,0:0:0:0:
319,127,127201,6,0,B|383:103|383:151|495:127,1,176.000005371094,8|10,0:2|0:1,0:0:0:0:
440,32,127685,1,8,0:3:0:0:
360,216,127846,2,0,P|380:264|356:340,1,132.00000402832,8|0,0:2|0:0,0:0:0:0:
328,368,128169,1,10,0:1:0:0:
168,264,128330,5,2,0:2:0:0:
168,264,128411,1,2,0:0:0:0:
168,264,128491,2,0,B|120:252|120:252|92:264|92:264|36:252,1,132.00000402832,14|0,0:2|0:0,0:0:0:0:
0,244,128814,1,10,0:1:0:0:
128,360,128975,1,8,0:2:0:0:
128,360,129056,1,8,0:1:0:0:
128,360,129137,1,10,0:2:0:0:
84,168,129298,1,8,0:1:0:0:
12,336,129459,1,2,0:2:0:0:
192,180,129620,6,0,B|244:188|272:160|272:160|368:184,1,176.000005371094,14|8,0:2|0:2,0:0:0:0:
504,212,130104,1,10,0:1:0:0:
396,316,130266,1,4,0:3:0:0:
360,341,130346,1,8,0:1:0:0:
318,353,130427,2,0,P|308:332|304:308,1,44.0000013427735,8|8,0:1|0:1,0:0:0:0:
204,208,130588,2,0,P|214:229|218:253,1,44.0000013427735,4|8,0:3|0:1,0:0:0:0:
128,316,130749,5,10,0:1:0:0:
102,280,130829,1,8,0:1:0:0:
90,238,130910,1,6,0:3:0:0:
93,194,130990,1,4,0:3:0:0:
111,154,131072,2,0,P|160:140|200:64,1,132.00000402832,14|0,0:2|0:0,0:0:0:0:
208,36,131395,5,10,0:1:0:0:
292,192,131556,1,10,0:2:0:0:
408,60,131717,5,10,0:1:0:0:
356,252,131879,1,8,0:2:0:0:
312,64,132040,5,10,0:1:0:0:
492,232,132201,1,8,0:2:0:0:
492,232,132282,1,8,0:2:0:0:
492,232,132362,5,10,0:1:0:0:
248,124,132524,1,8,0:2:0:0:
456,336,132685,5,14,0:1:0:0:
496,68,132846,1,8,0:2:0:0:
232,216,133008,5,10,0:1:0:0:
512,152,133169,1,8,0:2:0:0:
260,16,133330,5,10,0:1:0:0:
140,272,133491,1,10,0:2:0:0:
140,272,133572,1,8,0:2:0:0:
140,272,133653,6,0,P|108:308|72:320,1,88.000002685547,14|8,0:1|0:2,0:0:0:0:
0,156,133975,1,8,0:2:0:0:
176,192,134137,6,0,P|212:224|224:260,1,88.000002685547,14|8,0:1|0:2,0:0:0:0:
24,236,134459,1,8,0:2:0:0:
104,92,134620,6,0,P|70:64|55:23,1,88.000002685547,10|14,0:1|0:2,0:0:0:0:
176,192,134943,1,8,0:2:0:0:
288,56,135104,6,0,P|247:70|219:104,1,88.000002685547,8|8,0:1|0:2,0:0:0:0:
132,280,135427,1,8,0:2:0:0:
219,104,135588,1,8,0:3:0:0:
272,286,135749,1,8,0:1:0:0:
272,286,135830,1,8,0:1:0:0:
272,285,135911,2,0,P|268:307|270:329,1,44.0000013427735,10|8,0:1|0:1,0:0:0:0:
392,228,136072,2,0,P|396:204|392:180,1,44.0000013427735,8|8,0:1|0:1,0:0:0:0:
317,34,136233,6,0,P|272:65|212:108,1,120,14|0,0:2|0:0,0:0:0:0:
194,120,136556,2,0,P|192:75|191:31,1,80,14|8,0:1|0:3,0:0:0:0:
289,181,136879,2,0,P|252:227|226:264,1,80,8|10,0:2|0:2,0:0:0:0:
214,359,137201,1,10,0:1:0:0:
137,242,137362,1,2,0:1:0:0:
357,268,137524,6,0,P|346:306|343:346,1,80,10|8,0:2|0:2,0:0:0:0:
239,243,137846,2,0,P|235:203|224:165,1,80,10|0,0:1|0:3,0:0:0:0:
404,147,138169,2,0,P|358:170|320:190,1,80,10|8,0:2|0:2,0:0:0:0:
169,108,138491,2,0,L|170:157,1,40,10|10,0:1|0:1,0:0:0:0:
219,277,138653,2,0,L|241:238,1,40,10|8,0:3|0:3,0:0:0:0:
203,7,138814,6,0,P|134:27|42:56,1,160,14|8,0:2|0:1,0:0:0:0:
7,219,139298,2,0,P|51:189|94:157,1,80,2|8,0:0|0:2,0:0:0:0:
49,53,139620,1,10,0:2:0:0:
174,109,139782,2,0,P|175:165|177:194,1,80,10|2,0:1|0:0,0:0:0:0:
365,69,140104,5,10,0:1:0:0:
309,262,140266,1,8,0:2:0:0:
260,131,140427,2,0,P|314:146|350:157,1,80,12|0,0:1|0:0,0:0:0:0:
433,284,140749,1,14,0:2:0:0:
474,111,140911,1,10,0:1:0:0:
474,111,140991,1,10,0:1:0:0:
474,111,141072,2,0,L|437:135,1,40,10|8,0:3|0:3,0:0:0:0:
433,284,141233,2,0,L|399:262,1,40,4|8,0:3|0:1,0:0:0:0:
260,131,141395,6,0,P|248:189|238:249,1,120,14|0,0:2|0:0,0:0:0:0:
227,284,141717,1,10,0:1:0:0:
158,153,141879,1,2,0:0:0:0:
323,234,142040,1,8,0:2:0:0:
137,245,142201,1,8,0:2:0:0:
260,131,142362,1,8,0:1:0:0:
319,339,142524,5,8,0:2:0:0:
319,339,142604,1,8,0:1:0:0:
319,339,142685,1,14,0:1:0:0:
158,153,142846,1,8,0:2:0:0:
367,241,143008,1,10,0:1:0:0:
157,343,143169,5,8,0:2:0:0:
291,118,143330,1,10,0:1:0:0:
281,361,143491,1,8,0:2:0:0:
158,153,143653,1,14,0:1:0:0:
385,312,143814,1,10,0:2:0:0:
355,46,143975,5,14,0:1:0:0:
303,125,144137,1,8,0:2:0:0:
255,206,144298,1,8,0:2:0:0:
251,46,144459,5,8,0:3:0:0:
303,125,144621,1,8,0:2:0:0:
351,206,144782,1,8,0:2:0:0:
449,28,144943,5,8,0:1:0:0:
399,108,145104,2,0,P|342:86|243:43,1,160,14|8,0:2|0:1,0:0:0:0:
223,33,145508,1,8,0:1:0:0:
223,33,145588,2,0,L|230:90,1,40,4|4,0:3|0:3,0:0:0:0:
96,188,145749,2,0,L|89:131,1,40,8|8,0:2|0:2,0:0:0:0:
253,193,145911,5,10,0:1:0:0:
21,18,146072,1,14,0:1:0:0:
67,354,146395,5,2,0:0:0:0:
67,354,146475,1,2,0:0:0:0:
67,354,146556,2,0,P|108:327|203:370,1,160,14|10,0:2|0:1,0:0:0:0:
226,203,147040,1,2,0:2:0:0:
374,283,147201,2,0,P|324:298|287:309,1,80,10|8,0:2|0:2,0:0:0:0:
390,156,147524,2,0,P|439:182|470:200,1,80,10|0,0:1|0:0,0:0:0:0:
325,32,147846,6,0,P|283:62|239:94,1,80,10|0,0:2|0:0,0:0:0:0:
140,121,148169,1,10,0:1:0:0:
280,242,148330,2,0,P|293:196|303:158,1,80,2|8,0:2|0:2,0:0:0:0:
125,42,148653,2,0,P|136:105|143:138,1,80,10|8,0:2|0:1,0:0:0:0:
237,85,148975,1,2,0:2:0:0:
154,229,149137,6,0,P|101:204|63:184,1,80,10|2,0:2|0:0,0:0:0:0:
156,355,149459,2,0,P|209:330|247:310,1,80,10|2,0:1|0:0,0:0:0:0:
361,341,149782,1,8,0:2:0:0:
272,192,149943,1,8,0:2:0:0:
451,217,150104,2,0,P|403:225|377:250,1,80,10|2,0:1|0:2,0:0:0:0:
272,192,150427,6,0,P|275:112|278:33,1,160,10|8,0:2|0:1,0:0:0:0:
351,65,150911,2,0,P|310:47|267:28,1,80,10|0,0:2|0:0,0:0:0:0:
167,113,151233,1,8,0:2:0:0:
272,192,151395,2,0,P|313:174|356:155,1,80,10|0,0:1|0:0,0:0:0:0:
199,308,151717,6,0,P|125:284|59:328,1,160,14|10,0:2|0:1,0:0:0:0:
80,180,152201,2,0,P|108:216|112:252,1,80,2|8,0:2|0:2,0:0:0:0:
0,204,152524,1,8,0:2:0:0:
160,144,152685,2,0,B|212:116|212:116|248:120|248:120|312:80,1,160,10|10,0:1|0:2,0:0:0:0:
224,200,153169,1,0,0:0:0:0:
232,40,153330,2,0,P|208:8|164:0,1,80,10|0,0:1|0:0,0:0:0:0:
302,85,153653,2,0,P|334:61|342:17,1,80,10|8,0:2|0:2,0:0:0:0:
300,172,153975,2,0,P|340:188|416:168,1,120,10|0,0:1|0:0,0:0:0:0:
448,156,154298,5,10,0:2:0:0:
508,272,154459,1,0,0:0:0:0:
396,344,154620,2,0,P|420:312|424:272,1,80,8|0,0:1|0:0,0:0:0:0:
300,172,154943,2,0,P|276:204|272:244,1,80,10|10,0:2|0:2,0:0:0:0:
304,364,155266,1,8,0:1:0:0:
356,236,155427,1,2,0:2:0:0:
204,296,155588,6,0,P|156:312|64:252,1,160,14|8,0:2|0:1,0:0:0:0:
140,72,156072,2,0,P|164:108|148:228,1,160,14|8,0:2|0:2,0:0:0:0:
48,116,156556,1,10,0:1:0:0:
232,32,156717,5,2,0:0:0:0:
232,32,156798,1,2,0:0:0:0:
232,32,156879,2,0,B|296:40|296:40|320:60|320:60|392:68,1,160,14|10,0:2|0:1,0:0:0:0:
480,168,157362,1,2,0:2:0:0:
368,252,157524,2,0,B|304:244|304:244|280:224|280:224|208:216,1,160,10|10,0:2|0:1,0:0:0:0:
344,168,158008,1,0,0:0:0:0:
248,304,158169,6,0,P|232:344|200:368,1,80,10|0,0:2|0:0,0:0:0:0:
96,240,158491,2,0,P|121:270|158:284,1,80,10|0,0:1|0:2,0:0:0:0:
136,160,158814,1,10,0:2:0:0:
12,260,158975,1,8,0:2:0:0:
200,216,159137,2,0,P|220:176|220:140,1,80,10|0,0:1|0:0,0:0:0:0:
312,40,159459,6,0,B|356:44|392:24|392:24|424:48,1,120,10|0,0:1|0:0,0:0:0:0:
452,80,159782,2,0,B|472:120|448:152|448:152|468:192,1,120,10|0,0:1|0:0,0:0:0:0:
488,232,160104,1,10,0:1:0:0:
316,300,160266,1,4,0:3:0:0:
436,352,160427,1,10,0:2:0:0:
368,180,160588,6,0,B|300:144|336:108|252:68,1,160,14|8,0:2|0:2,0:0:0:0:
104,20,161072,1,14,0:1:0:0:
40,164,161233,1,8,0:2:0:0:
40,164,161314,1,8,0:2:0:0:
40,164,161395,1,10,0:1:0:0:
176,80,161556,1,8,0:2:0:0:
20,44,161717,1,10,0:1:0:0:
136,164,161879,5,10,0:2:0:0:
136,164,161959,1,10,0:2:0:0:
136,164,162040,2,0,P|180:184|208:248,1,120,14|0,0:2|0:0,0:0:0:0:
212,292,162362,1,8,0:1:0:0:
368,216,162524,2,0,P|324:208|292:224,1,80,2|8,0:2|0:2,0:0:0:0:
296,344,162846,1,8,0:2:0:0:
432,288,163008,2,0,P|460:240|456:172,1,120,8|0,0:1|0:0,0:0:0:0:
444,140,163330,5,10,0:2:0:0:
360,40,163491,1,8,0:2:0:0:
260,128,163653,2,0,P|272:168|264:208,1,80,8|0,0:1|0:1,0:0:0:0:
148,48,163975,2,0,P|188:36|228:44,1,80,10|8,0:2|0:2,0:0:0:0:
352,120,164298,1,14,0:1:0:0:
184,172,164459,5,2,0:2:0:0:
184,172,164540,1,2,0:0:0:0:
184,172,164620,1,10,0:2:0:0:
252,300,164782,1,10,0:2:0:0:
96,240,164943,1,14,0:1:0:0:
265,204,165104,2,0,B|324:216|324:216|348:244|348:244|412:256,1,160,10|8,0:1|0:2,0:0:0:0:
404,80,165588,5,10,0:1:0:0:
404,80,165669,1,8,0:3:0:0:
404,80,165749,2,0,P|416:120|400:164,1,80,4|14,0:3|0:1,0:0:0:0:
276,292,166072,1,10,0:2:0:0:
184,136,166233,1,14,0:1:0:0:
52,200,166395,6,0,P|44:220|40:240,1,40,8|8,0:1|0:1,0:0:0:0:
136,268,166556,2,0,P|144:248|148:228,1,40,10|8,0:3|0:3,0:0:0:0:
184,136,166717,1,8,0:2:0:0:
88,48,166879,1,10,0:1:0:0:
208,0,167040,1,4,0:3:0:0:
276,168,167201,6,0,B|348:148|348:196|416:168,1,143.999995605469,14|8,0:2|0:2,0:0:0:0:
505,275,167685,1,2,0:0:0:0:
505,275,167846,2,0,P|451:285|422:290,1,71.9999978027344,8|0,0:2|0:0,0:0:0:0:
416,167,168169,1,10,0:2:0:0:
348,284,168330,1,14,0:1:0:0:
276,168,168491,6,0,P|330:188|359:200,1,71.9999978027344,10|14,0:2|0:1,0:0:0:0:
310,77,168814,2,0,P|272:62|229:73,1,71.9999978027344,10|0,0:2|0:1,0:0:0:0:
134,47,169137,2,0,P|134:97|149:124,1,71.9999978027344,10|0,0:2|0:0,0:0:0:0:
164,255,169459,2,0,P|183:209|197:176,1,71.9999978027344,10|4,0:2|0:3,0:0:0:0:
98,356,169782,6,0,P|165:344|251:329,1,143.999995605469,10|10,0:2|0:2,0:0:0:0:
329,226,170266,1,0,0:0:0:0:
329,226,170427,2,0,P|349:276|363:309,1,71.9999978027344,10|0,0:2|0:0,0:0:0:0:
239,330,170749,1,10,0:2:0:0:
382,376,170911,6,0,P|410:354|447:323,1,71.9999978027344,14|0,0:1|0:0,0:0:0:0:
456,221,171233,1,14,0:1:0:0:
329,226,171395,2,0,P|349:276|363:309,1,71.9999978027344,8|8,0:2|0:1,0:0:0:0:
427,129,171717,6,0,L|420:166,1,35.9999989013672,8|8,0:2|0:1,0:0:0:0:
299,59,171879,2,0,L|308:103,1,35.9999989013672,8|8,0:1|0:1,0:0:0:0:
211,154,172040,1,10,0:1:0:0:
179,170,172120,1,8,0:1:0:0:
143,171,172201,1,6,0:3:0:0:
111,156,172281,1,4,0:3:0:0:
89,128,172362,6,0,P|74:175|41:274,1,143.999995605469,14|8,0:2|0:2,0:0:0:0:
118,358,172846,2,0,P|152:346|186:336,1,71.9999978027344,0|8,0:0|0:2,0:0:0:0:
168,213,173169,1,0,0:0:0:0:
285,263,173330,1,10,0:2:0:0:
186,335,173491,1,14,0:1:0:0:
270,172,173653,6,0,P|309:183|350:196,1,71.9999978027344,10|0,0:2|0:0,0:0:0:0:
442,287,173975,2,0,P|468:236|482:201,1,71.9999978027344,10|8,0:2|0:2,0:0:0:0:
483,185,174217,5,8,0:1:0:0:
483,185,174298,2,0,L|436:158,1,35.9999989013672,10|8,0:1|0:1,0:0:0:0:
388,77,174459,2,0,L|381:128,1,35.9999989013672,8|8,0:2|0:2,0:0:0:0:
270,172,174620,1,6,0:3:0:0:
238,189,174700,1,8,0:2:0:0:
203,188,174781,1,10,0:3:0:0:
172,170,174861,1,8,0:3:0:0:
154,140,174943,6,0,P|105:117|18:158,1,143.999995605469,14|8,0:2|0:2,0:0:0:0:
69,283,175427,1,0,0:0:0:0:
69,283,175588,2,0,P|83:243|97:197,1,71.9999978027344,10|0,0:2|0:0,0:0:0:0:
191,290,175911,2,0,P|201:324|213:358,1,71.9999978027344,10|8,0:2|0:1,0:0:0:0:
236,383,176153,5,8,0:1:0:0:
236,383,176233,2,0,P|271:330|304:355,1,107.999996704102,14|0,0:2|0:0,0:0:0:0:
379,371,176556,2,0,P|387:321|400:253,1,107.999996704102,14|0,0:2|0:0,0:0:0:0:
451,194,176879,2,0,P|397:184|362:176,1,71.9999978027344,14|8,0:2|0:2,0:0:0:0:
292,185,177120,1,8,0:2:0:0:
292,185,177201,2,0,P|290:229|285:251,1,35.9999989013672,14|8,0:1|0:3,0:0:0:0:
199,283,177362,2,0,P|201:239|206:217,1,35.9999989013672,4|4,0:3|0:3,0:0:0:0:
183,89,177524,6,0,B|155:117|129:118|129:118|118:147|118:147|82:150|45:173,1,160,14|14,0:2|0:1,0:0:0:0:
100,237,178008,1,0,0:0:0:0:
50,75,178169,2,0,P|75:51|110:16,1,80,8|8,0:2|0:2,0:0:0:0:
261,105,178491,2,0,P|210:94|166:86,1,80,10|0,0:1|0:0,0:0:0:0:
350,50,178814,5,10,0:2:0:0:
362,235,178975,1,8,0:2:0:0:
432,117,179137,1,10,0:1:0:0:
268,182,179298,1,0,0:1:0:0:
448,243,179459,2,0,P|438:285|428:323,1,80,10|8,0:2|0:2,0:0:0:0:
300,379,179782,2,0,P|290:340|280:301,1,80,10|0,0:1|0:0,0:0:0:0:
360,125,180104,5,14,0:2:0:0:
359,278,180266,1,0,0:0:0:0:
190,164,180427,2,0,P|233:173|282:186,1,80,8|0,0:1|0:0,0:0:0:0:
191,11,180749,1,10,0:2:0:0:
190,164,180911,1,8,0:2:0:0:
272,40,181072,1,8,0:1:0:0:
91,100,181233,1,0,0:0:0:0:
169,241,181395,6,0,P|181:194|192:154,1,80,10|8,0:2|0:2,0:0:0:0:
191,11,181717,1,8,0:1:0:0:
287,140,181879,1,8,0:1:0:0:
287,140,181959,1,8,0:1:0:0:
287,140,182040,2,0,P|336:134|379:128,1,80,8|8,0:2|0:2,0:0:0:0:
496,83,182362,2,0,P|484:134|473:169,1,80,14|0,0:1|0:0,0:0:0:0:
351,277,182685,5,14,0:2:0:0:
397,97,182846,1,8,0:2:0:0:
509,306,183008,5,10,0:1:0:0:
380,184,183169,1,10,0:3:0:0:
380,184,183249,1,10,0:3:0:0:
380,184,183330,1,4,0:3:0:0:
387,369,183491,5,4,0:3:0:0:
477,179,183653,1,8,0:1:0:0:
307,266,183814,5,4,0:3:0:0:
307,266,183895,1,4,0:3:0:0:
307,266,183975,1,10,0:2:0:0:
509,306,184137,1,8,0:3:0:0:
255,160,184298,5,10,0:1:0:0:
403,341,184459,1,10,0:2:0:0:
403,341,184540,1,10,0:3:0:0:
403,341,184620,1,4,0:3:0:0:
341,117,184782,5,8,0:2:0:0:
185,255,184943,1,14,0:1:0:0:
396,227,185104,1,8,0:2:0:0:
200,134,185266,6,0,P|151:124|110:115,1,80,14|8,0:1|0:2,0:0:0:0:
24,255,185588,1,8,0:2:0:0:
213,256,185749,6,0,P|268:231|296:218,1,80,14|8,0:1|0:2,0:0:0:0:
191,41,186072,1,8,0:2:0:0:
128,222,186233,1,14,0:1:0:0:
115,259,186313,1,8,0:1:0:0:
118,299,186394,1,8,0:3:0:0:
134,335,186474,1,8,0:3:0:0:
163,363,186556,6,0,P|216:349|265:337,1,80,14|8,0:2|0:2,0:0:0:0:
346,375,186798,1,8,0:2:0:0:
346,375,186879,2,0,P|331:336|317:294,1,80,14|8,0:2|0:2,0:0:0:0:
267,210,187120,1,8,0:2:0:0:
267,210,187201,6,0,P|255:257|257:267,1,40,10|8,0:1|0:1,0:0:0:0:
338,141,187362,2,0,P|297:124|272:122,1,40,4|4,0:3|0:3,0:0:0:0:
379,231,187524,2,0,P|414:211|423:191,1,40,10|8,0:1|0:1,0:0:0:0:
512,297,187685,2,0,P|481:301|462:312,1,40,10|8,0:1|0:1,0:0:0:0:
412,211,187846,6,0,P|421:163|444:29,1,176.000005371094,14|14,0:2|0:1,0:0:0:0:
512,160,188330,1,0,0:0:0:0:
352,56,188491,2,0,P|304:48|192:120,1,176.000005371094,8|10,0:2|0:1,0:0:0:0:
136,260,188975,1,2,0:2:0:0:
136,260,189056,1,2,0:0:0:0:
136,260,189137,1,10,0:2:0:0:
28,136,189298,1,8,0:2:0:0:
200,188,189459,6,0,P|156:180|128:148,1,88.000002685547,10|0,0:1|0:0,0:0:0:0:
300,212,189782,2,0,P|344:220|372:252,1,88.000002685547,10|8,0:2|0:2,0:0:0:0:
324,344,190104,1,10,0:1:0:0:
464,220,190266,1,0,0:0:0:0:
248,288,190427,6,0,B|188:280|188:280|148:304|148:304|72:296,1,176.000005371094,14|8,0:2|0:1,0:0:0:0:
216,364,190911,1,2,0:0:0:0:
128,216,191072,2,0,P|112:176|124:128,1,88.000002685547,8|8,0:2|0:2,0:0:0:0:
252,32,191395,1,10,0:1:0:0:
76,8,191556,5,2,0:2:0:0:
76,8,191637,1,2,0:0:0:0:
76,8,191717,2,0,P|32:8|-8:32,1,88.000002685547,8|10,0:2|0:2,0:0:0:0:
28,184,192040,1,8,0:1:0:0:
164,60,192201,2,0,B|200:100|188:140|188:140|252:208,1,176.000005371094,2|8,0:1|0:2,0:0:0:0:
372,324,192685,1,10,0:1:0:0:
372,324,192766,1,8,0:1:0:0:
372,324,192846,1,6,0:3:0:0:
464,160,193008,6,0,P|500:112|496:24,1,132.00000402832,14|0,0:2|0:0,0:0:0:0:
492,8,193330,1,10,0:1:0:0:
312,68,193491,2,0,P|356:60|396:76,1,88.000002685547,2|8,0:2|0:2,0:0:0:0:
440,240,193814,1,8,0:2:0:0:
304,160,193975,2,0,P|252:144|212:80,1,132.00000402832,8|0,0:1|0:0,0:0:0:0:
208,40,194298,5,10,0:2:0:0:
76,156,194459,1,8,0:2:0:0:
76,156,194540,1,8,0:2:0:0:
76,156,194620,1,10,0:1:0:0:
0,0,194782,1,0,0:1:0:0:
148,112,194943,2,0,P|160:156|148:196,1,88.000002685547,10|8,0:2|0:2,0:0:0:0:
60,344,195266,2,0,P|80:348|104:348,1,44.0000013427735,10|8,0:1|0:1,0:0:0:0:
212,280,195427,2,0,P|192:276|168:276,1,44.0000013427735,6|4,0:3|0:3,0:0:0:0:
284,188,195588,6,0,P|328:184|392:72,1,176.000005371094,14|8,0:2|0:1,0:0:0:0:
296,92,196072,1,8,0:2:0:0:
432,200,196233,2,0,P|460:160|468:116,1,88.000002685547,10|8,0:2|0:2,0:0:0:0:
416,0,196556,1,8,0:1:0:0:
268,104,196717,6,0,B|232:80|184:96|184:96|156:64|100:72,1,176.000005371094,14|8,0:2|0:2,0:0:0:0:
20,164,197201,1,10,0:1:0:0:
32,12,197362,1,8,0:1:0:0:
124,152,197524,2,0,P|136:204|100:272,1,132.00000402832,8|0,0:3|0:0,0:0:0:0:
64,296,197846,1,14,0:1:0:0:
192,364,198008,1,2,0:0:0:0:
268,204,198169,6,0,B|312:192|312:192|344:200|344:200|404:180,1,132.00000402832,14|0,0:2|0:0,0:0:0:0:
432,168,198491,1,10,0:1:0:0:
308,32,198653,2,0,P|340:64|348:108,1,88.000002685547,2|8,0:2|0:2,0:0:0:0:
472,240,198975,2,0,P|440:208|432:164,1,88.000002685547,10|8,0:2|0:1,0:0:0:0:
264,104,199298,1,2,0:2:0:0:
212,272,199459,6,0,P|176:308|132:324,1,88.000002685547,10|8,0:2|0:2,0:0:0:0:
36,184,199782,1,10,0:1:0:0:
188,100,199943,1,8,0:2:0:0:
188,100,200024,1,8,0:1:0:0:
188,100,200104,2,0,P|184:152|124:208,1,132.00000402832,10|0,0:2|0:0,0:0:0:0:
104,236,200427,1,14,0:1:0:0:
96,72,200588,1,10,0:1:0:0:
284,128,200749,6,0,B|328:116|348:76|348:76|392:92,1,132.00000402832,14|0,0:2|0:0,0:0:0:0:
432,108,201072,1,10,0:1:0:0:
472,264,201233,2,0,P|496:228|496:184,1,88.000002685547,2|8,0:2|0:2,0:0:0:0:
344,268,201556,2,0,P|320:304|320:348,1,88.000002685547,10|8,0:2|0:1,0:0:0:0:
416,204,201879,1,2,0:2:0:0:
240,368,202040,6,0,B|175:307|152:357|82:289,1,176.000005371094,10|8,0:2|0:1,0:0:0:0:
152,160,202524,1,8,0:2:0:0:
152,160,202604,1,8,0:1:0:0:
152,160,202685,2,0,P|132:116|140:72,1,88.000002685547,10|8,0:2|0:2,0:0:0:0:
304,16,203008,1,10,0:1:0:0:
304,16,203088,1,8,0:1:0:0:
304,16,203169,1,8,0:3:0:0:
137,77,203330,5,14,0:1:0:0:
384,160,203491,1,8,0:2:0:0:
180,0,203653,5,10,0:1:0:0:
216,260,203814,1,8,0:2:0:0:
384,56,203975,5,10,0:1:0:0:
144,164,204137,1,8,0:2:0:0:
368,304,204298,5,10,0:1:0:0:
276,56,204459,1,8,0:2:0:0:
276,56,204540,1,8,0:2:0:0:
276,56,204620,5,10,0:1:0:0:
132,280,204782,1,8,0:2:0:0:
28,36,204943,5,10,0:1:0:0:
268,152,205104,1,8,0:2:0:0:
32,280,205266,5,10,0:1:0:0:
144,40,205427,1,8,0:2:0:0:
248,280,205588,5,14,0:1:0:0:
36,124,205749,1,10,0:2:0:0:
36,124,205830,1,8,0:2:0:0:
36,124,205911,6,0,P|80:140|104:176,1,88.000002685547,14|8,0:1|0:2,0:0:0:0:
200,364,206233,1,8,0:2:0:0:
252,136,206395,6,0,P|236:180|200:204,1,88.000002685547,14|8,0:1|0:2,0:0:0:0:
12,348,206717,1,8,0:2:0:0:
168,124,206879,5,14,0:1:0:0:
296,308,207040,1,8,0:2:0:0:
72,272,207201,5,10,0:1:0:0:
72,272,207282,1,8,0:1:0:0:
72,272,207362,1,8,0:2:0:0:
200,32,207524,5,10,0:1:0:0:
200,32,207604,1,10,0:1:0:0:
200,32,207685,2,0,P|232:36|256:44,1,44.0000013427735,8|8,0:2|0:1,0:0:0:0:
344,189,207846,2,0,P|312:185|288:177,1,44.0000013427735,10|8,0:3|0:3,0:0:0:0:
160,316,208008,2,0,P|192:320|216:328,1,44.0000013427735,8|8,0:1|0:1,0:0:0:0:
376,352,208169,5,6,0:3:0:0:
416,336,208249,1,4,0:3:0:0:
449,307,208330,1,10,0:2:0:0:
468,267,208410,1,8,0:1:0:0:
472,224,208491,6,0,P|424:212|336:187,1,132.00000402832,14|0,0:2|0:0,0:0:0:0:
305,186,208814,1,14,0:1:0:0:
413,50,208975,1,2,0:2:0:0:
265,66,209137,2,0,P|222:77|180:89,1,88.000002685547,8|8,0:2|0:2,0:0:0:0:
42,192,209459,1,10,0:1:0:0:
97,26,209620,1,2,0:2:0:0:
199,181,209782,6,0,P|193:230|185:284,1,88.000002685547,10|8,0:2|0:2,0:0:0:0:
350,154,210104,1,10,0:1:0:0:
319,322,210266,1,0,0:2:0:0:
240,113,210427,2,0,P|189:102|144:119,1,88.000002685547,10|8,0:2|0:2,0:0:0:0:
9,115,210749,2,0,P|43:171|63:204,1,88.000002685547,10|0,0:1|0:0,0:0:0:0:
71,369,211072,6,0,P|142:354|186:254,1,176.000005371094,14|8,0:2|0:1,0:0:0:0:
325,348,211556,2,0,P|375:327|430:304,1,88.000002685547,2|8,0:0|0:2,0:0:0:0:
476,153,211879,1,8,0:2:0:0:
344,247,212040,1,10,0:1:0:0:
315,83,212201,1,2,0:2:0:0:
454,248,212362,5,10,0:2:0:0:
445,59,212524,1,10,0:2:0:0:
289,189,212685,1,8,0:1:0:0:
472,56,212846,1,8,0:2:0:0:
472,56,212927,1,8,0:1:0:0:
472,56,213008,2,0,P|469:112|467:163,1,88.000002685547,8|8,0:2|0:2,0:0:0:0:
289,189,213330,2,0,P|329:169|345:157,1,44.0000013427735,10|8,0:1|0:1,0:0:0:0:
454,248,213491,2,0,P|434:237|414:228,1,44.0000013427735,10|8,0:3|0:3,0:0:0:0:
315,83,213653,6,0,P|269:75|218:93,1,88.000002685547,14|0,0:2|0:0,0:0:0:0:
23,69,213975,1,10,0:1:0:0:
84,192,214137,2,0,P|113:125|159:12,1,176.000005371094,2|8,0:2|0:2,0:0:0:0:
357,5,214620,2,0,P|331:52|308:94,1,88.000002685547,8|0,0:1|0:1,0:0:0:0:
395,247,214943,5,10,0:2:0:0:
314,82,215104,1,8,0:2:0:0:
252,240,215266,2,0,P|292:206|326:175,1,88.000002685547,10|0,0:1|0:0,0:0:0:0:
425,317,215588,2,0,P|426:274|394:246,1,88.000002685547,10|8,0:2|0:2,0:0:0:0:
303,94,215911,1,10,0:1:0:0:
171,303,216072,5,10,0:3:0:0:
171,303,216153,1,8,0:3:0:0:
171,303,216233,2,0,P|148:252|126:203,1,88.000002685547,12|2,0:2|0:2,0:0:0:0:
20,89,216556,1,8,0:1:0:0:
167,94,216717,1,4,0:3:0:0:
27,229,216879,1,10,0:3:0:0:
87,10,217040,1,10,0:1:0:0:
180,210,217201,1,8,0:1:0:0:
87,10,217362,6,0,P|170:13|281:15,1,176.000005371094,14|10,0:2|0:1,0:0:0:0:
432,117,217846,1,6,0:3:0:0:
258,143,218008,1,8,0:2:0:0:
392,20,218169,2,0,P|442:29|497:35,1,88.000002685547,10|8,0:1|0:2,0:0:0:0:
413,203,218491,2,0,P|425:143|470:174,1,132.00000402832,10|0,0:1|0:0,0:0:0:0:
475,205,218814,6,0,P|461:291|449:379,1,176.000005371094,14|10,0:2|0:1,0:0:0:0:
272,311,219298,2,0,P|323:287|359:271,1,88.000002685547,2|8,0:2|0:2,0:0:0:0:
454,376,219620,1,10,0:2:0:0:
475,205,219782,2,0,P|397:195|355:189,1,88.000002685547,8|2,0:1|0:2,0:0:0:0:
233,27,220104,6,0,P|254:91|292:200,1,176.000005371094,8|10,0:2|0:1,0:0:0:0:
396,52,220588,1,0,0:0:0:0:
289,193,220749,2,0,P|223:176|194:170,1,88.000002685547,10|8,0:2|0:2,0:0:0:0:
246,24,221072,1,14,0:1:0:0:
362,160,221233,1,2,0:2:0:0:
117,106,221395,5,14,0:2:0:0:
178,295,221556,1,8,0:2:0:0:
284,138,221717,2,0,P|238:157|193:176,1,88.000002685547,14|8,0:1|0:2,0:0:0:0:
178,181,221959,1,8,0:1:0:0:
178,181,222040,1,10,0:2:0:0:
89,328,222201,1,8,0:1:0:0:
262,320,222362,1,10,0:1:0:0:
38,212,222524,6,0,P|57:154|95:32,1,176.000005371094,14|8,0:2|0:2,0:0:0:0:
322,54,223008,5,14,0:1:0:0:
168,266,223169,1,8,0:2:0:0:
436,181,223330,6,0,P|395:163|379:160,1,44.0000013427735,8|8,0:1|0:3,0:0:0:0:
145,148,223491,1,4,0:3:0:0:
392,41,223653,5,10,0:1:0:0:
314,276,223814,1,2,0:2:0:0:
126,53,223975,6,0,P|173:69|216:85,1,88.000002685547,14|0,0:2|0:0,0:0:0:0:
314,276,224298,5,10,0:1:0:0:
400,20,224459,1,10,0:2:0:0:
473,280,224620,5,10,0:1:0:0:
208,82,224782,1,8,0:2:0:0:
496,68,224943,5,10,0:1:0:0:
215,259,225104,1,8,0:2:0:0:
126,29,225266,5,10,0:1:0:0:
87,332,225427,1,8,0:2:0:0:
277,52,225588,5,10,0:1:0:0:
211,348,225749,1,8,0:2:0:0:
33,122,225911,6,0,P|79:127|98:139,1,44.0000013427735,10|10,0:1|0:1,0:0:0:0:
235,233,226072,1,4,0:3:0:0:
134,31,226233,6,0,P|180:61|191:84,1,44.0000013427735,10|10,0:1|0:1,0:0:0:0:
294,17,226395,2,0,P|292:72|272:94,1,44.0000013427735,14|14,0:3|0:3,0:0:0:0:
235,233,226556,1,14,0:2:0:0:
128,56,236233,5,10,0:1:0:0:
128,56,236314,1,8,0:1:0:0:
128,56,236395,1,8,0:2:0:0:
304,156,236556,2,0,P|312:144|320:128,1,32,10|8,0:1|0:1,0:0:0:0:
280,4,236717,2,0,P|272:16|264:32,1,32,8|8,0:1|0:1,0:0:0:0:
452,60,236879,6,0,P|440:108|384:212,1,160,14|8,0:2|0:1,0:0:0:0:
296,332,237362,1,2,0:1:0:0:
468,308,237524,1,10,0:2:0:0:
468,308,237604,1,8,0:1:0:0:
468,308,237685,1,10,0:2:0:0:
389,205,237846,1,8,0:1:0:0:
272,328,238008,6,0,B|224:320|200:280|200:280|128:264,1,160,10|8,0:2|0:2,0:0:0:0:
24,140,238491,1,10,0:1:0:0:
32,300,238653,1,10,0:2:0:0:
32,300,238733,1,8,0:1:0:0:
32,300,238814,1,10,0:2:0:0:
124,168,238975,1,8,0:2:0:0:
308,220,239137,2,0,P|300:172|240:128,1,120,14|0,0:1|0:0,0:0:0:0:
204,104,239459,5,14,0:2:0:0:
312,52,239620,1,8,0:2:0:0:
224,216,239782,2,0,P|192:252|176:324,1,120,8|8,0:1|0:1,0:0:0:0:
188,360,240104,1,10,0:2:0:0:
344,284,240266,1,10,0:1:0:0:
344,284,240346,1,10,0:1:0:0:
344,284,240427,1,10,0:2:0:0:
248,112,240588,6,0,B|296:108|308:72|308:72|344:48|396:76,1,160,14|10,0:1|0:2,0:0:0:0:
424,84,240991,1,10,0:2:0:0:
424,84,241072,1,14,0:1:0:0:
492,252,241233,1,10,0:2:0:0:
492,252,241314,1,8,0:1:0:0:
492,252,241395,1,10,0:2:0:0:
512,96,241556,5,10,0:2:0:0:
392,252,241717,1,8,0:1:0:0:
362,278,241797,1,8,0:1:0:0:
324,291,241878,1,8,0:1:0:0:
285,286,241958,1,8,0:1:0:0:
251,266,242040,2,0,P|208:292|136:280,1,120,14|0,0:2|0:0,0:0:0:0:
100,268,242362,1,14,0:1:0:0:
28,136,242524,1,0,0:0:0:0:
152,40,242685,5,10,0:2:0:0:
177,70,242765,1,10,0:2:0:0:
210,92,242846,1,10,0:2:0:0:
249,103,242926,1,10,0:2:0:0:
289,101,243007,1,10,0:1:0:0:
326,88,243088,1,10,0:2:0:0:
358,65,243168,1,10,0:2:0:0:
512,12,243330,5,10,0:2:0:0:
492,188,243491,2,0,P|492:172|484:148,1,40,10|8,0:2|0:2,0:0:0:0:
436,40,243653,1,10,0:1:0:0:
408,208,243814,2,0,P|360:232|308:332,1,160,2|8,0:0|0:2,0:0:0:0:
464,304,244298,1,14,0:1:0:0:
336,120,244459,5,2,0:0:0:0:
336,120,244540,1,2,0:0:0:0:
336,120,244620,2,0,P|312:116|292:116,1,40,14|8,0:1|0:2,0:0:0:0:
164,224,244782,2,0,P|188:228|208:228,1,40,10|8,0:2|0:2,0:0:0:0:
164,64,244943,2,0,P|140:60|120:60,1,40,10|8,0:2|0:2,0:0:0:0:
24,200,245104,5,14,0:1:0:0:
7,236,245184,1,8,0:2:0:0:
4,275,245265,1,10,0:2:0:0:
16,313,245345,1,8,0:2:0:0:
40,345,245426,1,10,0:2:0:0:
244,300,245588,5,14,0:1:0:0:
244,300,245669,1,8,0:2:0:0:
244,300,245749,2,0,P|264:312|276:328,1,40,10|8,0:2|0:2,0:0:0:0:
444,304,245911,2,0,P|432:324|416:336,1,40,10|8,0:2|0:2,0:0:0:0:
460,172,246072,2,0,P|440:160|428:144,1,40,14|8,0:1|0:2,0:0:0:0:
312,20,246233,1,10,0:2:0:0:
274,32,246313,1,8,0:2:0:0:
242,56,246394,1,8,0:2:0:0:
221,90,246474,1,8,0:2:0:0:
212,129,246556,6,0,P|168:140|144:164,1,80,10|10,0:1|0:2,0:0:0:0:
56,272,246879,1,14,0:1:0:0:
64,116,247040,1,2,0:0:0:0:
64,116,247120,1,2,0:0:0:0:
64,116,247201,2,0,P|108:140|156:240,1,160,14|8,0:2|0:1,0:0:0:0:
260,340,247685,2,2,B|320:320|320:320|352:328|352:328|416:300,1,160,2|8,0:0|0:2,0:0:0:0:
492,160,248169,5,10,0:1:0:0:
320,172,248330,1,8,0:2:0:0:
320,172,248411,1,8,0:1:0:0:
320,172,248491,2,0,P|336:124|304:44,1,120,10|0,0:2|0:0,0:0:0:0:
292,24,248814,1,10,0:1:0:0:
204,136,248975,1,0,0:0:0:0:
104,32,249137,6,0,P|144:24|180:40,1,80,2|8,0:2|0:2,0:0:0:0:
248,216,249459,1,10,0:1:0:0:
248,216,249540,1,8,0:1:0:0:
248,216,249620,1,4,0:3:0:0:
76,308,249782,6,0,B|113:290|149:302|149:302|177:342|221:338,1,160,14|8,0:2|0:1,0:0:0:0:
336,260,250266,1,0,0:0:0:0:
456,360,250427,2,0,P|484:328|488:284,1,80,10|8,0:2|0:2,0:0:0:0:
424,180,250749,1,8,0:1:0:0:
336,260,250911,2,0,P|368:288|412:292,1,80,2|8,0:2|0:2,0:0:0:0:
512,200,251233,1,8,0:2:0:0:
360,120,251395,6,0,B|296:136|296:136|280:164|280:164|212:180,1,160,8|10,0:1|0:2,0:0:0:0:
176,188,251798,1,8,0:2:0:0:
176,188,251879,2,0,P|152:192|136:200,1,40,10|8,0:2|0:2,0:0:0:0:
124,348,252040,2,0,P|148:344|164:336,1,40,10|8,0:1|0:1,0:0:0:0:
304,296,252201,1,8,0:3:0:0:
304,296,252282,1,8,0:3:0:0:
304,296,252362,6,0,P|350:277|388:271,1,80,14|8,0:2|0:2,0:0:0:0:
512,219,252685,2,0,P|500:267|494:310,1,80,10|0,0:1|0:0,0:0:0:0:
363,154,253008,1,2,0:2:0:0:
379,271,253169,1,8,0:2:0:0:
435,108,253330,2,0,P|477:117|521:131,1,80,10|0,0:1|0:1,0:0:0:0:
345,76,253653,6,0,P|357:129|367:171,1,80,10|8,0:2|0:2,0:0:0:0:
210,245,253975,2,0,P|222:192|232:150,1,80,10|0,0:1|0:0,0:0:0:0:
337,234,254298,1,2,0:2:0:0:
243,74,254459,1,8,0:2:0:0:
210,245,254620,2,0,P|256:229|269:217,1,40,10|8,0:1|0:1,0:0:0:0:
382,89,254782,2,0,P|341:75|312:78,1,40,4|4,0:3|0:3,0:0:0:0:
457,201,254943,5,14,0:2:0:0:
483,27,255104,1,8,0:2:0:0:
356,178,255266,1,8,0:1:0:0:
505,117,255427,1,2,0:0:0:0:
393,9,255588,1,10,0:2:0:0:
393,9,255669,1,8,0:1:0:0:
393,9,255749,1,8,0:2:0:0:
457,201,255911,1,10,0:1:0:0:
303,49,256072,6,0,P|228:44|169:112,1,160,14|8,0:2|0:2,0:0:0:0:
251,233,256556,1,8,0:1:0:0:
93,250,256717,1,8,0:2:0:0:
172,101,256879,2,0,P|170:150|174:199,1,80,4|8,0:3|0:2,0:0:0:0:
72,358,257201,2,0,P|122:341|163:331,1,80,14|0,0:1|0:0,0:0:0:0:
326,374,257524,6,0,P|291:308|250:231,1,160,14|14,0:2|0:1,0:0:0:0:
303,49,258008,1,2,0:2:0:0:
416,147,258169,2,0,P|395:194|378:230,1,80,10|8,0:2|0:2,0:0:0:0:
512,320,258491,2,0,P|491:273|474:237,1,80,10|0,0:1|0:0,0:0:0:0:
464,64,258814,5,10,0:2:0:0:
334,147,258975,1,8,0:2:0:0:
490,167,259137,1,10,0:1:0:0:
363,56,259298,2,0,P|308:51|195:46,1,160,10|8,0:2|0:2,0:0:0:0:
67,26,259782,2,0,P|91:63|114:101,1,80,12|0,0:1|0:0,0:0:0:0:
98,225,260104,6,0,P|144:211|189:223,1,80,14|0,0:2|0:0,0:0:0:0:
292,378,260427,1,8,0:1:0:0:
272,221,260588,1,2,0:2:0:0:
180,366,260749,1,8,0:2:0:0:
342,282,260911,1,8,0:2:0:0:
175,217,261072,2,0,P|184:259|191:302,1,80,10|4,0:1|0:3,0:0:0:0:
366,164,261395,6,0,P|355:218|340:286,1,120,14|0,0:2|0:0,0:0:0:0:
333,314,261717,2,0,P|391:296|423:280,1,80,8|14,0:1|0:2,0:0:0:0:
500,357,262040,1,2,0:0:0:0:
445,195,262201,1,8,0:2:0:0:
410,372,262362,1,4,0:3:0:0:
269,175,262524,5,8,0:2:0:0:
269,175,262604,1,8,0:2:0:0:
269,175,262685,2,0,P|286:123|296:91,1,80,14|8,0:2|0:1,0:0:0:0:
330,2,263008,1,2,0:2:0:0:
159,39,263169,1,8,0:2:0:0:
159,39,263249,1,8,0:2:0:0:
159,39,263330,2,0,P|171:77|183:115,1,80,14|0,0:1|0:0,0:0:0:0:
105,232,263653,2,0,P|157:215|189:205,1,80,10|8,0:2|0:1,0:0:0:0:
322,298,263975,5,10,0:2:0:0:
204,312,264137,1,8,0:1:0:0:
296,167,264298,1,10,0:2:0:0:
399,323,264459,1,8,0:2:0:0:
399,323,264540,1,8,0:2:0:0:
399,323,264620,2,0,P|360:310|322:298,1,80,10|8,0:1|0:1,0:0:0:0:
454,208,264943,1,10,0:3:0:0:
501,367,265104,1,6,0:3:0:0:
322,184,265266,5,12,0:2:0:0:
493,290,265427,1,8,0:1:0:0:
429,102,265588,1,2,0:0:0:0:
323,299,265749,1,8,0:2:0:0:
293,92,265911,5,8,0:1:0:0:
508,189,266072,1,8,0:1:0:0:
259,219,266233,1,8,0:3:0:0:
429,102,266395,6,0,P|412:164|384:265,1,160,12|8,0:1|0:2,0:0:0:0:
206,338,266879,1,8,0:1:0:0:
273,135,267040,1,8,0:1:0:0:
355,345,267201,5,8,0:1:0:0:
144,254,267362,1,8,0:1:0:0:
356,184,267524,1,8,0:3:0:0:
144,114,267685,1,8,0:3:0:0:
281,322,267846,5,14,0:2:0:0:
256,192,267927,12,2,269137,0:0:0:0:
152,88,280104,5,8,0:1:0:0:
272,48,280266,1,8,0:1:0:0:
324,164,280427,1,10,0:3:0:0:
204,204,280589,1,2,0:2:0:0:
272,48,280749,6,0,P|328:32|404:72,1,143.999995605469,14|2,0:2|0:2,0:0:0:0:
480,148,281233,1,10,0:2:0:0:
392,216,281395,2,0,P|388:264|324:356,1,143.999995605469,8|2,0:1|0:1,0:0:0:0:
132,272,282040,6,0,P|136:224|200:132,1,143.999995605469,10|8,0:2|0:2,0:0:0:0:
272,76,282524,1,8,0:2:0:0:
256,200,282685,1,10,0:1:0:0:
192,56,282846,1,8,0:1:0:0:
336,28,283008,2,0,P|352:60|352:100,1,71.9999978027344,10|2,0:2|0:2,0:0:0:0:
340,240,283330,6,0,P|388:260|420:352,1,143.999995605469,14|2,0:2|0:2,0:0:0:0:
328,336,283814,1,8,0:2:0:0:
308,168,283975,1,8,0:1:0:0:
208,268,284137,1,10,0:1:0:0:
168,140,284298,2,0,P|204:156|224:184,1,71.9999978027344,8|2,0:2|0:2,0:0:0:0:
72,148,284620,2,0,P|100:80|172:48,2,143.999995605469,10|8|10,0:2|0:2|0:1,0:0:0:0:
72,148,285588,2,0,P|112:156|136:180,1,71.9999978027344,2|0,0:2|0:0,0:0:0:0:
208,332,285911,5,14,0:2:0:0:
224,236,286072,1,8,0:2:0:0:
296,336,286233,1,8,0:1:0:0:
316,204,286395,1,8,0:1:0:0:
388,340,286556,1,8,0:1:0:0:
408,180,286717,1,8,0:1:0:0:
476,344,286879,6,0,P|504:312|508:272,1,80,10|8,0:1|0:1,0:0:0:0:
464,100,287201,1,10,0:1:0:0:
316,204,287362,1,8,0:1:0:0:
512,172,287524,1,10,0:1:0:0:
344,40,287685,1,8,0:1:0:0:
368,272,287846,5,10,0:1:0:0:
368,272,287927,1,8,0:3:0:0:
368,272,288008,1,4,0:3:0:0:
456,52,288169,1,10,0:2:0:0:
240,108,288330,1,2,0:2:0:0:
240,108,288411,1,8,0:1:0:0:
240,108,288491,1,8,0:2:0:0:
404,368,288653,6,0,P|436:340|444:216,1,160,14|8,0:1|0:2,0:0:0:0:
316,32,289137,1,14,0:1:0:0:
104,148,289298,1,8,0:1:0:0:
252,336,289459,1,10,0:3:0:0:
283,311,289539,1,8,0:3:0:0:
303,277,289620,1,4,0:3:0:0:
310,238,289700,1,4,0:3:0:0:
302,198,289781,5,10,0:2:0:0:
136,232,290104,1,2,0:0:0:0:
252,336,290427,1,2,0:2:0:0:
196,152,290588,5,8,0:2:0:0:
196,152,290669,1,8,0:2:0:0:
196,152,290749,1,10,0:1:0:0:
24,240,290911,1,10,0:2:0:0:
214,57,291072,6,0,P|266:63|309:69,1,88.000002685547,14|0,0:2|0:0,0:0:0:0:
476,22,291395,1,8,0:1:0:0:
398,188,291556,1,2,0:1:0:0:
356,20,291717,1,8,0:2:0:0:
510,100,291879,1,8,0:2:0:0:
398,188,292040,2,0,P|354:192|310:198,1,88.000002685547,10|2,0:1|0:2,0:0:0:0:
119,343,292362,5,10,0:2:0:0:
324,353,292524,1,8,0:2:0:0:
161,205,292685,2,0,P|186:154|204:120,1,88.000002685547,10|0,0:1|0:0,0:0:0:0:
17,229,293008,2,0,P|36:268|56:307,1,88.000002685547,10|8,0:2|0:2,0:0:0:0:
200,126,293330,2,0,P|153:108|113:92,1,88.000002685547,10|0,0:1|0:0,0:0:0:0:
191,305,293653,6,0,P|253:283|369:246,1,176.000005371094,14|8,0:2|0:1,0:0:0:0:
302,92,294137,2,0,P|291:150|285:187,1,88.000002685547,2|8,0:0|0:2,0:0:0:0:
378,349,294459,1,8,0:2:0:0:
423,169,294620,1,10,0:1:0:0:
271,278,294782,1,2,0:2:0:0:
91,175,294943,5,10,0:2:0:0:
271,278,295104,1,8,0:2:0:0:
138,314,295266,2,0,P|155:267|173:212,1,88.000002685547,8|2,0:1|0:0,0:0:0:0:
192,50,295588,2,0,P|245:91|279:114,1,88.000002685547,14|0,0:2|0:0,0:0:0:0:
310,283,295911,1,14,0:2:0:0:
202,154,296072,1,2,0:2:0:0:
461,57,296233,6,0,P|433:92|408:128,1,88.000002685547,14|8,0:2|0:2,0:0:0:0:
417,272,296556,1,10,0:1:0:0:
262,102,296717,1,10,0:2:0:0:
262,102,296798,1,8,0:1:0:0:
262,102,296879,2,0,P|309:139|351:170,1,88.000002685547,8|8,0:2|0:2,0:0:0:0:
349,316,297201,2,0,P|399:300|418:262,1,88.000002685547,8|0,0:1|0:1,0:0:0:0:
390,80,297524,5,10,0:2:0:0:
493,233,297685,1,8,0:2:0:0:
263,212,297846,2,0,P|298:182|337:151,1,88.000002685547,10|0,0:1|0:0,0:0:0:0:
128,249,298169,2,0,P|159:298|189:335,1,88.000002685547,10|8,0:2|0:2,0:0:0:0:
140,132,298491,2,0,P|67:147|19:157,1,88.000002685547,10|6,0:1|0:3,0:0:0:0:
27,184,298733,5,8,0:1:0:0:
27,184,298814,2,0,P|44:119|56:71,1,88.000002685547,14|2,0:2|0:2,0:0:0:0:
150,14,299137,1,10,0:1:0:0:
179,205,299298,1,8,0:2:0:0:
179,205,299379,1,8,0:1:0:0:
179,205,299459,1,6,0:3:0:0:
49,98,299620,1,8,0:1:0:0:
241,34,299782,1,8,0:1:0:0:
49,98,299943,2,0,P|110:98|171:102,1,88.000002685547,14|2,0:2|0:0,0:0:0:0:
176,107,300185,5,2,0:0:0:0:
176,107,300266,2,0,P|183:73|184:51,1,44.0000013427735,8|8,0:1|0:1,0:0:0:0:
341,107,300427,1,6,0:3:0:0:
192,236,300588,1,8,0:2:0:0:
335,218,300749,2,0,P|292:191|287:254,1,132.00000402832,10|0,0:1|0:0,0:0:0:0:
314,283,301072,2,0,P|255:263|187:233,1,132.00000402832,14|0,0:1|0:0,0:0:0:0:
164,223,301395,5,14,0:2:0:0:
341,107,301556,1,0,0:0:0:0:
341,107,301717,1,10,0:1:0:0:
314,283,301879,2,0,P|298:324|282:365,1,88.000002685547,2|8,0:2|0:2,0:0:0:0:
482,301,302201,2,0,P|474:257|466:211,1,88.000002685547,10|8,0:2|0:1,0:0:0:0:
480,35,302524,1,2,0:2:0:0:
276,38,302685,5,8,0:2:0:0:
433,127,302846,1,8,0:2:0:0:
300,190,303008,2,0,P|325:144|343:112,1,88.000002685547,8|8,0:1|0:3,0:0:0:0:
356,86,303249,1,8,0:3:0:0:
356,86,303330,1,8,0:2:0:0:
207,141,303491,1,8,0:2:0:0:
374,225,303653,1,14,0:1:0:0:
188,274,303814,1,2,0:1:0:0:
397,354,303975,6,0,P|388:308|373:222,1,132.00000402832,14|0,0:2|0:0,0:0:0:0:
368,197,304298,2,0,P|426:223|455:235,1,88.000002685547,14|0,0:1|0:2,0:0:0:0:
288,289,304620,1,10,0:1:0:0:
291,101,304782,1,10,0:2:0:0:
448,232,304943,1,6,0:3:0:0:
168,187,305104,6,0,P|184:132|220:14,1,176.000005371094,14|8,0:1|0:2,0:0:0:0:
302,128,305588,1,12,0:1:0:0:
86,43,305749,1,8,0:3:0:0:
86,43,305830,1,8,0:3:0:0:
86,43,305911,1,4,0:3:0:0:
168,187,306072,2,0,P|210:188|220:184,1,44.0000013427735,8|8,0:1|0:1,0:0:0:0:
300,335,306233,2,0,P|263:318|228:309,1,44.0000013427735,6|4,0:3|0:3,0:0:0:0:
116,353,306395,2,0,P|143:312|146:291,1,44.0000013427735,10|8,0:2|0:1,0:0:0:0:
317,148,306556,6,0,P|302:198|301:238,1,88.000002685547,14|2,0:2|0:0,0:0:0:0:
470,62,306879,5,14,0:1:0:0:
400,349,307040,1,10,0:2:0:0:
255,49,307201,5,10,0:1:0:0:
498,289,307362,1,8,0:2:0:0:
196,257,307524,5,10,0:1:0:0:
408,27,307685,1,8,0:2:0:0:
97,65,307846,5,10,0:1:0:0:
300,335,308008,1,8,0:2:0:0:
319,99,308169,6,0,P|268:144|238:170,1,88.000002685547,14|8,0:1|0:2,0:0:0:0:
138,365,308491,5,10,0:1:0:0:
93,121,308653,1,8,0:2:0:0:
313,283,308814,6,0,P|313:245|308:218,1,44.0000013427735,10|8,0:1|0:1,0:0:0:0:
459,96,308975,2,0,P|445:151|450:175,1,44.0000013427735,6|6,0:3|0:3,0:0:0:0:
459,284,309137,5,14,0:1:0:0:
258,57,309298,1,8,0:2:0:0:
249,341,309459,1,8,0:2:0:0:
432,88,309620,5,14,0:1:0:0:
165,179,309782,1,8,0:2:0:0:
386,362,309943,1,8,0:2:0:0:
435,70,310104,5,10,0:1:0:0:
435,70,310185,1,8,0:1:0:0:
435,70,310266,1,8,0:2:0:0:
165,179,310427,6,1,B|202:148|256:181|256:181|332:120|405:205|396:299|279:310|255:356|255:356|229:319|166:294,1,527.999983886719,14|0,0:1|0:0,0:0:0:0:
60,289,311395,2,0,P|49:224|69:162,1,132.00000402832,10|0,0:1|0:0,0:0:0:0:
70,163,311717,6,0,P|87:96|115:0,1,160,14|8,0:2|0:1,0:0:0:0:
165,179,312201,1,2,0:1:0:0:
252,24,312362,2,0,P|296:32|348:88,1,120,8|0,0:2|0:0,0:0:0:0:
364,124,312685,1,10,0:1:0:0:
452,280,312846,5,2,0:0:0:0:
452,280,312927,1,2,0:0:0:0:
452,280,313008,2,0,P|480:252|488:212,1,80,10|8,0:2|0:2,0:0:0:0:
364,124,313330,1,10,0:1:0:0:
340,280,313491,1,0,0:1:0:0:
424,56,313653,2,0,P|372:40|300:56,1,120,10|0,0:2|0:0,0:0:0:0:
272,72,313975,1,10,0:1:0:0:
188,192,314137,1,0,0:0:0:0:
152,48,314298,6,0,P|68:52|16:104,1,160,10|8,0:2|0:1,0:0:0:0:
56,264,314782,1,0,0:0:0:0:
108,136,314943,1,8,0:2:0:0:
56,264,315104,1,8,0:2:0:0:
204,184,315266,1,10,0:1:0:0:
244,340,315427,5,2,0:0:0:0:
244,340,315508,1,2,0:0:0:0:
244,340,315588,2,0,B|308:320|308:320|344:332|344:332|404:312,1,160,8|10,0:2|0:1,0:0:0:0:
480,192,316072,1,10,0:2:0:0:
412,68,316233,2,0,P|356:108|344:204,1,160,8|10,0:2|0:1,0:0:0:0:
348,236,316637,1,8,0:1:0:0:
348,236,316717,1,4,0:3:0:0:
248,88,316879,6,0,B|220:48|188:44|188:44|144:60,1,120,14|0,0:2|0:0,0:0:0:0:
100,76,317201,1,14,0:1:0:0:
132,232,317362,2,0,P|156:200|160:160,1,80,2|8,0:0|0:2,0:0:0:0:
40,224,317685,1,8,0:2:0:0:
208,284,317846,2,0,P|252:296|308:356,1,120,8|0,0:1|0:0,0:0:0:0:
332,376,318169,5,10,0:2:0:0:
416,244,318330,1,8,0:2:0:0:
416,244,318411,1,8,0:2:0:0:
416,244,318491,1,10,0:1:0:0:
508,368,318653,1,0,0:1:0:0:
464,172,318814,2,0,P|424:156|388:160,1,80,10|8,0:2|0:2,0:0:0:0:
264,260,319137,1,10,0:1:0:0:
320,104,319298,5,2,0:0:0:0:
320,104,319379,1,2,0:0:0:0:
320,104,319459,2,0,P|340:64|340:16,1,80,14|2,0:2|0:0,0:0:0:0:
104,32,319782,2,0,P|148:16|220:32,1,120,10|8,0:1|0:1,0:0:0:0:
256,44,320104,1,6,0:3:0:0:
192,184,320266,1,8,0:1:0:0:
320,104,320427,1,8,0:1:0:0:
156,104,320588,6,0,P|124:136|104:216,1,120,14|0,0:2|0:0,0:0:0:0:
112,248,320911,1,14,0:2:0:0:
212,336,321072,1,4,0:3:0:0:
76,352,321233,1,10,0:1:0:0:
212,244,321395,5,4,0:3:0:0:
236,248,321502,2,0,L|288:260,1,53.3333333333333,8|8,0:1|0:1,0:0:0:0:
308,168,321717,1,10,0:1:0:0:
332,172,321825,2,0,L|384:184,1,53.3333333333333,10|8,0:1|0:1,0:0:0:0:
476,180,322040,6,0,P|508:132|500:48,1,143.999995605469,14|2,0:2|0:2,0:0:0:0:
392,8,322524,1,10,0:2:0:0:
328,100,322685,1,14,0:1:0:0:
228,44,322846,2,0,P|184:52|112:128,1,143.999995605469,2|10,0:2|0:1,0:0:0:0:
40,212,323330,1,8,0:2:0:0:
115,119,323491,1,8,0:1:0:0:
192,212,323653,2,0,P|236:220|288:300,1,143.999995605469,8|14,0:2|0:1,0:0:0:0:
287,298,324298,5,10,0:1:0:0:
420,216,324459,1,10,0:1:0:0:
420,216,324540,1,10,0:1:0:0:
420,216,324620,2,0,P|460:228|488:220,1,71.9999978027344,14|8,0:2|0:1,0:0:0:0:
416,52,324943,2,0,P|364:96|344:172,1,143.999995605469,2|10,0:2|0:1,0:0:0:0:
340,204,325346,1,10,0:1:0:0:
340,204,325427,1,14,0:2:0:0:
456,144,325588,1,2,0:0:0:0:
308,16,325749,6,0,B|244:32|244:32|224:56|224:56|164:72,1,160,14|8,0:1|0:1,0:0:0:0:
64,200,326233,1,8,0:2:0:0:
163,72,326395,1,8,0:2:0:0:
212,224,326556,1,10,0:2:0:0:
88,112,326717,1,10,0:2:0:0:
264,132,326879,1,10,0:2:0:0:
124,264,327040,1,10,0:2:0:0:
8,96,327201,1,14,0:2:0:0:
256,192,327282,12,0,328330,0:0:0:0:
8,96,328491,6,0,P|24:68|28:36,2,64,2|2|2,0:0|0:0|0:0,0:0:0:0:
24,208,329137,1,8,0:1:0:0:
63,212,329217,1,8,0:3:0:0:
99,228,329298,1,8,0:2:0:0:
129,255,329378,1,8,0:2:0:0:
149,289,329459,1,14,0:1:0:0:
268,184,329620,1,10,0:2:0:0:
356,352,329782,6,0,P|408:368|468:348,1,120,14|0,0:2|0:0,0:0:0:0:
496,316,330104,1,10,0:1:0:0:
408,192,330266,2,0,P|400:232|408:276,1,80,2|8,0:2|0:2,0:0:0:0:
496,316,330588,1,8,0:2:0:0:
472,124,330749,2,0,P|424:104|352:116,1,120,8|0,0:1|0:0,0:0:0:0:
316,132,331072,5,10,0:2:0:0:
256,316,331233,1,8,0:2:0:0:
256,316,331314,1,8,0:2:0:0:
256,316,331395,1,10,0:1:0:0:
124,172,331556,1,8,0:2:0:0:
332,240,331717,5,10,0:1:0:0:
112,296,331879,1,8,0:2:0:0:
112,296,331959,1,8,0:2:0:0:
112,296,332040,1,14,0:1:0:0:
184,72,332201,1,10,0:2:0:0:
332,240,332362,6,0,P|372:236|404:212,1,80,14|8,0:1|0:2,0:0:0:0:
436,80,332685,1,8,0:2:0:0:
248,236,332846,6,0,P|252:276|276:308,1,80,14|8,0:1|0:2,0:0:0:0:
432,376,333169,1,8,0:2:0:0:
336,156,333330,6,0,P|332:116|308:84,1,80,14|8,0:1|0:2,0:0:0:0:
120,32,333653,1,8,0:2:0:0:
152,244,333814,5,14,0:1:0:0:
308,84,333975,1,8,0:3:0:0:
120,32,334137,1,4,0:3:0:0:
272,212,334298,5,8,0:2:0:0:
272,212,334379,1,8,0:1:0:0:
272,212,334459,2,0,P|264:232|260:252,1,40,8|8,0:1|0:1,0:0:0:0:
376,372,334620,2,0,P|384:352|388:332,1,40,8|8,0:3|0:3,0:0:0:0:
480,192,334782,5,4,0:3:0:0:
480,192,334862,1,4,0:3:0:0:
480,192,334943,2,0,P|500:156|500:112,1,80,14|2,0:2|0:1,0:0:0:0:
408,4,335266,1,8,0:2:0:0:
176,72,335427,6,0,B|232:80|232:80|260:104|260:104|328:112,1,160,14|10,0:1|0:3,0:0:0:0:
368,116,335830,1,8,0:3:0:0:
379,154,335910,1,10,0:1:0:0:
376,193,335991,1,8,0:2:0:0:
357,229,336071,1,8,0:2:0:0:
224,356,336233,5,10,0:1:0:0:
224,356,336314,1,8,0:1:0:0:
224,356,336395,1,8,0:3:0:0:
148,188,336556,1,8,0:1:0:0:
148,188,336637,1,8,0:1:0:0:
148,188,336717,1,4,0:3:0:0:
56,332,336879,2,0,P|104:320|176:272,2,120,10|10|10,0:1|0:1|0:1,0:0:0:0:
44,128,337524,5,14,0:2:0:0:
244,216,337685,1,10,0:1:0:0:
244,216,337766,1,8,0:1:0:0:
244,216,337846,1,8,0:3:0:0:
308,16,338008,1,4,0:3:0:0:
464,168,338169,5,8,0:1:0:0:
435,140,338249,1,4,0:3:0:0:
399,123,338330,1,8,0:3:0:0:
359,120,338410,1,4,0:3:0:0:
321,131,338491,1,10,0:2:0:0:
340,296,338653,1,8,0:2:0:0:
144,216,338814,2,0,P|120:168|148:64,1,160,14|2,0:2|0:0,0:0:0:0:
143,68,339459,5,10,0:1:0:0:
376,16,339620,1,10,0:1:0:0:
432,252,339782,1,10,0:1:0:0:
199,304,339943,1,10,0:1:0:0:
