osu file format v14

[General]
AudioFilename: audio.mp3
AudioLeadIn: 0
PreviewTime: -1
Countdown: 0
SampleSet: Soft
StackLeniency: 0.2
Mode: 0
LetterboxInBreaks: 0
WidescreenStoryboard: 0

[Editor]
DistanceSpacing: 2
BeatDivisor: 4
GridSize: 4
TimelineZoom: 1.6

[Metadata]
Title:Dreaming!
TitleUnicode:Dreaming!
Artist:Yamazaki Haruka, Tadokoro Azusa, Machico
ArtistUnicode:Yamazaki Haruka, Tadokoro Azusa, Machico
Creator:orangedough
Version:extr@
Source:アイドルマスター ミリオンライブ!
Tags:idolm@ster the idolmaster million live im@s imas bbj0920 enjoy - e n j u - enju startrick kasuga miral mogami shizuka ibuki tsubasa
BeatmapID:913887
BeatmapSetID:422802

[Difficulty]
HPDrainRate:6
CircleSize:4.1
OverallDifficulty:7.5
ApproachRate:9.6
SliderMultiplier:2.5
SliderTickRate:1

[Events]
//Background and Video events
0,0,"THE.iDOLM@STER.full.1356165.jpg",0,0
//Break Periods
//Storyboard Layer 0 (Background)
//Storyboard Layer 1 (Fail)
//Storyboard Layer 2 (Pass)
//Storyboard Layer 3 (Foreground)
//Storyboard Sound Samples

[TimingPoints]
0,333.333333333333,4,1,0,100,1,0
5999,-200,4,2,0,60,0,0
11333,-111.111111111111,4,2,0,60,0,0
13833,-133.333333333333,4,2,0,60,0,0
17749,-83.3333333333333,4,2,0,60,0,0
18333,-133.333333333333,4,2,0,75,0,0
18666,-105.263157894737,4,2,0,75,0,0
29666,-153.846153846154,4,2,0,55,0,0
50333,-200,4,2,0,40,0,0
55833,-111.111111111111,4,2,0,60,0,0
65833,-100,4,2,0,75,0,0
83166,-90.9090909090909,4,2,0,75,0,0

[HitObjects]
72,176,6000,5,2,0:0:0:0:
216,120,6166,1,0,0:0:0:0:
204,264,6333,1,2,0:0:0:0:
324,256,6499,2,0,P|388:232|408:176,1,125
328,184,6999,5,2,0:0:0:0:
132,232,7166,2,0,B|88:180|88:180|132:128,1,125
334,62,7666,1,2,0:0:0:0:
262,267,7833,1,0,0:0:0:0:
184,156,7999,1,2,0:0:0:0:
392,248,8166,5,0,0:0:0:0:
177,113,8333,2,0,P|225:73|309:73,1,125,2|2,0:0|0:0,0:0:0:0:
263,159,8833,5,0,0:0:0:0:
312,288,9000,1,2,0:0:0:0:
411,155,9166,1,0,0:0:0:0:
84,144,9333,6,0,P|140:136|204:68,1,125
332,312,9833,1,0,0:0:0:0:
276,97,10000,1,2,0:0:0:0:
448,228,10167,1,0,0:0:0:0:
372,136,10333,1,2,0:0:0:0:
232,232,10499,6,0,P|192:200|156:192,1,62.5,0|2,0:0|0:0,0:0:0:0:
160,268,10833,1,0,0:0:0:0:
324,68,10999,1,2,0:0:0:0:
100,104,11166,1,0,0:0:0:0:
112,316,11333,6,0,B|144:248|144:248|220:240|284:192,1,224.999993133545
428,193,11833,1,2,0:0:0:0:
360,60,11999,2,0,B|320:112|248:104|248:104|212:212,1,224.999993133545
107,221,12499,1,2,0:0:0:0:
248,84,12666,1,0,0:0:0:0:
268,284,12833,1,2,0:0:0:0:
444,184,12999,5,0,0:0:0:0:
396,56,13166,1,2,0:0:0:0:
256,192,13333,1,0,0:0:0:0:
204,56,13499,1,2,0:0:0:0:
396,312,13666,1,0,0:0:0:0:
272,160,13833,5,2,0:0:0:0:
250,85,13999,2,0,P|206:49|167:53,1,93.7500035762788,0|2,0:0|0:0,0:0:0:0:
132,204,14333,5,0,0:0:0:0:
81,262,14499,2,0,P|101:312|162:324,1,93.7500035762788,2|0,0:0|0:0,0:0:0:0:
276,280,14833,5,2,0:0:0:0:
349,317,14999,2,0,P|412:291|433:266,1,93.7500035762788,0|2,0:0|0:0,0:0:0:0:
376,180,15333,5,0,0:0:0:0:
430,120,15499,2,0,P|404:53|364:37,1,93.7500035762788,2|0,0:0|0:0,0:0:0:0:
88,124,15833,1,10,0:0:0:0:
112,164,15916,1,8,0:0:0:0:
144,197,15999,1,8,0:0:0:0:
184,222,16083,1,8,0:0:0:0:
228,236,16166,1,10,0:0:0:0:
275,240,16249,1,8,0:0:0:0:
321,233,16333,1,8,0:0:0:0:
364,216,16416,1,8,0:0:0:0:
402,188,16499,1,10,0:0:0:0:
220,72,16666,5,8,0:0:0:0:
220,72,16749,1,8,0:0:0:0:
220,72,16833,1,10,0:0:0:0:
83,200,16999,6,8,L|134:218,2,46.8750017881394,8|8|10,0:0|0:0|0:0,0:0:0:0:
390,140,17333,5,8,0:0:0:0:
365,181,17416,1,8,0:0:0:0:
325,207,17499,1,10,0:0:0:0:
176,80,17666,5,0,0:0:0:0:
139,109,17749,1,0,0:0:0:0:
117,150,17832,1,0,0:0:0:0:
113,196,17915,1,0,0:0:0:0:
127,241,17999,1,0,0:0:0:0:
148,280,18083,2,0,L|260:312,1,74.9999977111817
436,136,18333,6,0,P|444:212|416:256,1,93.7500035762788
104,192,18665,1,0,0:0:0:0:
193,83,18832,1,2,0:0:0:0:
232,180,18999,1,0,0:0:0:0:
186,87,19166,5,2,0:0:0:0:
318,317,19333,1,0,0:0:0:0:
99,251,19499,1,2,0:0:0:0:
396,155,19666,1,0,0:0:0:0:
330,189,19833,6,0,B|274:253|288:319,1,118.749996829033,2|0,0:0|0:0,0:0:0:0:
90,111,20166,1,2,0:0:0:0:
264,96,20333,1,0,0:0:0:0:
264,96,20416,1,0,0:0:0:0:
264,96,20499,1,2,0:0:0:0:
398,188,20666,5,0,0:0:0:0:
420,236,20749,1,0,0:0:0:0:
400,286,20832,1,2,0:0:0:0:
261,314,20999,6,0,L|198:297,2,59.3749984145165,0|0|2,0:0|0:0|0:0,0:0:0:0:
119,243,21333,1,0,0:0:0:0:
264,96,21499,1,2,0:0:0:0:
393,291,21666,1,0,0:0:0:0:
119,169,21833,1,2,0:0:0:0:
364,93,21999,1,0,0:0:0:0:
307,337,22166,1,2,0:0:0:0:
360,208,22333,6,0,B|288:168|228:172|228:172|132:224,1,237.499993658066
152,96,22833,6,0,L|232:64,2,59.3749984145165,2|0|0,0:0|0:0|0:0,0:0:0:0:
159,291,23166,5,2,0:0:0:0:
383,129,23333,1,0,0:0:0:0:
372,318,23499,1,2,0:0:0:0:
108,157,23666,1,0,0:0:0:0:
343,54,23833,1,2,0:0:0:0:
260,312,23999,1,0,0:0:0:0:
403,212,24166,5,2,0:0:0:0:
316,85,24333,1,0,0:0:0:0:
112,108,24499,2,0,B|144:164|144:164|216:140,1,118.749996829033
256,148,24833,5,2,0:0:0:0:
393,304,24999,1,0,0:0:0:0:
98,305,25166,1,2,0:0:0:0:
396,118,25333,1,0,0:0:0:0:
257,312,25500,1,2,0:0:0:0:
96,119,25666,1,0,0:0:0:0:
404,233,25833,5,2,0:0:0:0:
101,280,25999,2,0,L|179:154,1,118.749996829033,0|2,0:0|0:0,0:0:0:0:
261,112,26333,1,0,0:0:0:0:
399,157,26499,1,2,0:0:0:0:
281,284,26666,1,0,0:0:0:0:
68,167,26833,6,0,P|126:115|192:113,1,118.749996829033,2|0,0:0|0:0,0:0:0:0:
164,108,27166,1,2,0:0:0:0:
397,117,27333,6,0,P|368:178|312:188,1,118.749996829033,0|2,0:0|0:0,0:0:0:0:
215,189,27666,1,0,0:0:0:0:
125,102,27833,1,2,0:0:0:0:
70,223,27999,1,0,0:0:0:0:
128,309,28166,6,0,L|262:310,1,118.749996829033,2|0,0:0|0:0,0:0:0:0:
392,227,28499,6,0,L|256:229,1,118.749996829033,2|0,0:0|0:0,0:0:0:0:
128,141,28833,6,0,L|303:140,1,118.749996829033,2|0,0:0|0:0,0:0:0:0:
391,62,29166,6,0,L|251:60,1,118.749996829033,2|0,0:0|0:0,0:0:0:0:
236,60,29499,1,2,0:0:0:0:
106,233,29666,5,0,0:0:0:0:
208,248,29833,2,0,P|281:251|291:233,1,81.2499962806703,2|0,0:0|0:0,0:0:0:0:
394,161,30166,1,2,0:0:0:0:
171,109,30333,1,0,0:0:0:0:
375,329,30499,5,2,0:0:0:0:
290,99,30666,1,0,0:0:0:0:
223,246,30833,1,2,0:0:0:0:
417,215,30999,1,0,0:0:0:0:
185,141,31166,1,2,0:0:0:0:
78,139,31333,6,0,L|143:213,1,81.2499962806703,0|2,0:0|0:0,0:0:0:0:
405,141,31666,6,0,L|334:223,1,81.2499962806703,0|2,0:0|0:0,0:0:0:0:
247,304,31999,1,0,0:0:0:0:
119,246,32166,6,0,B|178:195|226:200|289:222,1,162.499992561341,2|2,0:0|0:0,0:0:0:0:
344,270,32666,1,0,0:0:0:0:
433,192,32833,1,2,0:0:0:0:
304,134,32999,1,0,0:0:0:0:
88,66,33166,1,2,0:0:0:0:
304,134,33333,1,0,0:0:0:0:
132,271,33499,1,2,0:0:0:0:
315,296,33666,5,0,0:0:0:0:
414,208,33833,1,2,0:0:0:0:
188,170,33999,1,0,0:0:0:0:
365,85,34166,1,2,0:0:0:0:
101,77,34333,1,0,0:0:0:0:
152,240,34499,5,2,0:0:0:0:
344,148,34666,1,0,0:0:0:0:
172,124,34833,1,2,0:0:0:0:
256,196,34999,1,0,0:0:0:0:
88,283,35166,6,0,P|152:306|201:306,1,81.2499962806703,2|0,0:0|0:0,0:0:0:0:
196,282,35499,5,2,0:0:0:0:
328,136,35666,1,0,0:0:0:0:
346,308,35832,1,2,0:0:0:0:
183,143,35999,1,0,0:0:0:0:
399,300,36166,1,2,0:0:0:0:
128,174,36332,1,0,0:0:0:0:
417,101,36499,6,0,P|401:169|374:183,1,81.2499962806703,2|0,0:0|0:0,0:0:0:0:
314,272,36833,1,2,0:0:0:0:
188,111,36999,1,0,0:0:0:0:
380,274,37166,1,2,0:0:0:0:
124,121,37332,1,0,0:0:0:0:
440,253,37499,1,2,0:0:0:0:
69,143,37666,1,0,0:0:0:0:
386,80,37833,6,0,L|326:148,1,81.2499962806703,2|0,0:0|0:0,0:0:0:0:
129,87,38166,1,2,0:0:0:0:
417,253,38333,1,0,0:0:0:0:
111,226,38499,1,2,0:0:0:0:
111,226,38583,1,0,0:0:0:0:
111,226,38666,1,0,0:0:0:0:
297,82,38833,5,2,0:0:0:0:
408,175,38999,1,8,0:0:0:0:
393,220,39082,1,8,0:0:0:0:
363,257,39165,1,10,0:0:0:0:
323,282,39249,1,8,0:0:0:0:
276,292,39332,1,8,0:0:0:0:
230,293,39416,2,8,L|161:298,1,40.6249981403352,8|10,0:0|0:0,0:0:0:0:
98,91,39666,5,8,0:0:0:0:
140,85,39749,1,8,0:0:0:0:
183,90,39833,1,10,0:0:0:0:
422,233,39999,5,0,0:0:0:0:
235,73,40166,1,2,0:0:0:0:
105,291,40333,5,0,0:0:0:0:
288,220,40499,1,2,0:0:0:0:
306,331,40666,1,0,0:0:0:0:
312,132,40833,1,10,0:0:0:0:
312,132,40916,1,8,0:0:0:0:
312,132,40999,1,8,0:0:0:0:
200,244,41166,1,2,0:0:0:0:
403,101,41333,6,0,P|388:156|336:164,1,81.2499962806703,0|2,0:0|0:0,0:0:0:0:
261,106,41666,1,0,0:0:0:0:
322,272,41833,1,2,0:0:0:0:
153,211,41999,1,0,0:0:0:0:
330,114,42166,1,2,0:0:0:0:
276,327,42333,1,0,0:0:0:0:
137,151,42499,1,2,0:0:0:0:
71,333,42666,6,0,P|134:311|167:277,1,81.2499962806703,0|2,0:0|0:0,0:0:0:0:
71,122,42999,1,0,0:0:0:0:
359,188,43166,1,2,0:0:0:0:
194,296,43333,1,0,0:0:0:0:
148,66,43499,1,2,0:0:0:0:
321,264,43666,1,0,0:0:0:0:
81,233,43833,1,2,0:0:0:0:
294,91,43999,1,0,0:0:0:0:
412,179,44166,5,2,0:0:0:0:
351,278,44333,1,0,0:0:0:0:
237,284,44499,2,0,P|156:253|151:248,1,81.2499962806703,2|0,0:0|0:0,0:0:0:0:
96,219,44833,1,2,0:0:0:0:
310,62,44999,1,0,0:0:0:0:
390,288,45166,1,2,0:0:0:0:
261,186,45333,1,0,0:0:0:0:
59,316,45499,6,0,P|151:298|201:252,1,162.499992561341,2|2,0:0|0:0,0:0:0:0:
92,180,45999,1,0,0:0:0:0:
350,293,46166,1,2,0:0:0:0:
419,121,46333,1,0,0:0:0:0:
111,251,46499,1,2,0:0:0:0:
425,307,46666,1,0,0:0:0:0:
281,76,46833,1,2,0:0:0:0:
85,82,46999,6,0,P|75:142|106:163,1,81.2499962806703,0|2,0:0|0:0,0:0:0:0:
156,238,47333,1,0,0:0:0:0:
192,135,47499,1,2,0:0:0:0:
261,261,47666,1,0,0:0:0:0:
272,100,47833,1,2,0:0:0:0:
345,187,47999,1,0,0:0:0:0:
372,287,48166,5,2,0:0:0:0:
166,295,48333,1,0,0:0:0:0:
167,89,48499,1,2,0:0:0:0:
374,86,48666,1,0,0:0:0:0:
74,168,48833,6,0,P|123:190|182:189,1,81.2499962806703,2|0,0:0|0:0,0:0:0:0:
397,161,49165,1,2,0:0:0:0:
340,304,49332,1,0,0:0:0:0:
170,234,49499,1,2,0:0:0:0:
93,95,49666,5,0,0:0:0:0:
174,63,49833,1,2,0:0:0:0:
262,69,49999,1,0,0:0:0:0:
346,108,50166,1,2,0:0:0:0:
90,238,50333,6,0,P|130:262|151:259,1,62.5,0|2,0:0|0:0,0:0:0:0:
235,257,50666,1,0,0:0:0:0:
336,246,50833,2,0,P|370:215|385:202,1,62.5,2|0,0:0|0:0,0:0:0:0:
299,159,51166,5,2,0:0:0:0:
370,114,51333,2,0,P|323:77|260:84,1,125
163,100,51833,1,2,0:0:0:0:
85,206,51999,1,0,0:0:0:0:
175,312,52166,1,2,0:0:0:0:
175,312,52333,6,0,P|241:313|305:291,1,125
372,229,52833,1,2,0:0:0:0:
375,82,52999,1,0,0:0:0:0:
243,125,53166,5,2,0:0:0:0:
154,257,53333,1,0,0:0:0:0:
63,99,53499,1,2,0:0:0:0:
196,89,53666,6,0,P|280:64|320:80,1,125
312,75,54166,1,2,0:0:0:0:
358,202,54333,6,0,P|313:297|277:307,1,125
272,309,54833,1,2,0:0:0:0:
177,297,54999,6,0,B|122:278|110:262|107:198,1,125
137,102,55499,1,2,0:0:0:0:
336,102,55666,1,0,0:0:0:0:
223,151,55833,6,0,P|243:218|215:254,1,112.499996566773,2|0,0:0|0:0,0:0:0:0:
221,249,56166,1,2,0:0:0:0:
350,291,56333,5,8,0:0:0:0:
147,71,56499,1,10,0:0:0:0:
168,66,56666,1,8,0:0:0:0:
254,325,56833,5,10,0:0:0:0:
268,72,56999,1,8,0:0:0:0:
302,81,57166,1,10,0:0:0:0:
170,309,57333,5,8,0:0:0:0:
381,135,57499,1,10,0:0:0:0:
410,160,57666,1,8,0:0:0:0:
99,230,57833,5,10,0:0:0:0:
390,252,57999,1,8,0:0:0:0:
383,296,58166,1,10,0:0:0:0:
263,152,58333,6,0,L|265:283,1,112.499996566773,0|2,0:0|0:0,0:0:0:0:
406,58,58666,5,8,0:0:0:0:
91,296,58833,1,10,0:0:0:0:
123,314,58999,1,8,0:0:0:0:
288,59,59166,5,10,0:0:0:0:
217,327,59333,1,8,0:0:0:0:
263,327,59499,1,10,0:0:0:0:
174,64,59666,5,8,0:0:0:0:
376,296,59833,1,10,0:0:0:0:
410,259,59999,1,8,0:0:0:0:
87,98,60166,5,10,0:0:0:0:
438,152,60333,1,8,0:0:0:0:
443,104,60499,1,10,0:0:0:0:
188,86,60666,6,0,P|273:91|304:127,1,112.499996566773,0|2,0:0|0:0,0:0:0:0:
362,166,60999,1,0,0:0:0:0:
92,282,61166,5,2,0:0:0:0:
399,246,61333,1,0,0:0:0:0:
149,95,61499,1,2,0:0:0:0:
275,328,61666,1,0,0:0:0:0:
378,85,61833,1,2,0:0:0:0:
86,315,61999,5,8,0:0:0:0:
67,54,62166,1,2,0:0:0:0:
179,256,62333,5,8,0:0:0:0:
176,122,62499,1,2,0:0:0:0:
281,326,62666,5,8,0:0:0:0:
276,59,62833,1,2,0:0:0:0:
378,255,62999,5,8,0:0:0:0:
379,118,63166,1,2,0:0:0:0:
44,168,63333,5,8,0:0:0:0:
447,136,63499,1,2,0:0:0:0:
91,257,63666,5,8,0:0:0:0:
381,76,63833,1,2,0:0:0:0:
188,292,63999,5,8,0:0:0:0:
304,59,64166,1,2,0:0:0:0:
275,312,64333,5,8,0:0:0:0:
226,60,64499,1,2,0:0:0:0:
368,300,64666,5,8,0:0:0:0:
145,73,64833,1,2,0:0:0:0:
88,329,64999,5,0,0:0:0:0:
257,41,65166,1,10,0:0:0:0:
426,333,65333,1,8,0:0:0:0:
114,156,65499,1,10,0:0:0:0:
398,156,65666,1,8,0:0:0:0:
162,83,65833,6,8,P|262:91|296:107,1,125,10|8,0:0|0:0,0:0:0:0:
398,156,66166,1,10,0:0:0:0:
72,202,66333,1,8,0:0:0:0:
272,317,66499,1,10,0:0:0:0:
226,53,66666,1,8,0:0:0:0:
402,283,66833,1,10,0:0:0:0:
402,283,66916,1,8,0:0:0:0:
402,283,66999,1,8,0:0:0:0:
83,95,67166,5,2,0:0:0:0:
312,112,67333,1,0,0:0:0:0:
182,241,67499,1,2,0:0:0:0:
64,167,67666,5,0,0:0:0:0:
380,144,67832,1,2,0:0:0:0:
192,328,67999,1,0,0:0:0:0:
174,137,68166,5,2,0:0:0:0:
422,206,68332,1,0,0:0:0:0:
283,325,68499,1,2,0:0:0:0:
75,252,68666,6,0,P|88:177|148:143,1,125,0|2,0:0|0:0,0:0:0:0:
208,104,68999,1,0,0:0:0:0:
316,255,69166,1,2,0:0:0:0:
99,146,69333,1,0,0:0:0:0:
372,275,69499,1,2,0:0:0:0:
41,235,69666,1,0,0:0:0:0:
432,286,69833,1,2,0:0:0:0:
399,69,69999,5,0,0:0:0:0:
312,284,70166,1,2,0:0:0:0:
137,148,70333,1,0,0:0:0:0:
127,318,70499,1,2,0:0:0:0:
388,183,70666,1,0,0:0:0:0:
101,108,70833,1,2,0:0:0:0:
338,318,70999,1,0,0:0:0:0:
252,96,71166,6,0,B|316:132|316:132|276:232,1,125,2|8,0:0|0:0,0:0:0:0:
288,184,71416,1,8,0:0:0:0:
288,184,71499,1,10,0:0:0:0:
384,108,71666,1,0,0:0:0:0:
90,78,71833,5,2,0:0:0:0:
391,52,71999,1,0,0:0:0:0:
80,284,72166,1,2,0:0:0:0:
317,49,72333,1,0,0:0:0:0:
235,312,72499,1,2,0:0:0:0:
251,56,72666,1,0,0:0:0:0:
420,315,72833,1,2,0:0:0:0:
179,93,72999,6,8,L|203:165,2,62.5,8|8|10,0:0|0:0|0:0,0:0:0:0:
398,133,73333,5,8,0:0:0:0:
391,194,73416,1,8,0:0:0:0:
360,248,73499,1,10,0:0:0:0:
309,283,73582,1,8,0:0:0:0:
248,293,73666,1,8,0:0:0:0:
86,196,73833,5,10,0:0:0:0:
133,156,73916,1,8,0:0:0:0:
193,144,73999,1,8,0:0:0:0:
399,78,74166,6,0,P|390:162|356:206,1,125,2|0,0:0|0:0,0:0:0:0:
298,293,74499,1,2,0:0:0:0:
63,89,74666,1,0,0:0:0:0:
175,310,74833,1,2,0:0:0:0:
178,120,74999,1,0,0:0:0:0:
74,247,75166,1,2,0:0:0:0:
280,170,75333,1,0,0:0:0:0:
301,335,75499,6,0,L|191:251,1,125,2|0,0:0|0:0,0:0:0:0:
66,122,75833,1,2,0:0:0:0:
241,56,75999,1,0,0:0:0:0:
50,259,76166,5,2,0:0:0:0:
350,82,76333,1,0,0:0:0:0:
174,280,76499,5,2,0:0:0:0:
381,183,76666,1,8,0:0:0:0:
381,183,76749,1,8,0:0:0:0:
381,183,76833,1,10,0:0:0:0:
61,264,76999,5,8,0:0:0:0:
83,205,77082,1,8,0:0:0:0:
122,157,77165,1,10,0:0:0:0:
175,125,77248,1,8,0:0:0:0:
235,108,77332,1,8,0:0:0:0:
298,108,77415,1,8,0:0:0:0:
356,129,77498,1,10,0:0:0:0:
403,170,77582,1,8,0:0:0:0:
430,226,77665,1,8,0:0:0:0:
441,288,77748,1,8,0:0:0:0:
444,341,77833,1,10,0:0:0:0:
46,320,77999,5,0,0:0:0:0:
431,60,78166,1,2,0:0:0:0:
85,84,78332,1,0,0:0:0:0:
426,342,78499,1,2,0:0:0:0:
229,40,78666,1,0,0:0:0:0:
46,249,78832,1,2,0:0:0:0:
460,236,78999,1,0,0:0:0:0:
337,43,79166,5,2,0:0:0:0:
163,346,79332,1,0,0:0:0:0:
89,59,79499,1,2,0:0:0:0:
337,320,79666,1,0,0:0:0:0:
455,48,79832,1,2,0:0:0:0:
408,204,79999,6,0,P|334:229|263:220,1,125,0|2,0:0|0:0,0:0:0:0:
318,283,80333,5,0,0:0:0:0:
399,130,80499,1,2,0:0:0:0:
166,280,80666,1,0,0:0:0:0:
99,124,80833,1,2,0:0:0:0:
372,296,80999,5,0,0:0:0:0:
462,94,81166,1,2,0:0:0:0:
116,299,81333,1,0,0:0:0:0:
36,107,81499,1,2,0:0:0:0:
407,227,81666,5,0,0:0:0:0:
108,69,81833,1,2,0:0:0:0:
55,264,81999,1,0,0:0:0:0:
412,304,82166,1,2,0:0:0:0:
418,77,82333,1,0,0:0:0:0:
49,159,82499,1,2,0:0:0:0:
221,328,82666,1,0,0:0:0:0:
470,195,82833,1,2,0:0:0:0:
231,48,82999,1,0,0:0:0:0:
107,309,83166,6,0,L|281:308,1,137.500004196167,2|0,0:0|0:0,0:0:0:0:
383,228,83499,6,0,L|231:226,1,137.500004196167,2|0,0:0|0:0,0:0:0:0:
115,138,83833,6,0,L|268:141,1,137.500004196167,2|0,0:0|0:0,0:0:0:0:
387,60,84166,6,0,L|247:57,1,137.500004196167,2|0,0:0|0:0,0:0:0:0:
204,196,84499,1,2,0:0:0:0:
304,196,84666,1,0,0:0:0:0:
59,337,84833,5,2,0:0:0:0:
62,52,84999,1,0,0:0:0:0:
429,46,85166,1,2,0:0:0:0:
439,337,85333,1,0,0:0:0:0:
107,196,85499,5,2,0:0:0:0:
342,84,85666,1,0,0:0:0:0:
345,296,85833,1,2,0:0:0:0:
63,88,85999,5,0,0:0:0:0:
405,191,86166,1,2,0:0:0:0:
68,284,86333,1,0,0:0:0:0:
417,46,86499,1,2,0:0:0:0:
365,312,86666,6,0,L|288:193,1,137.500004196167,0|2,0:0|0:0,0:0:0:0:
99,148,86999,1,0,0:0:0:0:
235,299,87166,1,2,0:0:0:0:
307,54,87333,1,0,0:0:0:0:
457,200,87499,1,2,0:0:0:0:
95,304,87666,5,0,0:0:0:0:
392,175,87833,1,2,0:0:0:0:
101,86,87999,1,0,0:0:0:0:
341,317,88166,1,2,0:0:0:0:
321,54,88333,1,0,0:0:0:0:
207,320,88499,1,2,0:0:0:0:
256,192,89083,12,0,92249,0:0:0:0:
