osu file format v14

[General]
AudioFilename: audio.mp3
AudioLeadIn: 0
PreviewTime: 66247
Countdown: 0
SampleSet: Soft
StackLeniency: 0.7
Mode: 0
LetterboxInBreaks: 0
WidescreenStoryboard: 1

[Editor]
Bookmarks: 5997,29997,51331,67331,88997,91831
DistanceSpacing: 1
BeatDivisor: 6
GridSize: 4
TimelineZoom: 1.5

[Metadata]
Title:Dreaming!
TitleUnicode:Dreaming!
Artist:Yamazaki Haruka, Tadokoro Azusa, Machico
ArtistUnicode:山崎はるか、田所あずさ、Machico
Creator:browiec
Version:Mimari's Normal!
Source:アイドルマスター ミリオンライブ!
Tags:idolm@ster the idolmaster million live im@s imas mogami shizuka ibuki tsubasa mirai kasuga mimari kowari never_log_off japanese game size 最上 静香 伊吹 翼 春日 未来
BeatmapID:2200005
BeatmapSetID:1052724

[Difficulty]
HPDrainRate:3
CircleSize:3.4
OverallDifficulty:4.5
ApproachRate:5
SliderMultiplier:0.9
SliderTickRate:1

[Events]
//Background and Video events
0,0,"sylvari thanks for bg.jpg",0,0
//Break Periods
//Storyboard Layer 0 (Background)
//Storyboard Layer 1 (Fail)
//Storyboard Layer 2 (Pass)
//Storyboard Layer 3 (Foreground)
//Storyboard Layer 4 (Overlay)
//Storyboard Sound Samples

[TimingPoints]
5998,333.333333333333,4,2,1,35,1,0
12664,-100,4,2,1,45,0,0
13331,-100,4,2,1,50,0,0
13997,-100,4,2,1,55,0,0
18331,-100,4,2,1,35,0,0
18831,-100,4,2,1,55,0,0
29164,-100,4,2,1,50,0,0
29664,-100,4,2,1,35,0,0
29997,-100,4,2,1,45,0,0
39997,-100,4,2,1,50,0,0
40664,-100,4,2,1,55,0,0
51331,-100,4,2,1,50,0,0
56664,-100,4,2,1,55,0,0
61997,-100,4,2,1,60,0,0
66331,-100,4,2,1,35,0,0
66831,-100,4,2,1,55,0,0
67331,-100,4,2,1,65,0,0
84997,-100,4,2,1,35,0,0
85497,-100,4,2,1,50,0,0
85997,-100,4,2,1,55,0,0
88997,-100,4,2,1,25,0,0

[Colours]
Combo1 : 255,255,0
Combo2 : 91,140,255
Combo3 : 255,128,0
Combo4 : 255,0,255

[HitObjects]
87,105,5997,6,0,B|159:81|153:133|232:108,1,135,2|2,0:2|0:2,0:0:0:0:
395,77,7164,2,0,L|390:186,1,90,2|2,0:2|0:2,0:0:0:0:
386,211,7664,2,0,P|423:225|486:206,2,90,2|2|2,0:2|0:2|0:2,0:0:0:0:
305,170,8664,2,0,P|265:150|171:168,1,135,2|2,0:2|0:2,0:0:0:0:
178,163,10997,6,0,L|179:220,1,45,2|2,0:2|0:2,0:0:0:0:
181,253,11331,2,0,P|141:262|85:244,2,90,2|2|2,0:2|0:2|0:2,0:0:0:0:
262,213,12331,1,2,0:2:0:0:
342,253,12664,1,2,3:2:0:0:
342,253,13997,6,0,L|406:249,2,45,4|0|0,0:2|0:2|3:2,0:0:0:0:
299,269,14497,2,0,L|200:265,1,90,0|0,0:2|0:2,0:0:0:0:
164,263,14997,1,4,0:2:0:0:
77,238,15331,1,0,3:2:0:0:
77,238,15497,2,0,P|88:196|73:147,1,90,4|4,0:2|0:2,0:0:0:0:
42,124,15997,1,4,0:2:0:0:
57,35,16331,1,0,3:2:0:0:
57,35,16497,6,0,P|102:47|156:39,1,90,2|0,3:2|3:2,0:0:0:0:
185,24,16997,2,0,L|239:27,1,45,0|0,3:2|3:2,0:0:0:0:
274,31,17331,1,6,0:2:0:0:
353,72,17664,1,0,3:2:0:0:
353,72,17831,2,0,P|337:127|349:167,1,90,6|0,0:2|0:0,0:0:0:0:
365,197,18331,2,0,P|381:252|369:292,2,90,0|0|8,0:2|0:2|3:2,0:0:0:0:
291,249,19331,6,0,L|230:253,1,45,6|0,3:2|0:2,0:0:0:0:
204,270,19664,2,0,L|105:276,1,90,10|0,0:2|3:2,0:0:0:0:
41,221,20331,1,8,0:2:0:0:
41,221,20497,2,0,P|32:175|46:125,1,90,2|0,3:2|3:2,0:0:0:0:
70,98,20997,1,10,0:2:0:0:
158,78,21331,1,2,3:2:0:0:
240,112,21664,1,10,0:2:0:0:
324,82,21997,6,0,L|389:83,1,45,2|0,3:2|0:0,0:0:0:0:
414,82,22331,1,10,0:2:0:0:
414,82,22497,2,0,P|425:130|414:176,1,90,2|0,0:2|3:2,0:0:0:0:
391,206,22997,1,10,0:2:0:0:
391,206,23164,2,0,L|384:316,1,90,2|0,3:2|3:2,0:0:0:0:
356,332,23664,5,8,0:2:0:0:
272,296,23997,2,0,P|220:284|176:296,1,90,8|10,0:2|0:2,0:0:0:0:
156,324,24497,1,2,0:2:0:0:
156,324,24664,1,2,3:2:0:0:
76,280,24997,1,10,0:2:0:0:
76,280,25164,6,0,P|67:237|94:179,1,90,2|0,0:2|3:2,0:0:0:0:
112,164,25664,1,8,0:2:0:0:
112,164,25831,2,0,L|222:157,1,90,2|2,3:2|3:2,0:0:0:0:
236,188,26331,2,0,L|346:195,1,90,10|2,0:2|3:2,0:0:0:0:
412,164,26997,2,0,L|428:108,1,45,10|8,0:2|0:2,0:0:0:0:
440,76,27331,5,2,3:2:0:0:
440,76,27497,1,0,3:2:0:0:
368,20,27831,2,0,B|313:33|319:8|267:23,1,90,6|0,3:2|0:2,0:0:0:0:
236,28,28331,2,0,L|179:25,1,45,2|0,0:2|0:2,0:0:0:0:
144,28,28664,1,6,3:2:0:0:
82,91,28997,1,0,0:2:0:0:
82,91,29164,2,0,B|86:152|86:152|63:205|63:205|65:274,1,180,6|0,3:2|0:0,0:0:0:0:
67,311,29997,6,0,P|111:322|161:309,1,90,2|0,3:2|3:2,0:0:0:0:
231,267,30664,1,0,3:2:0:0:
300,323,30997,2,0,L|354:326,1,45,2|2,3:2|0:2,0:0:0:0:
390,325,31331,2,0,P|382:277|397:223,1,90,2|2,3:2|3:2,0:0:0:0:
416,201,31831,1,2,0:2:0:0:
458,121,32164,2,0,P|466:73|451:19,1,90,2|2,0:2|0:2,0:0:0:0:
414,20,32664,6,0,L|311:21,1,90,0|0,3:2|3:2,0:0:0:0:
238,50,33331,2,0,L|135:51,1,90,0|0,3:2|3:2,0:0:0:0:
69,7,33997,2,0,P|55:53|73:104,1,90,0|0,3:2|3:2,0:0:0:0:
116,166,34664,2,0,L|113:232,1,45,0|0,3:2|0:2,0:0:0:0:
109,255,34997,1,8,3:2:0:0:
60,330,35331,6,0,P|102:343|147:337,1,90,2|0,3:2|3:2,0:0:0:0:
224,290,35997,1,0,3:2:0:0:
308,322,36331,2,0,L|365:314,1,45,2|2,3:2|0:2,0:0:0:0:
396,304,36664,2,0,P|405:260|396:216,1,90,2|2,3:2|3:2,0:0:0:0:
376,176,37164,1,2,0:2:0:0:
290,147,37497,2,0,P|246:137|202:147,1,90,2|0,0:2|0:2,0:0:0:0:
168,175,37997,6,0,L|154:70,1,90,2|2,3:2|3:2,0:0:0:0:
231,36,38664,1,2,3:2:0:0:
231,36,38831,2,0,L|286:38,1,45,2|0,0:2|3:2,0:0:0:0:
319,44,39164,1,10,0:2:0:0:
450,12,39664,2,0,L|446:73,1,45,2|0,0:2|0:2,0:0:0:0:
444,101,39997,1,8,3:2:0:0:
382,168,40331,1,8,3:2:0:0:
418,252,40664,6,0,P|374:261|333:245,1,90,6|8,3:2|0:2,0:0:0:0:
295,219,41164,1,0,0:2:0:0:
295,219,41331,1,0,3:2:0:0:
208,245,41664,2,0,L|153:250,1,45,10|2,0:2|0:2,0:0:0:0:
118,256,41997,2,0,P|106:307|126:356,1,90,2|10,3:2|0:2,0:0:0:0:
148,373,42497,1,2,3:2:0:0:
235,350,42831,2,0,L|279:352,1,45,2|8,3:2|0:2,0:0:0:0:
319,331,43164,6,0,P|363:325|402:345,1,90,2|0,3:2|3:2,0:0:0:0:
436,374,43664,1,8,0:2:0:0:
487,300,43997,2,0,L|489:235,1,45,0|0,3:2|3:2,0:0:0:0:
489,209,44331,1,8,0:2:0:0:
512,122,44664,2,0,P|482:117|456:122,1,45,2|0,3:2|3:2,0:0:0:0:
426,136,44997,1,10,0:2:0:0:
426,136,45164,2,0,P|377:147|328:138,1,90,6|2,3:2|3:2,0:0:0:0:
296,124,45664,1,8,0:2:0:0:
212,79,45997,6,0,P|199:115|211:176,1,90,6|8,3:2|0:2,0:0:0:0:
234,199,46497,1,0,0:2:0:0:
234,199,46664,1,0,3:2:0:0:
193,279,46997,2,0,L|136:276,1,45,10|2,0:2|0:2,0:0:0:0:
103,269,47331,1,2,3:2:0:0:
19,303,47664,1,10,0:2:0:0:
19,303,47831,2,0,P|9:251|29:204,1,90,2|2,3:2|3:2,0:0:0:0:
49,182,48331,1,8,0:2:0:0:
90,102,48664,6,0,L|87:1,2,90,2|10|2,3:2|0:2|3:2,0:0:0:0:
124,131,49497,1,2,3:2:0:0:
210,107,49831,1,2,3:2:0:0:
424,40,50664,2,0,L|477:48,2,45,2|2|10,0:2|3:2|0:2,0:0:0:0:
379,33,51164,1,2,0:2:0:0:
379,33,51331,6,0,P|353:80|361:164,1,135,6|0,3:2|0:2,0:0:0:0:
389,192,51997,2,0,L|384:256,1,45,2|0,0:2|3:2,0:0:0:0:
380,281,52331,1,8,0:2:0:0:
419,361,52664,2,0,P|357:367|323:345,1,90,2|8,3:2|0:2,0:0:0:0:
301,323,53164,1,0,3:2:0:0:
301,323,53331,2,0,L|248:321,1,45,2|2,0:2|3:2,0:0:0:0:
216,340,53664,2,0,L|163:342,1,45,10|2,0:2|0:2,0:0:0:0:
132,364,53997,5,2,3:2:0:0:
68,300,54331,1,8,0:2:0:0:
121,227,54664,2,0,P|131:183|122:139,1,90,2|8,0:2|0:2,0:0:0:0:
81,119,55164,1,0,0:2:0:0:
81,119,55331,2,0,L|82:54,1,45,2|0,3:2|3:2,0:0:0:0:
84,28,55664,1,8,0:2:0:0:
173,28,55997,2,0,L|277:36,1,90,2|14,0:2|3:2,0:0:0:0:
305,52,56497,1,2,0:2:0:0:
305,52,56664,6,0,P|290:103|296:158,1,90,14|2,0:2|3:2,0:0:0:0:
320,173,57164,1,2,0:2:0:0:
370,247,57497,1,0,3:2:0:0:
370,247,57664,2,0,P|312:260|247:222,1,135,14|0,0:2|3:2,0:0:0:0:
226,185,58331,1,8,0:2:0:0:
137,200,58664,2,0,L|130:259,1,45,0|0,3:2|3:2,0:0:0:0:
100,277,58997,2,0,L|93:336,1,45,0|0,3:2|3:2,0:0:0:0:
117,361,59331,6,0,P|159:373|210:353,1,90,6|2,0:2|3:2,0:0:0:0:
209,314,59831,1,2,0:2:0:0:
277,258,60164,2,0,L|284:214,2,45,0|2|6,3:2|0:2|3:2,0:0:0:0:
297,298,60664,2,0,L|341:305,1,45,0|0,0:0|3:2,0:0:0:0:
386,310,60997,1,12,0:2:0:0:
457,254,61331,2,0,P|465:210|455:166,1,90,2|2,3:2|3:2,0:0:0:0:
410,159,61831,1,0,3:2:0:0:
410,159,61997,6,0,L|414:97,1,45,10|0,3:2|0:2,0:0:0:0:
414,68,62331,1,10,0:2:0:0:
347,7,62664,1,10,0:2:0:0:
261,34,62997,2,0,L|217:29,1,45,10|2,0:2|3:2,0:0:0:0:
171,23,63331,2,0,P|157:54|160:117,1,90,8|8,0:2|0:2,0:0:0:0:
176,149,63831,1,0,3:2:0:0:
176,149,63997,2,0,L|169:206,1,45,10|2,0:2|3:2,0:0:0:0:
112,262,64497,6,0,P|156:286|210:276,1,90,6|0,3:2|3:2,0:0:0:0:
232,259,64997,1,10,0:2:0:0:
319,284,65331,2,0,L|379:287,1,45,10|2,0:2|3:2,0:0:0:0:
408,290,65664,1,10,0:2:0:0:
408,290,65831,1,6,3:2:0:0:
408,290,66997,1,8,3:2:0:0:
404,199,67331,6,0,P|351:215|324:253,1,90,6|8,3:2|3:2,0:0:0:0:
317,284,67831,1,2,0:2:0:0:
317,284,67997,1,0,3:2:0:0:
248,344,68331,1,8,3:2:0:0:
248,344,68497,2,0,P|200:352|154:344,1,90,2|2,0:2|0:2,0:0:0:0:
127,313,68997,1,10,3:2:0:0:
148,224,69331,1,2,3:2:0:0:
104,144,69664,1,10,3:2:0:0:
136,60,69997,6,0,P|171:52|230:64,1,90,2|10,3:2|3:2,0:0:0:0:
268,72,70497,2,0,B|307:85|337:70|337:70|370:50|411:70,1,135,2|8,0:2|3:2,0:0:0:0:
484,96,71331,2,0,L|473:198,1,90,0|8,3:2|3:2,0:0:0:0:
472,232,71831,1,0,0:2:0:0:
472,232,71997,1,0,3:2:0:0:
491,319,72331,2,0,P|453:321|437:316,1,45,14|2,3:2|0:2,0:0:0:0:
407,296,72664,6,0,P|366:286|314:298,1,90,6|10,3:2|3:2,0:0:0:0:
287,326,73164,1,2,0:2:0:0:
287,326,73331,1,0,3:2:0:0:
208,368,73664,1,8,3:2:0:0:
208,368,73831,2,0,P|195:328|214:267,1,90,2|2,0:2|0:2,0:0:0:0:
238,251,74331,1,10,3:2:0:0:
208,164,74664,1,2,3:2:0:0:
252,84,74997,1,10,3:2:0:0:
196,12,75331,6,0,B|148:33|147:1|101:18,1,90,2|10,3:2|3:2,0:0:0:0:
64,20,75831,2,0,L|67:81,1,45,2|0,0:2|3:2,0:0:0:0:
52,108,76164,1,2,0:2:0:0:
12,188,76497,2,0,P|56:200|105:182,1,90,6|0,3:2|3:2,0:0:0:0:
128,156,76997,1,8,0:2:0:0:
215,184,77331,1,0,3:2:0:0:
215,184,77497,2,0,L|304:168,1,90,2|0,3:2|0:0,0:0:0:0:
346,152,77997,6,0,L|361:250,1,90,6|10,3:2|3:2,0:0:0:0:
391,272,78497,1,2,0:2:0:0:
391,272,78664,2,0,L|388:322,1,45,2|2,3:2|0:2,0:0:0:0:
309,360,79164,2,0,P|262:370|214:357,1,90,2|0,0:2|0:2,0:0:0:0:
183,337,79664,2,0,L|126:338,1,45,10|0,3:2|0:2,0:0:0:0:
93,346,79997,2,0,L|82:281,1,45,2|2,3:2|0:2,0:0:0:0:
88,256,80331,1,14,3:2:0:0:
40,179,80664,6,0,P|73:165|141:182,1,90,6|10,3:2|3:2,0:0:0:0:
162,198,81164,1,2,0:2:0:0:
162,198,81331,2,0,L|227:195,1,45,2|2,3:2|3:2,0:0:0:0:
290,230,81831,6,0,P|298:196|278:136,1,90,6|0,3:2|3:2,0:0:0:0:
247,116,82331,2,0,L|249:58,1,45,10|2,0:2|0:2,0:0:0:0:
247,25,82664,1,2,3:2:0:0:
334,5,82997,2,0,L|390:10,1,45,10|10,0:2|0:2,0:0:0:0:
423,17,83331,5,6,3:2:0:0:
470,93,83664,1,10,0:2:0:0:
429,173,83997,1,10,0:2:0:0:
478,248,84331,1,10,0:2:0:0:
428,322,84664,1,2,3:2:0:0:
428,322,85997,6,0,P|375:328|328:312,1,90,6|8,3:2|0:2,0:0:0:0:
311,283,86497,1,0,3:2:0:0:
311,283,86664,2,0,L|299:207,2,67.5,8|8|8,0:2|0:2|0:2,0:0:0:0:
283,319,87331,1,6,3:2:0:0:
199,355,87664,1,8,0:2:0:0:
131,295,87997,2,0,L|143:219,2,67.5,10|8|8,0:2|0:2|0:2,0:0:0:0:
256,192,88997,12,0,91831,0:2:0:0:
