osu file format v14

[General]
AudioFilename: audio.mp3
AudioLeadIn: 0
PreviewTime: 66247
Countdown: 0
SampleSet: Soft
StackLeniency: 0.7
Mode: 0
LetterboxInBreaks: 0
WidescreenStoryboard: 1

[Editor]
DistanceSpacing: 1.2
BeatDivisor: 4
GridSize: 4
TimelineZoom: 2.4

[Metadata]
Title:Dreaming!
TitleUnicode:Dreaming!
Artist:Yamazaki Haruka, Tadokoro Azusa, Machico
ArtistUnicode:山崎はるか、田所あずさ、Machico
Creator:browiec
Version:Kowari's Insane!
Source:アイドルマスター ミリオンライブ!
Tags:idolm@ster the idolmaster million live im@s imas mogami shizuka ibuki tsubasa mirai kasuga mimari kowari never_log_off japanese game size 最上 静香 伊吹 翼 春日 未来
BeatmapID:2200004
BeatmapSetID:1052724

[Difficulty]
HPDrainRate:5
CircleSize:3.8
OverallDifficulty:8.2
ApproachRate:9
SliderMultiplier:1.6
SliderTickRate:1

[Events]
//Background and Video events
0,0,"sylvari thanks for bg.jpg",0,0
//Break Periods
//Storyboard Layer 0 (Background)
//Storyboard Layer 1 (Fail)
//Storyboard Layer 2 (Pass)
//Storyboard Layer 3 (Foreground)
//Storyboard Layer 4 (Overlay)
//Storyboard Sound Samples

[TimingPoints]
5998,333.333333333333,4,2,1,35,1,0
5998,-200,4,2,1,35,0,0
11331,-166.666666666667,4,2,1,35,0,0
12664,-166.666666666667,4,2,1,45,0,0
13331,-133.333333333333,4,2,1,50,0,0
13997,-100,4,2,1,55,0,0
15997,-100,4,2,1,55,0,0
18331,-200,4,2,1,35,0,0
18831,-200,4,2,1,55,0,0
18997,-133.333333333333,4,2,1,55,0,0
19331,-100,4,2,1,55,0,0
29164,-133.333333333333,4,2,1,50,0,0
29664,-133.333333333333,4,2,1,35,0,0
29997,-125,4,2,1,45,0,0
39997,-125,4,2,1,50,0,0
40581,-125,4,2,1,50,0,0
40664,-111.111111111111,4,2,1,55,0,0
51331,-111.111111111111,4,2,1,50,0,0
56664,-111.111111111111,4,2,1,55,0,0
61997,-111.111111111111,4,2,1,60,0,0
66331,-133.333333333333,4,2,1,35,0,0
66831,-133.333333333333,4,2,1,55,0,0
67331,-90.9090909090909,4,2,1,65,0,0
84997,-90.9090909090909,4,2,1,35,0,0
85497,-90.9090909090909,4,2,1,50,0,0
85664,-133.333333333333,4,2,1,50,0,0
85997,-100,4,2,1,55,0,0
88997,-250,4,2,1,25,0,0

[Colours]
Combo1 : 255,255,0
Combo2 : 91,140,255
Combo3 : 255,128,0
Combo4 : 255,0,255

[HitObjects]
26,130,5998,6,0,B|59:257|59:257|15:291|-16:263|-7:226|19:212,1,240,2|0,0:2|0:0,0:0:0:0:
126,161,7164,2,0,P|133:197|145:250,1,80,2|2,0:2|0:2,0:0:0:0:
205,308,7664,2,0,P|234:301|257:297,1,40,2|2,0:2|0:2,0:0:0:0:
301,229,7997,2,0,P|330:204|380:209,1,80,2|2,0:2|0:2,0:0:0:0:
370,204,8664,6,0,P|358:143|352:111,1,80,2|0,0:2|0:0,0:0:0:0:
412,68,9164,2,0,P|435:114|285:80,1,360,2|2,0:2|0:2,0:0:0:0:
279,90,10997,1,2,0:2:0:0:
279,90,11164,1,2,0:2:0:0:
212,217,11331,6,0,P|159:212|100:208,1,95.9999970703126,2|2,0:2|0:2,0:0:0:0:
0,99,11997,2,0,P|47:95|95:90,1,95.9999970703126,2|2,0:2|0:2,0:0:0:0:
255,0,12664,5,2,3:2:0:0:
255,0,13331,6,0,B|250:51|250:51|260:70|260:70|258:132,1,120.000004577637,2|2,0:2|0:2,0:0:0:0:
207,219,13831,1,2,0:2:0:0:
325,292,13997,5,4,0:2:0:0:
207,219,14164,1,0,0:2:0:0:
345,165,14331,2,0,P|411:157|444:151,1,80,0|0,3:2|0:2,0:0:0:0:
501,314,14664,1,0,3:2:0:0:
401,244,14831,1,0,0:2:0:0:
316,364,14997,6,0,P|260:380|222:361,1,80,4|0,0:2|3:2,0:0:0:0:
130,278,15331,1,0,3:2:0:0:
267,200,15497,2,0,P|263:266|260:307,1,80,4|0,0:2|3:2,0:0:0:0:
165,138,15831,1,4,0:2:0:0:
130,278,15997,1,4,0:2:0:0:
37,171,16164,1,0,0:2:0:0:
37,171,16247,1,0,0:0:0:0:
37,171,16331,1,0,3:2:0:0:
175,107,16497,6,0,B|242:115|242:115|273:99|273:99|347:106,1,160,2|0,3:2|3:2,0:0:0:0:
475,113,16997,1,0,3:2:0:0:
388,0,17164,2,0,L|393:58,1,40,0|0,3:2|0:0,0:0:0:0:
404,184,17331,2,0,P|370:211|314:214,1,80,6|0,0:2|3:2,0:0:0:0:
312,201,17581,1,0,3:2:0:0:
312,201,17664,1,0,3:2:0:0:
398,324,17831,1,6,0:2:0:0:
398,324,18331,6,0,B|325:304|325:304|273:329,1,120,0|0,0:2|3:2,0:0:0:0:
285,323,18914,1,0,3:2:0:0:
285,323,18997,1,8,3:2:0:0:
88,297,19331,6,0,P|63:235|114:182,1,120,6|0,3:2|0:0,0:0:0:0:
161,160,19664,2,0,P|217:170|255:176,1,80,10|0,0:2|0:2,0:0:0:0:
350,48,19997,1,0,3:2:0:0:
246,86,20164,1,0,3:2:0:0:
388,156,20331,1,8,0:2:0:0:
246,86,20497,6,0,B|187:74|187:74|162:53|162:53|79:41,1,160,2|0,3:2|3:2,0:0:0:0:
7,118,20997,2,0,P|-8:162|11:210,1,80,10|0,0:2|0:2,0:0:0:0:
28,211,21247,1,0,0:2:0:0:
28,211,21331,2,0,P|94:205|145:200,1,80,2|0,3:2|3:2,0:0:0:0:
220,261,21664,1,10,0:2:0:0:
199,157,21831,1,0,0:2:0:0:
164,346,21997,6,0,P|212:363|296:332,1,120,2|0,3:2|0:0,0:0:0:0:
321,279,22331,2,0,B|315:241|315:241|317:229|317:229|311:194,1,80,10|2,0:2|0:2,0:0:0:0:
311,52,22664,1,0,3:2:0:0:
393,153,22831,1,0,3:2:0:0:
243,117,22997,1,10,0:2:0:0:
393,153,23164,6,0,B|478:146|478:146|502:98|469:70,1,160,2|0,3:2|3:2,0:0:0:0:
354,8,23664,1,8,0:2:0:0:
284,129,23831,1,0,0:2:0:0:
284,129,23914,1,0,0:0:0:0:
284,129,23997,2,0,P|292:190|295:220,1,80,8|0,0:2|0:2,0:0:0:0:
158,287,24331,1,10,0:2:0:0:
206,202,24497,1,2,0:2:0:0:
229,357,24664,6,0,B|176:380|176:380|109:362,1,120,2|0,3:2|0:0,0:0:0:0:
61,309,24997,2,0,P|51:265|63:225,1,80,10|2,0:2|0:2,0:0:0:0:
189,152,25331,1,0,3:2:0:0:
54,107,25497,1,0,3:2:0:0:
146,240,25664,1,8,0:2:0:0:
223,73,25831,6,0,B|321:63|283:120|392:96,1,160,2|2,3:2|3:2,0:0:0:0:
467,38,26331,1,10,0:2:0:0:
512,157,26497,1,0,0:2:0:0:
512,157,26581,1,0,0:2:0:0:
512,157,26664,2,0,P|457:179|424:168,1,80,2|0,3:2|3:2,0:0:0:0:
303,80,26997,2,0,P|342:78|376:98,1,80,10|8,0:2|0:2,0:0:0:0:
392,268,27331,5,2,3:2:0:0:
392,268,27497,2,0,P|399:321|403:357,1,80,0|0,3:2|0:2,0:0:0:0:
299,213,27831,2,0,B|286:279|286:279|300:308|300:308|286:377,1,160,6|0,3:2|0:2,0:0:0:0:
157,367,28331,2,0,P|151:315|176:286,1,80,2|0,0:2|0:2,0:0:0:0:
299,213,28664,5,6,3:2:0:0:
189,157,28831,2,0,P|123:164|90:165,1,80,0|0,3:2|0:2,0:0:0:0:
1,74,29164,2,0,P|15:14|130:17,1,180.000006866455,6|0,3:2|0:2,0:0:0:0:
263,200,29997,6,0,B|251:253|251:253|262:278|262:278|251:335,1,128,2|0,3:2|3:2,0:0:0:0:
354,369,30497,1,0,0:2:0:0:
354,369,30664,2,0,P|373:329|365:296,1,64,0|0,3:2|0:2,0:0:0:0:
345,228,30997,1,2,3:2:0:0:
345,228,31164,1,2,0:2:0:0:
405,138,31331,6,0,B|481:161|481:161|495:143|526:130,1,128,2|2,3:2|3:2,0:0:0:0:
417,44,31831,2,0,P|376:40|347:67,1,64,2|0,0:2|3:2,0:0:0:0:
299,148,32164,2,0,P|270:161|239:155,1,64,2|0,0:2|3:2,0:0:0:0:
166,82,32497,1,2,0:2:0:0:
100,184,32664,6,0,P|108:228|112:253,1,64,0|0,3:2|0:0,0:0:0:0:
185,368,32997,2,0,P|190:336|196:304,1,64,0|0,3:2|0:2,0:0:0:0:
36,343,33331,2,0,P|94:332|127:327,1,64,0|0,3:2|0:2,0:0:0:0:
209,221,33664,1,0,3:2:0:0:
293,333,33831,6,0,P|322:360|410:334,1,128,0|0,0:2|0:2,0:0:0:0:
473,257,34331,2,0,P|466:199|462:169,1,64,0|0,3:2|0:2,0:0:0:0:
377,132,34664,1,0,3:2:0:0:
448,65,34831,1,0,0:2:0:0:
368,5,34997,2,0,P|326:-5|299:4,1,64,8|0,3:2|0:2,0:0:0:0:
262,95,35331,6,0,P|268:166|276:233,1,128,2|0,3:2|3:2,0:0:0:0:
196,285,35831,1,0,0:2:0:0:
196,285,35997,2,0,P|174:258|175:222,1,64,0|0,3:2|0:2,0:0:0:0:
195,128,36331,1,2,3:2:0:0:
195,128,36497,1,2,0:2:0:0:
110,68,36664,6,0,B|38:74|38:74|23:107|43:131,1,128,2|2,3:2|3:2,0:0:0:0:
100,213,37164,2,0,P|96:257|92:290,1,64,2|0,0:2|3:2,0:0:0:0:
198,359,37497,2,0,P|194:327|191:295,1,64,2|0,0:2|3:0,0:0:0:0:
239,209,37831,1,0,0:2:0:0:
239,209,37914,1,0,0:0:0:0:
239,209,37997,6,0,P|277:191|349:236,2,128,2|2|2,3:2|3:2|3:2,0:0:0:0:
345,333,38831,2,0,P|386:322|418:315,1,64,2|0,0:2|3:2,0:0:0:0:
485,251,39164,1,10,0:2:0:0:
485,251,39497,5,0,0:0:0:0:
412,175,39664,2,0,P|421:124|425:98,1,64,2|0,0:2|0:2,0:0:0:0:
330,50,39997,1,8,3:2:0:0:
434,1,40164,1,0,0:2:0:0:
330,50,40331,2,0,B|276:66|276:66|234:50,1,96,8|0,3:2|0:2,0:0:0:0:
175,1,40664,6,0,P|156:41|184:109,1,107.999996704102,6|0,3:2|0:0,0:0:0:0:
236,149,40997,2,0,P|233:204|231:236,1,71.9999978027344,8|0,0:2|0:2,0:0:0:0:
231,220,41247,1,0,0:2:0:0:
231,220,41331,1,0,3:2:0:0:
132,282,41497,1,0,3:2:0:0:
254,337,41664,2,0,P|310:327|332:324,1,71.9999978027344,10|2,0:2|0:2,0:0:0:0:
427,244,41997,5,2,3:2:0:0:
352,174,42164,2,0,P|329:214|332:250,1,71.9999978027344,0|10,3:2|0:2,0:0:0:0:
481,311,42497,2,0,B|464:222|464:222|486:161,1,143.999995605469,2|2,3:2|3:2,0:0:0:0:
391,101,42997,1,8,0:2:0:0:
448,30,43164,6,0,B|360:25|392:80|286:68,1,143.999995605469,2|0,3:2|3:2,0:0:0:0:
194,32,43664,1,8,0:2:0:0:
230,168,43831,1,0,0:2:0:0:
230,168,43914,1,8,0:2:0:0:
230,168,43997,2,0,P|235:215|238:251,1,71.9999978027344,0|0,3:2|3:2,0:0:0:0:
160,326,44331,2,0,P|102:344|43:309,1,107.999996704102,8|0,0:2|0:0,0:0:0:0:
18,260,44664,6,0,P|28:207|34:169,1,71.9999978027344,2|0,3:2|3:2,0:0:0:0:
37,64,44997,1,10,0:2:0:0:
146,164,45164,2,0,B|127:210|127:210|112:104,1,143.999995605469,6|2,3:2|3:2,0:0:0:0:
168,23,45664,2,0,P|210:9|239:24,1,71.9999978027344,8|0,0:2|0:0,0:0:0:0:
271,124,45997,6,0,B|250:213|250:213|277:274,1,143.999995605469,6|8,3:2|0:2,0:0:0:0:
375,334,46497,1,0,0:2:0:0:
375,334,46581,1,0,0:2:0:0:
375,334,46664,2,0,P|430:324|461:320,1,71.9999978027344,0|0,3:2|3:2,0:0:0:0:
512,201,46997,2,0,P|476:195|441:188,1,71.9999978027344,10|2,0:2|0:2,0:0:0:0:
344,96,47331,6,0,P|332:53|341:21,1,71.9999978027344,2|0,3:2|3:0,0:0:0:0:
450,82,47664,1,10,0:2:0:0:
363,197,47831,2,0,L|371:238|371:238,2,35.9999989013672,2|0|0,3:2|0:2|0:2,0:0:0:0:
263,114,48164,1,2,3:2:0:0:
263,114,48331,2,0,P|206:106|177:100,1,71.9999978027344,8|0,0:2|0:2,0:0:0:0:
85,160,48664,6,0,P|55:214|77:271,1,107.999996704102,2|0,3:2|0:0,0:0:0:0:
128,302,48997,2,0,P|175:298|208:295,1,71.9999978027344,10|0,0:2|0:2,0:0:0:0:
326,276,49331,1,2,3:2:0:0:
225,209,49497,1,2,3:2:0:0:
297,364,49664,1,8,0:2:0:0:
405,216,49831,1,2,3:2:0:0:
405,216,50164,5,0,0:2:0:0:
310,154,50331,2,0,P|260:163|236:167,1,71.9999978027344,0|0,0:2|0:2,0:0:0:0:
375,61,50664,2,0,P|410:67|445:73,1,71.9999978027344,2|2,0:2|3:2,0:0:0:0:
509,157,50997,2,0,B|485:221|485:221|505:277,1,107.999996704102,10|0,0:2|0:0,0:0:0:0:
480,331,51331,6,0,P|436:359|348:310,1,143.999995605469,6|8,3:2|0:2,0:0:0:0:
346,212,51831,1,0,0:2:0:0:
236,165,51997,2,0,P|232:224|228:263,1,71.9999978027344,2|0,0:2|3:2,0:0:0:0:
144,364,52331,2,0,P|140:305|136:266,1,71.9999978027344,8|0,0:2|0:2,0:0:0:0:
34,183,52664,6,0,B|42:124|42:124|32:99|32:99|46:14,1,143.999995605469,2|8,3:2|0:2,0:0:0:0:
152,5,53164,1,0,3:2:0:0:
196,107,53331,2,0,P|158:120|121:111,1,71.9999978027344,2|2,0:2|3:2,0:0:0:0:
257,14,53664,2,0,P|292:8|325:21,1,71.9999978027344,10|2,0:2|0:2,0:0:0:0:
363,138,53997,6,0,P|352:260|351:291,1,143.999995605469,2|8,3:2|0:2,0:0:0:0:
449,351,54497,1,0,0:2:0:0:
504,251,54664,2,0,P|465:232|425:242,1,71.9999978027344,2|0,0:2|3:2,0:0:0:0:
351,320,54997,2,0,P|312:339|272:329,1,71.9999978027344,8|0,0:2|0:2,0:0:0:0:
168,264,55331,5,2,3:2:0:0:
278,174,55497,2,0,P|270:228|267:253,1,71.9999978027344,0|8,3:2|0:2,0:0:0:0:
162,283,55831,1,0,3:2:0:0:
118,182,55997,2,0,P|165:163|190:169,1,71.9999978027344,2|2,0:2|0:2,0:0:0:0:
211,369,56331,2,0,P|164:388|139:382,1,71.9999978027344,14|2,3:2|0:2,0:0:0:0:
24,267,56664,6,0,P|26:188|29:91,1,143.999995605469,14|2,0:2|3:2,0:0:0:0:
224,176,57164,2,0,P|194:226|106:214,1,143.999995605469,2|0,0:2|3:2,0:0:0:0:
198,42,57664,2,0,B|272:48|272:48|318:85|318:85|407:90,1,215.999993408203,14|0,0:2|3:2,0:0:0:0:
379,229,58331,5,8,0:2:0:0:
488,183,58497,1,0,0:2:0:0:
488,183,58581,1,8,0:2:0:0:
488,183,58664,2,0,P|480:127|475:88,1,71.9999978027344,0|0,3:2|3:2,0:0:0:0:
379,229,58997,2,0,L|387:282,3,35.9999989013672,0|0|0|0,3:2|3:2|3:2|3:2,0:0:0:0:
389,301,59331,6,0,P|357:332|263:317,1,143.999995605469,6|2,0:2|3:2,0:0:0:0:
241,147,59831,2,0,P|297:152|330:155,1,71.9999978027344,2|0,0:2|0:2,0:0:0:0:
177,239,60164,1,0,3:2:0:0:
110,135,60331,5,2,0:2:0:0:
110,135,60497,2,0,B|131:219|131:219|92:293,1,143.999995605469,6|0,3:2|3:2,0:0:0:0:
51,372,60997,2,0,P|94:388|130:376,1,71.9999978027344,12|0,0:2|0:2,0:0:0:0:
204,272,61331,2,0,P|247:256|283:268,1,71.9999978027344,2|0,3:2|3:2,0:0:0:0:
336,344,61664,1,2,3:2:0:0:
336,344,61747,1,0,3:2:0:0:
336,344,61831,2,0,L|340:380,1,35.9999989013672,0|0,3:2|3:0,0:0:0:0:
380,252,61997,6,0,P|374:206|369:164,1,71.9999978027344,10|0,3:2|0:2,0:0:0:0:
484,34,62331,2,0,P|479:69|474:105,1,71.9999978027344,10|0,0:2|3:2,0:0:0:0:
257,173,62664,1,10,0:2:0:0:
314,7,62831,1,0,3:2:0:0:
392,187,62997,1,10,0:2:0:0:
151,144,63164,1,2,3:2:0:0:
311,14,63331,6,0,P|351:4|386:21,1,71.9999978027344,8|0,0:2|3:2,0:0:0:0:
177,169,63664,2,0,P|143:180|109:169,1,71.9999978027344,8|0,0:2|3:2,0:0:0:0:
218,20,63997,1,10,0:2:0:0:
312,183,64164,2,0,P|307:245|307:275,1,71.9999978027344,2|8,3:2|0:2,0:0:0:0:
189,375,64497,6,0,B|108:368|149:330|52:326,1,143.999995605469,6|0,3:2|3:2,0:0:0:0:
0,214,64997,2,0,P|-2:166|24:129,1,71.9999978027344,10|0,0:2|3:2,0:0:0:0:
163,100,65331,1,10,0:2:0:0:
28,5,65497,1,2,3:2:0:0:
103,203,65664,1,10,0:2:0:0:
267,29,65831,1,6,3:2:0:0:
260,323,66331,6,0,B|161:301|161:301|124:329|145:376,1,180.000006866455,0|0,0:2|3:2,0:0:0:0:
142,370,66914,1,0,3:2:0:0:
142,370,66997,1,8,3:2:0:0:
364,294,67331,6,0,P|397:248|357:135,1,176.000005371094,6|8,3:2|3:2,0:0:0:0:
222,127,67831,2,0,P|231:198|235:240,1,88.000002685547,2|0,0:2|3:2,0:0:0:0:
299,44,68164,1,0,0:2:0:0:
105,130,68331,1,8,3:2:0:0:
299,44,68497,6,0,B|371:49|371:49|397:75|397:75|482:77,1,176.000005371094,2|2,0:2|0:2,0:0:0:0:
365,212,68997,1,10,3:2:0:0:
512,170,69164,1,2,0:2:0:0:
269,159,69331,2,0,P|254:213|265:250,1,88.000002685547,2|0,3:2|0:2,0:0:0:0:
458,340,69664,2,0,P|465:297|450:256,1,88.000002685547,10|0,3:2|0:2,0:0:0:0:
274,365,69997,6,0,B|194:377|194:377|138:342,1,132.00000402832,2|0,3:2|0:0,0:0:0:0:
94,298,70331,1,10,3:2:0:0:
169,142,70497,2,0,P|221:131|262:163,1,88.000002685547,2|0,0:2|3:2,0:0:0:0:
98,282,70831,1,0,0:2:0:0:
16,155,70997,2,0,P|13:82|10:44,1,88.000002685547,8|0,3:2|0:2,0:0:0:0:
178,1,71331,6,0,B|277:-13|252:59|368:31,1,176.000005371094,0|8,3:2|3:2,0:0:0:0:
198,201,71831,1,0,0:2:0:0:
198,201,71914,1,0,0:2:0:0:
198,201,71997,2,0,P|203:138|203:100,1,88.000002685547,0|0,3:2|0:2,0:0:0:0:
298,269,72331,1,14,3:2:0:0:
101,327,72497,1,2,0:2:0:0:
298,269,72664,6,0,P|358:233|435:270,1,132.00000402832,6|0,3:2|0:0,0:0:0:0:
459,313,72997,1,10,3:2:0:0:
512,127,73164,2,0,P|446:133|407:138,1,88.000002685547,2|0,0:2|3:2,0:0:0:0:
279,77,73497,1,0,0:2:0:0:
337,218,73664,1,8,3:2:0:0:
279,77,73831,6,0,B|165:98|165:98|212:45,1,176.000005371094,2|2,0:2|0:2,0:0:0:0:
88,173,74331,2,0,P|74:229|90:268,1,88.000002685547,10|0,3:2|0:2,0:0:0:0:
251,280,74664,2,0,P|265:224|249:185,1,88.000002685547,2|0,3:2|0:2,0:0:0:0:
106,368,74997,2,0,B|189:343|189:343|214:362|250:366,1,132.00000402832,10|0,3:2|0:0,0:0:0:0:
310,350,75331,6,0,P|391:357|417:358,1,88.000002685547,2|0,3:2|0:0,0:0:0:0:
497,250,75664,1,10,3:2:0:0:
373,172,75831,2,0,P|361:218|383:266,1,88.000002685547,2|0,0:2|3:2,0:0:0:0:
502,115,76164,2,0,P|515:73|502:31,1,88.000002685547,2|8,0:2|0:2,0:0:0:0:
250,24,76497,6,0,B|265:94|265:94|249:125|249:125|266:209,1,176.000005371094,6|0,3:2|3:2,0:0:0:0:
177,301,76997,1,8,0:2:0:0:
84,173,77164,1,0,0:2:0:0:
84,173,77247,1,8,0:2:0:0:
84,173,77331,1,0,3:2:0:0:
246,217,77497,1,2,3:2:0:0:
93,372,77664,1,8,0:2:0:0:
93,372,77747,1,0,0:0:0:0:
93,372,77831,2,0,L|83:311,1,44.0000013427735,0|0,0:0|0:0,0:0:0:0:
78,140,77997,6,0,P|130:104|172:115,1,88.000002685547,6|2,3:2|0:2,0:0:0:0:
247,312,78331,2,0,P|195:348|153:337,1,88.000002685547,10|2,3:2|0:2,0:0:0:0:
247,139,78664,1,2,3:2:0:0:
381,254,78831,1,2,0:2:0:0:
164,231,78997,1,8,3:2:0:0:
306,62,79164,6,0,B|414:60|372:122|488:104,1,176.000005371094,2|0,0:2|0:2,0:0:0:0:
381,254,79664,2,0,P|335:276|292:269,1,88.000002685547,10|0,3:2|0:2,0:0:0:0:
188,95,79997,1,2,3:2:0:0:
316,180,80164,1,2,0:2:0:0:
168,287,80331,2,0,P|180:218|186:182,1,88.000002685547,14|0,3:2|0:2,0:0:0:0:
85,31,80664,6,0,P|63:76|79:124,1,88.000002685547,6|2,3:2|0:2,0:0:0:0:
176,186,80997,1,10,3:2:0:0:
253,53,81164,1,2,0:2:0:0:
253,53,81247,1,0,0:0:0:0:
253,53,81331,1,2,3:2:0:0:
81,123,81497,1,2,3:2:0:0:
268,245,81664,1,8,0:2:0:0:
259,29,81831,6,0,B|252:104|252:104|275:134|275:134|267:225,1,176.000005371094,6|0,3:2|3:2,0:0:0:0:
254,365,82331,1,10,0:2:0:0:
388,244,82497,1,2,0:2:0:0:
388,244,82581,1,8,0:2:0:0:
388,244,82664,1,2,3:2:0:0:
182,183,82831,1,2,3:2:0:0:
294,281,82997,1,10,0:2:0:0:
294,281,83081,1,8,0:2:0:0:
294,281,83164,2,0,L|238:286,1,44.0000013427735,10|8,0:2|0:2,0:0:0:0:
102,293,83331,6,0,P|111:211|114:186,1,88.000002685547,6|0,3:2|0:2,0:0:0:0:
161,17,83664,1,10,0:2:0:0:
0,159,83831,1,0,3:2:0:0:
221,254,83997,1,10,0:2:0:0:
80,90,84164,1,0,3:2:0:0:
107,345,84331,1,10,0:2:0:0:
302,141,84497,1,0,0:2:0:0:
302,141,84581,1,0,0:2:0:0:
302,141,84664,6,0,B|294:204|294:204|311:238|311:238|296:317,1,176.000005371094,2|0,3:2|0:2,0:0:0:0:
297,311,85497,1,0,3:2:0:0:
400,207,85664,2,0,P|439:200|481:213,1,60.0000022888184,10|2,0:2|0:0,0:0:0:0:
249,102,85997,5,6,3:2:0:0:
387,235,86164,1,0,3:2:0:0:
443,69,86331,1,8,0:2:0:0:
319,170,86497,1,0,3:2:0:0:
416,328,86664,6,0,B|481:312|481:312|518:327|512:368,2,120,8|8|8,0:2|0:2|0:2,0:0:0:0:
231,264,87331,5,6,3:2:0:0:
392,164,87497,1,0,3:2:0:0:
300,362,87664,1,8,0:2:0:0:
157,172,87831,1,0,3:2:0:0:
337,236,87997,6,0,B|403:257|403:257|422:236|472:228,2,120,10|8|8,0:2|0:2|0:2,0:0:0:0:
7,243,88997,6,0,B|42:240|63:206|63:206|56:268|104:363|218:336|266:267|272:217|261:174|253:133|211:120|144:130|131:187|163:220,1,544,2|0,0:0|0:2,0:0:0:0:
