osu file format v14

[General]
AudioFilename: audio.mp3
AudioLeadIn: 0
PreviewTime: 66247
Countdown: 0
SampleSet: Soft
StackLeniency: 0.4
Mode: 0
LetterboxInBreaks: 0
WidescreenStoryboard: 1

[Editor]
DistanceSpacing: 1.2
BeatDivisor: 4
GridSize: 4
TimelineZoom: 1.5

[Metadata]
Title:Dreaming!
TitleUnicode:Dreaming!
Artist:Yamazaki Haruka, Tadokoro Azusa, Machico
ArtistUnicode:山崎はるか、田所あずさ、Machico
Creator:browiec
Version:Hard!
Source:アイドルマスター ミリオンライブ!
Tags:idolm@ster the idolmaster million live im@s imas mogami shizuka ibuki tsubasa mirai kasuga mimari kowari never_log_off japanese game size 最上 静香 伊吹 翼 春日 未来
BeatmapID:2200002
BeatmapSetID:1052724

[Difficulty]
HPDrainRate:4
CircleSize:4
OverallDifficulty:6.5
ApproachRate:7.2
SliderMultiplier:1.4
SliderTickRate:1

[Events]
//Background and Video events
0,0,"sylvari thanks for bg.jpg",0,0
//Break Periods
//Storyboard Layer 0 (Background)
//Storyboard Layer 1 (Fail)
//Storyboard Layer 2 (Pass)
//Storyboard Layer 3 (Foreground)
//Storyboard Layer 4 (Overlay)
//Storyboard Sound Samples

[TimingPoints]
5998,333.333333333333,4,2,1,35,1,0
5998,-153.846153846154,4,2,1,35,0,0
12664,-100,4,2,1,45,0,0
13331,-153.846153846154,4,2,1,50,0,0
13997,-100,4,2,1,55,0,0
18331,-200,4,2,1,35,0,0
18831,-133.333333333333,4,2,1,55,0,0
19331,-100,4,2,1,55,0,0
29164,-133.333333333333,4,2,1,50,0,0
29664,-133.333333333333,4,2,1,35,0,0
29997,-111.111111111111,4,2,1,45,0,0
39997,-111.111111111111,4,2,1,50,0,0
40664,-100,4,2,1,55,0,0
51331,-100,4,2,1,50,0,0
56664,-100,4,2,1,55,0,0
61997,-100,4,2,1,60,0,0
66331,-133.333333333333,4,2,1,35,0,0
66831,-100,4,2,1,55,0,0
67331,-90.9090909090909,4,2,1,65,0,0
84997,-90.9090909090909,4,2,1,35,0,0
85331,-133.333333333333,4,2,1,35,0,0
85497,-133.333333333333,4,2,1,50,0,0
85997,-100,4,2,1,55,0,0
88997,-100,4,2,1,25,0,0

[Colours]
Combo1 : 255,255,0
Combo2 : 91,140,255
Combo3 : 255,128,0
Combo4 : 255,0,255

[HitObjects]
472,164,5998,6,0,B|396:148|416:200|324:188,1,136.499993751526,2|2,0:2|0:2,0:0:0:0:
216,36,7164,6,0,P|168:28|116:44,1,90.9999958343508,2|2,0:2|0:2,0:0:0:0:
92,112,7664,2,0,B|52:128|52:128|0:116,2,90.9999958343508,2|2|2,0:2|0:2|0:2,0:0:0:0:
127,38,8664,2,0,B|191:26|191:26|211:30|211:30|279:18,1,136.499993751526,2|2,0:2|0:2,0:0:0:0:
412,80,9664,6,0,L|416:136,1,45.4999979171754,2|0,0:2|0:2,0:0:0:0:
404,208,9997,2,0,P|352:228|308:208,2,90.9999958343508,2|2|2,0:2|0:2|0:2,0:0:0:0:
412,44,10997,2,0,P|388:32|356:28,1,45.4999979171754,2|2,0:2|0:2,0:0:0:0:
304,76,11331,6,0,L|196:80,1,90.9999958343508,2|2,0:2|0:2,0:0:0:0:
108,204,11997,2,0,L|216:208,1,90.9999958343508,2|2,0:2|0:2,0:0:0:0:
324,316,12664,1,2,3:2:0:0:
324,316,13331,6,0,P|340:276|328:216,1,90.9999958343508,2|2,0:2|0:2,0:0:0:0:
292,160,13831,1,2,0:2:0:0:
232,236,13997,6,0,L|136:240,1,70,4|0,0:2|0:2,0:0:0:0:
92,192,14331,1,0,3:2:0:0:
92,192,14497,2,0,P|72:144|80:100,1,70,0|0,0:2|3:2,0:0:0:0:
112,52,14831,1,0,0:2:0:0:
112,52,14997,2,0,P|160:32|204:40,1,70,4|0,0:2|3:2,0:0:0:0:
252,72,15331,1,0,3:2:0:0:
252,72,15497,2,0,P|272:120|264:164,1,70,4|0,0:2|3:2,0:0:0:0:
212,196,15831,1,4,0:2:0:0:
212,196,15997,2,0,P|203:229|208:263,1,70,4|0,0:2|0:2,0:0:0:0:
268,340,16331,1,0,3:2:0:0:
268,340,16414,1,0,3:2:0:0:
268,340,16497,6,0,B|316:364|316:364|420:344,1,140,2|0,3:2|3:2,0:0:0:0:
464,296,16997,2,0,P|472:248|460:216,1,70,0|0,3:2|3:2,0:0:0:0:
388,260,17331,1,6,0:2:0:0:
400,176,17497,1,0,3:2:0:0:
400,176,17581,1,0,3:2:0:0:
400,176,17664,1,0,3:2:0:0:
308,212,17831,1,6,0:2:0:0:
292,196,18331,6,0,L|196:184,1,70,0|0,0:2|0:2,0:0:0:0:
160,236,18831,1,0,3:2:0:0:
160,236,18914,1,0,3:2:0:0:
160,236,18997,2,0,P|124:240|88:228,1,52.5000020027161,8|0,3:2|0:0,0:0:0:0:
28,176,19331,6,0,L|16:88,1,70,6|0,3:2|0:2,0:0:0:0:
56,32,19664,2,0,P|96:20|132:24,1,70,10|0,0:2|0:2,0:0:0:0:
168,96,19997,1,0,3:2:0:0:
168,96,20164,1,0,3:2:0:0:
208,20,20331,1,8,0:2:0:0:
296,68,20497,6,0,B|316:116|316:116|288:208,1,140,2|0,3:2|3:2,0:0:0:0:
252,276,20997,2,0,P|208:280|180:268,1,70,10|0,0:2|0:2,0:0:0:0:
144,196,21331,2,0,P|110:185|76:190,1,70,2|0,3:2|3:2,0:0:0:0:
16,252,21664,2,0,P|5:285|10:319,1,70,10|0,0:2|0:2,0:0:0:0:
96,372,21997,6,0,B|196:380|196:380|244:356,1,140,2|10,3:2|0:2,0:0:0:0:
304,316,22497,1,2,0:2:0:0:
232,276,22664,1,0,3:2:0:0:
232,276,22831,1,0,3:2:0:0:
304,232,22997,1,10,0:2:0:0:
224,176,23164,6,0,P|204:128|244:40,1,140,2|0,3:2|3:2,0:0:0:0:
312,24,23664,2,0,L|396:16,1,70,8|0,0:2|0:2,0:0:0:0:
412,96,23997,2,0,L|328:104,1,70,8|0,0:2|0:2,0:0:0:0:
308,180,24331,1,10,0:2:0:0:
360,244,24497,1,2,0:2:0:0:
296,320,24664,6,0,B|208:336|208:336|148:316,1,140,2|10,3:2|0:2,0:0:0:0:
84,280,25164,1,2,0:2:0:0:
156,236,25331,1,0,3:2:0:0:
156,236,25497,1,0,3:2:0:0:
84,196,25664,1,8,0:2:0:0:
164,140,25831,6,0,L|320:128,1,140,2|2,3:2|3:2,0:0:0:0:
380,160,26331,2,0,P|396:204|384:244,1,70,10|0,0:2|0:2,0:0:0:0:
348,296,26664,2,0,P|304:312|264:300,1,70,2|0,3:2|3:2,0:0:0:0:
224,248,26997,1,10,0:2:0:0:
224,248,27081,1,8,0:2:0:0:
224,248,27164,1,8,0:2:0:0:
192,340,27331,5,2,3:2:0:0:
192,340,27497,1,0,3:2:0:0:
148,176,27831,2,0,B|144:120|144:120|156:92|156:92|152:12,1,140,6|0,3:2|0:2,0:0:0:0:
76,8,28331,2,0,P|36:4|0:36,1,70,2|0,0:2|0:2,0:0:0:0:
4,116,28664,5,6,3:2:0:0:
4,116,28831,1,0,3:2:0:0:
64,172,28997,1,0,0:2:0:0:
20,244,29164,2,0,P|16:288|120:316,1,157.500006008148,6|0,3:2|0:2,0:0:0:0:
216,220,29997,6,0,B|232:180|232:180|224:88,1,125.999996154785,2|0,3:2|3:2,0:0:0:0:
372,24,30664,2,0,L|368:156,1,125.999996154785,0|2,3:2|3:2,0:0:0:0:
324,220,31164,1,2,0:2:0:0:
324,220,31331,2,0,B|360:244|398:228|398:228|440:240|452:272,1,125.999996154785,2|2,3:2|3:2,0:0:0:0:
440,332,31831,2,0,P|400:344|372:340,1,62.9999980773926,2|0,0:2|3:2,0:0:0:0:
304,308,32164,2,0,P|272:307|243:318,1,62.9999980773926,2|0,0:2|3:2,0:0:0:0:
176,364,32497,1,2,0:2:0:0:
176,364,32664,6,0,P|124:352|100:280,1,125.999996154785,0|0,3:2|3:2,0:0:0:0:
128,212,33164,1,0,0:2:0:0:
128,212,33331,2,0,L|196:204,1,62.9999980773926,0|0,3:2|0:2,0:0:0:0:
260,160,33664,1,0,3:2:0:0:
260,160,33831,2,0,L|396:176,1,125.999996154785,0|0,0:2|0:2,0:0:0:0:
468,172,34331,2,0,P|492:140|496:108,1,62.9999980773926,0|0,3:2|0:2,0:0:0:0:
476,40,34664,2,0,P|444:16|412:12,1,62.9999980773926,0|0,3:2|0:2,0:0:0:0:
344,32,34997,1,8,3:2:0:0:
260,160,35331,6,0,B|245:222|245:222|261:282,1,125.999996154785,2|0,3:2|3:2,0:0:0:0:
408,356,35997,2,0,B|422:293|422:293|406:233,1,125.999996154785,0|2,3:2|3:2,0:0:0:0:
352,176,36497,1,2,0:2:0:0:
352,176,36664,2,0,B|284:160|304:212|216:192,1,125.999996154785,2|2,3:2|3:2,0:0:0:0:
164,148,37164,2,0,L|156:80,1,62.9999980773926,2|0,0:2|3:2,0:0:0:0:
112,16,37497,2,0,P|72:8|16:72,1,125.999996154785,2|0,0:2|0:2,0:0:0:0:
28,144,37997,6,0,L|40:216,1,62.9999980773926,2|0,3:2|0:2,0:0:0:0:
120,224,38331,2,0,L|108:296,1,62.9999980773926,2|0,3:2|0:2,0:0:0:0:
156,356,38664,1,2,3:2:0:0:
156,356,38831,2,0,P|200:364|232:356,1,62.9999980773926,2|0,0:2|3:2,0:0:0:0:
284,304,39164,1,10,0:2:0:0:
300,288,39664,6,0,L|372:284,1,62.9999980773926,2|0,0:2|0:2,0:0:0:0:
432,236,39997,1,8,3:2:0:0:
356,200,40164,1,0,0:2:0:0:
424,152,40331,2,0,P|436:116|432:80,1,62.9999980773926,8|0,3:2|0:0,0:0:0:0:
368,20,40664,6,0,L|212:8,1,140,6|8,3:2|0:2,0:0:0:0:
152,48,41164,1,0,0:2:0:0:
200,116,41331,1,0,3:2:0:0:
200,116,41497,1,0,3:2:0:0:
140,176,41664,2,0,P|132:212|140:248,1,70,10|2,0:2|0:2,0:0:0:0:
212,312,41997,6,0,L|288:316,2,70,2|0|10,3:2|3:2|0:2,0:0:0:0:
140,352,42497,2,0,P|100:360|64:344,1,70,2|0,3:2|0:2,0:0:0:0:
28,276,42831,2,0,L|20:200,1,70,2|8,3:2|0:2,0:0:0:0:
80,128,43164,6,0,B|168:108|140:164|220:148,1,140,2|0,3:2|3:2,0:0:0:0:
272,88,43664,1,8,0:2:0:0:
300,176,43831,1,0,0:2:0:0:
300,176,43914,1,8,0:2:0:0:
300,176,43997,2,0,P|348:184|380:176,1,70,0|0,3:2|3:2,0:0:0:0:
404,104,44331,2,0,P|438:100|472:108,1,70,8|0,0:2|0:2,0:0:0:0:
512,200,44664,5,2,3:2:0:0:
512,200,44831,1,0,3:2:0:0:
432,228,44997,1,10,0:2:0:0:
368,180,45164,2,0,B|304:160|304:160|228:176,1,140,6|2,3:2|3:2,0:0:0:0:
172,236,45664,2,0,P|164:272|176:312,1,70,8|0,0:2|0:0,0:0:0:0:
260,344,45997,6,0,B|204:336|204:336|172:344|172:344|112:336,1,140,6|8,3:2|0:2,0:0:0:0:
60,280,46497,1,0,0:2:0:0:
92,204,46664,1,0,3:2:0:0:
92,204,46831,1,0,3:2:0:0:
28,148,46997,2,0,L|20:72,1,70,10|2,0:2|0:2,0:0:0:0:
96,16,47331,6,0,P|148:4|188:84,1,140,2|10,3:2|0:2,0:0:0:0:
196,152,47831,2,0,P|224:184|256:192,1,70,2|0,3:2|0:2,0:0:0:0:
332,176,48164,1,2,3:2:0:0:
332,176,48331,2,0,P|364:188|385:215,1,70,8|0,0:2|0:2,0:0:0:0:
368,312,48664,6,0,L|292:328,1,70,2|0,3:2|0:2,0:0:0:0:
244,264,48997,1,10,0:2:0:0:
220,344,49164,1,0,0:2:0:0:
220,344,49247,1,0,0:2:0:0:
220,344,49331,1,2,3:2:0:0:
160,276,49497,2,0,P|160:236|184:200,1,70,2|8,3:2|0:2,0:0:0:0:
264,168,49831,1,2,3:2:0:0:
280,184,50331,6,0,L|360:180,1,70,0|0,0:2|0:2,0:0:0:0:
424,140,50664,2,0,P|436:88|416:52,1,70,2|2,0:2|3:2,0:0:0:0:
372,12,50997,1,10,0:2:0:0:
308,68,51164,1,2,0:2:0:0:
228,12,51331,6,0,P|176:8|128:96,1,140,6|8,3:2|0:2,0:0:0:0:
156,152,51831,1,0,0:2:0:0:
156,152,51997,2,0,L|240:160,1,70,2|0,0:2|3:2,0:0:0:0:
264,236,52331,2,0,L|348:228,1,70,8|0,0:2|0:2,0:0:0:0:
428,196,52664,6,0,P|480:220|468:304,1,140,2|8,3:2|0:2,0:0:0:0:
432,364,53164,1,0,3:2:0:0:
360,320,53331,2,0,L|288:316,1,70,2|2,0:2|3:2,0:0:0:0:
264,236,53664,1,10,0:2:0:0:
196,308,53831,1,2,0:2:0:0:
196,308,53914,1,0,0:2:0:0:
196,308,53997,6,0,P|144:320|88:256,1,140,2|8,3:2|0:2,0:0:0:0:
120,184,54497,1,0,0:2:0:0:
120,184,54664,2,0,P|136:144|136:104,1,70,2|0,0:2|3:2,0:0:0:0:
132,32,54997,1,8,0:2:0:0:
224,72,55164,1,0,0:2:0:0:
224,72,55247,1,0,0:2:0:0:
224,72,55331,6,0,L|300:80,1,70,2|0,3:2|3:2,0:0:0:0:
360,28,55664,1,8,0:2:0:0:
372,112,55831,1,0,3:2:0:0:
308,164,55997,2,0,P|292:208|300:240,1,70,2|2,0:2|0:2,0:0:0:0:
348,296,56331,2,0,P|392:312|424:304,1,70,14|2,3:2|0:2,0:0:0:0:
488,244,56664,6,0,L|500:92,1,140,14|2,0:2|3:2,0:0:0:0:
440,24,57164,2,0,B|384:20|384:20|352:28|352:28|288:24,1,140,2|0,0:2|3:2,0:0:0:0:
204,4,57664,6,0,B|164:48|196:104|196:104|256:124|260:196,1,210,14|0,0:2|3:2,0:0:0:0:
232,256,58331,1,8,0:2:0:0:
172,196,58497,1,0,0:2:0:0:
172,196,58581,1,8,0:2:0:0:
172,196,58664,1,0,3:2:0:0:
108,252,58831,1,0,3:2:0:0:
48,192,58997,2,0,L|44:152,2,35,0|0|0,3:2|3:2|3:2,0:0:0:0:
28,288,59331,6,0,P|72:332|152:328,1,140,6|2,0:2|3:2,0:0:0:0:
212,260,59831,2,0,B|236:212|236:212|216:124,1,140,2|0,0:2|3:2,0:0:0:0:
244,32,60331,5,2,0:2:0:0:
312,80,60497,2,0,B|392:104|376:52|456:80,1,140,6|0,3:2|3:2,0:0:0:0:
508,136,60997,2,0,P|516:180|508:216,1,70,12|0,0:2|0:2,0:0:0:0:
452,268,61331,2,0,P|408:276|372:268,1,70,2|0,3:2|3:2,0:0:0:0:
328,208,61664,2,0,L|324:168,2,35,2|0|0,3:2|3:2|3:2,0:0:0:0:
292,300,61997,6,0,L|204:304,1,70,10|0,3:2|0:2,0:0:0:0:
164,364,62331,2,0,L|76:360,1,70,10|0,0:2|3:2,0:0:0:0:
32,304,62664,2,0,P|24:260|36:224,1,70,10|0,0:2|3:2,0:0:0:0:
100,188,62997,1,10,0:2:0:0:
164,244,63164,1,2,3:2:0:0:
232,172,63331,6,0,L|312:168,1,70,8|0,0:2|3:2,0:0:0:0:
352,100,63664,2,0,L|432:104,1,70,8|0,0:2|3:2,0:0:0:0:
484,160,63997,1,10,0:2:0:0:
432,228,64164,2,0,L|352:232,1,70,2|8,3:2|0:2,0:0:0:0:
300,308,64497,6,0,B|224:328|244:276|160:304,1,140,6|0,3:2|3:2,0:0:0:0:
96,352,64997,2,0,P|56:356|16:332,1,70,10|0,0:2|3:2,0:0:0:0:
4,264,65331,1,10,0:2:0:0:
76,224,65497,1,2,3:2:0:0:
40,148,65664,1,10,0:2:0:0:
124,100,65831,1,6,3:2:0:0:
220,264,66331,6,0,P|272:272|320:252,1,105.000004005432,0|0,0:2|0:2,0:0:0:0:
356,176,66831,1,0,3:2:0:0:
356,176,66914,1,0,3:2:0:0:
356,176,66997,2,0,L|364:96,1,70,8|0,3:2|0:2,0:0:0:0:
420,24,67331,6,0,P|464:24|484:124,1,154.000004699707,6|8,3:2|3:2,0:0:0:0:
448,196,67831,2,0,P|436:240|452:284,1,77.0000023498536,2|0,0:2|3:2,0:0:0:0:
508,336,68164,1,0,0:2:0:0:
420,360,68331,1,8,3:2:0:0:
356,276,68497,6,0,L|184:260,1,154.000004699707,2|2,0:2|0:2,0:0:0:0:
120,216,68997,1,10,3:2:0:0:
120,216,69164,1,2,0:2:0:0:
204,172,69331,2,0,L|296:168,1,77.0000023498536,2|0,3:2|0:2,0:0:0:0:
368,140,69664,2,0,P|381:104|374:66,1,77.0000023498536,10|0,3:2|0:2,0:0:0:0:
284,12,69997,6,0,B|228:0|228:0|116:24,1,154.000004699707,2|10,3:2|3:2,0:0:0:0:
60,76,70497,1,2,0:2:0:0:
60,76,70664,2,0,P|48:120|64:160,1,77.0000023498536,0|0,3:2|0:2,0:0:0:0:
124,216,70997,2,0,P|168:228|208:212,1,77.0000023498536,8|0,3:2|0:2,0:0:0:0:
272,164,71331,6,0,B|332:160|332:160|368:172|368:172|448:168,1,154.000004699707,0|8,3:2|3:2,0:0:0:0:
492,232,71831,1,0,0:2:0:0:
492,232,71914,1,0,0:2:0:0:
492,232,71997,1,0,3:2:0:0:
448,316,72164,1,0,0:2:0:0:
356,296,72331,2,0,L|268:288,1,77.0000023498536,14|2,3:2|0:2,0:0:0:0:
196,220,72664,6,0,P|140:208|84:292,1,154.000004699707,6|10,3:2|3:2,0:0:0:0:
120,360,73164,2,0,P|168:368|204:356,1,77.0000023498536,2|0,0:2|3:2,0:0:0:0:
256,288,73497,1,0,0:2:0:0:
284,376,73664,1,8,3:2:0:0:
348,288,73831,6,0,L|360:120,1,154.000004699707,2|2,0:2|0:2,0:0:0:0:
320,48,74331,1,10,3:2:0:0:
320,48,74497,1,0,0:2:0:0:
236,84,74664,2,0,P|224:124|236:172,1,77.0000023498536,2|0,3:2|0:2,0:0:0:0:
252,248,74997,2,0,P|257:285|245:322,1,77.0000023498536,10|0,3:2|0:2,0:0:0:0:
148,368,75331,6,0,P|92:344|72:256,1,154.000004699707,2|10,3:2|3:2,0:0:0:0:
112,176,75831,2,0,L|208:164,1,77.0000023498536,2|0,0:2|3:2,0:0:0:0:
263,113,76164,1,2,0:2:0:0:
179,77,76331,1,8,0:2:0:0:
264,8,76497,6,0,B|356:-8|320:48|416:32,1,154.000004699707,6|0,3:2|3:2,0:0:0:0:
504,28,76997,1,8,0:2:0:0:
460,108,77164,1,0,0:2:0:0:
460,108,77247,1,8,0:2:0:0:
460,108,77331,1,0,3:2:0:0:
512,176,77497,2,0,P|516:216|500:252,1,77.0000023498536,2|8,3:2|0:2,0:0:0:0:
420,292,77831,1,0,0:0:0:0:
336,228,77997,6,0,L|252:216,1,77.0000023498536,6|2,3:2|0:2,0:0:0:0:
204,288,78331,2,0,L|120:300,1,77.0000023498536,10|2,3:2|0:2,0:0:0:0:
44,260,78664,1,2,3:2:0:0:
116,204,78831,2,0,P|128:160|124:124,1,77.0000023498536,2|8,0:2|3:2,0:0:0:0:
52,72,79164,6,0,B|112:100|112:100|216:76,1,154.000004699707,2|0,0:2|0:2,0:0:0:0:
280,40,79664,2,0,P|320:32|372:52,1,77.0000023498536,10|0,3:2|0:2,0:0:0:0:
408,116,79997,1,2,3:2:0:0:
408,116,80164,1,2,0:2:0:0:
352,188,80331,2,0,P|312:196|260:176,1,77.0000023498536,14|0,3:2|0:2,0:0:0:0:
204,108,80664,6,0,L|188:200,1,77.0000023498536,6|2,3:2|0:2,0:0:0:0:
100,200,80997,2,0,L|116:292,1,77.0000023498536,10|2,3:2|0:2,0:0:0:0:
156,360,81331,1,2,3:2:0:0:
156,360,81497,1,2,3:2:0:0:
208,284,81664,1,8,0:2:0:0:
284,360,81831,6,0,P|344:368|368:276,1,154.000004699707,6|0,3:2|3:2,0:0:0:0:
344,208,82331,1,10,0:2:0:0:
436,220,82497,1,2,0:2:0:0:
436,220,82581,1,8,0:2:0:0:
436,220,82664,1,2,3:2:0:0:
396,136,82831,1,2,3:2:0:0:
452,64,82997,2,0,L|492:60,2,38.5000011749268,10|8|10,0:2|0:2|0:2,0:0:0:0:
356,8,83331,6,0,P|308:4|272:24,1,77.0000023498536,6|0,3:2|0:2,0:0:0:0:
228,92,83664,2,0,P|224:140|244:176,1,77.0000023498536,10|0,0:2|3:2,0:0:0:0:
308,220,83997,2,0,P|321:255|315:293,1,77.0000023498536,10|0,0:2|3:2,0:0:0:0:
260,370,84331,1,10,0:2:0:0:
208,292,84497,1,0,0:2:0:0:
132,348,84664,1,2,3:2:0:0:
116,332,85331,6,0,L|44:320,2,52.5000020027161,2|0|10,0:0|3:2|0:2,0:0:0:0:
216,196,85997,6,0,P|264:188|312:208,1,70,6|0,3:2|3:2,0:0:0:0:
340,256,86331,2,0,P|374:260|408:252,1,70,8|0,0:2|3:2,0:0:0:0:
368,180,86664,2,0,B|356:128|356:128|372:72,2,105,8|8|8,0:2|0:2|0:2,0:0:0:0:
464,188,87331,6,0,P|488:224|488:268,1,70,6|0,3:2|3:2,0:0:0:0:
456,324,87664,2,0,P|420:348|376:348,1,70,8|0,0:2|3:2,0:0:0:0:
312,328,87997,2,0,B|240:312|240:312|192:328,2,105,10|8|8,0:2|0:2|0:2,0:0:0:0:
256,192,88997,12,0,91831,0:2:0:0:
