osu file format v14

[General]
AudioFilename: audio.mp3
AudioLeadIn: 0
PreviewTime: 66247
Countdown: 0
SampleSet: Soft
StackLeniency: 0.4
Mode: 0
LetterboxInBreaks: 0
WidescreenStoryboard: 0

[Editor]
DistanceSpacing: 1.4
BeatDivisor: 4
GridSize: 4
TimelineZoom: 1.4

[Metadata]
Title:Dreaming!
TitleUnicode:Dreaming!
Artist:Yamazaki Haruka, Tadokoro Azusa, Machico
ArtistUnicode:山崎はるか、田所あずさ、Machico
Creator:browiec
Version:Happiness!
Source:アイドルマスター ミリオンライブ!
Tags:idolm@ster the idolmaster million live im@s imas mogami shizuka ibuki tsubasa mirai kasuga mimari kowari never_log_off japanese game size 最上 静香 伊吹 翼 春日 未来
BeatmapID:2200001
BeatmapSetID:1052724

[Difficulty]
HPDrainRate:5.5
CircleSize:4
OverallDifficulty:9.2
ApproachRate:9.3
SliderMultiplier:1.8
SliderTickRate:1

[Events]
//Background and Video events
0,0,"sylvari thanks for bg.jpg",0,0
//Break Periods
//Storyboard Layer 0 (Background)
//Storyboard Layer 1 (Fail)
//Storyboard Layer 2 (Pass)
//Storyboard Layer 3 (Foreground)
//Storyboard Layer 4 (Overlay)
//Storyboard Sound Samples

[TimingPoints]
5998,333.333333333333,4,2,1,35,1,0
5998,-200,4,2,1,35,0,0
11331,-166.666666666667,4,2,1,35,0,0
12664,-166.666666666667,4,2,1,45,0,0
13331,-166.666666666667,4,2,1,50,0,0
13997,-166.666666666667,4,2,1,55,0,0
15997,-100,4,2,1,55,0,0
18331,-200,4,2,1,35,0,0
18831,-200,4,2,1,55,0,0
18997,-133.333333333333,4,2,1,55,0,0
19331,-100,4,2,1,55,0,0
29164,-133.333333333333,4,2,1,50,0,0
29664,-133.333333333333,4,2,1,35,0,0
29997,-111.111111111111,4,2,1,45,0,0
39997,-111.111111111111,4,2,1,50,0,0
40664,-100,4,2,1,55,0,0
51331,-100,4,2,1,50,0,0
56664,-100,4,2,1,55,0,0
61997,-100,4,2,1,60,0,0
66331,-133.333333333333,4,2,1,35,0,0
66831,-100,4,2,1,55,0,0
67331,-83.3333333333333,4,2,1,65,0,0
84997,-83.3333333333333,4,2,1,35,0,0
85497,-83.3333333333333,4,2,1,50,0,0
85664,-133.333333333333,4,2,1,50,0,0
85997,-133.333333333333,4,2,1,55,0,0
86664,-100,4,2,1,55,0,0
88997,-100,4,2,1,25,0,0

[Colours]
Combo1 : 255,255,0
Combo2 : 91,140,255
Combo3 : 255,128,0
Combo4 : 255,0,255

[HitObjects]
40,164,5998,6,0,B|116:148|96:200|184:188,1,135,2|2,0:2|0:2,0:0:0:0:
312,8,7164,6,0,L|320:112,1,90,2|2,0:2|0:2,0:0:0:0:
272,176,7664,2,0,L|268:240,1,45,2|2,0:2|0:2,0:0:0:0:
184,304,7997,2,0,L|176:200,1,90,2|2,0:2|0:2,0:0:0:0:
408,88,8664,6,0,P|448:84|500:164,1,135,2|2,0:2|0:2,0:0:0:0:
420,296,9664,6,0,L|356:292,1,45,2|0,0:2|0:2,0:0:0:0:
312,216,9997,2,0,L|212:222,2,90,2|2|2,0:2|0:2|0:2,0:0:0:0:
464,76,10997,5,2,0:2:0:0:
412,204,11164,1,2,0:2:0:0:
300,64,11331,2,0,P|260:56|240:60,1,53.9999983520508,2|0,0:2|0:0,0:0:0:0:
176,120,11664,2,0,P|168:160|172:180,1,53.9999983520508,2|0,0:2|0:0,0:0:0:0:
232,244,11997,2,0,P|272:252|292:248,1,53.9999983520508,2|0,0:2|0:0,0:0:0:0:
356,188,12331,2,0,P|364:148|360:128,1,53.9999983520508,2|0,0:2|0:0,0:0:0:0:
148,0,12664,5,2,3:2:0:0:
132,16,13331,6,0,L|128:140,1,107.999996704102,2|2,0:2|0:2,0:0:0:0:
176,296,13831,1,2,0:2:0:0:
288,64,13997,5,4,0:2:0:0:
296,320,14164,1,0,0:2:0:0:
128,119,14331,1,0,3:2:0:0:
396,168,14497,1,0,0:2:0:0:
128,284,14664,1,0,3:2:0:0:
416,184,14831,1,0,0:2:0:0:
144,20,14997,5,4,0:2:0:0:
232,292,15164,1,0,3:2:0:0:
328,24,15331,1,0,3:2:0:0:
48,268,15497,5,4,0:2:0:0:
320,180,15664,1,0,3:2:0:0:
52,84,15831,1,4,0:2:0:0:
200,336,15997,2,0,L|207:395,2,45,4|0|0,0:2|0:2|0:2,0:0:0:0:
248,64,16331,1,0,3:2:0:0:
248,64,16414,1,0,3:2:0:0:
248,64,16497,6,0,B|304:28|304:28|424:64,1,180,2|0,3:2|3:2,0:0:0:0:
472,336,16997,1,0,3:2:0:0:
320,128,17164,1,0,3:2:0:0:
284,384,17331,1,6,0:2:0:0:
500,140,17497,1,0,3:2:0:0:
500,140,17581,1,0,3:2:0:0:
500,140,17664,1,0,3:2:0:0:
156,188,17831,1,6,0:2:0:0:
172,172,18331,6,0,B|160:128|160:128|172:84,1,90,0|0,0:2|0:2,0:0:0:0:
40,204,18831,1,0,3:2:0:0:
40,204,18914,1,0,3:2:0:0:
40,204,18997,2,0,P|12:248|24:312,1,101.250003862381,8|0,3:2|0:2,0:0:0:0:
80,356,19331,6,0,L|184:368,1,90,6|0,3:2|0:2,0:0:0:0:
296,204,19664,2,0,L|192:216,1,90,10|0,0:2|0:2,0:0:0:0:
352,108,19997,1,0,3:2:0:0:
284,304,20164,1,0,3:2:0:0:
196,108,20331,1,8,0:2:0:0:
376,264,20497,6,0,P|436:276|508:184,1,180,2|0,3:2|3:2,0:0:0:0:
408,40,20997,1,10,0:2:0:0:
300,200,21164,1,0,0:2:0:0:
300,200,21247,1,0,0:2:0:0:
300,200,21331,2,0,P|252:208|196:200,1,90,2|0,3:2|3:2,0:0:0:0:
112,64,21664,1,10,0:2:0:0:
88,240,21831,1,0,0:2:0:0:
236,48,21997,6,0,B|312:48|312:48|340:68|340:68|412:68,1,180,2|10,3:2|0:2,0:0:0:0:
464,276,22497,1,2,0:2:0:0:
272,144,22664,1,0,3:2:0:0:
308,360,22831,1,0,3:2:0:0:
400,168,22997,1,10,0:2:0:0:
216,308,23164,6,0,B|112:280|148:348|40:328,1,180,2|0,3:2|3:2,0:0:0:0:
4,80,23664,1,8,0:2:0:0:
160,208,23831,1,0,0:2:0:0:
100,8,23997,1,8,0:2:0:0:
68,240,24164,1,0,0:2:0:0:
200,36,24331,1,10,0:2:0:0:
236,272,24497,1,2,0:2:0:0:
344,28,24664,6,0,P|400:16|444:128,1,180,2|10,3:2|0:2,0:0:0:0:
344,284,25164,1,2,0:2:0:0:
344,284,25247,1,0,0:2:0:0:
344,284,25331,1,0,3:2:0:0:
248,92,25497,1,0,3:2:0:0:
208,304,25664,1,8,0:2:0:0:
376,116,25831,6,0,B|424:72|424:72|416:200,1,180,2|2,3:2|3:2,0:0:0:0:
312,376,26331,1,10,0:2:0:0:
248,188,26497,1,0,0:2:0:0:
156,372,26664,2,0,P|104:380|56:364,1,90,2|0,3:2|3:2,0:0:0:0:
136,164,26997,1,10,0:2:0:0:
136,164,27081,1,8,0:2:0:0:
136,164,27164,1,8,0:2:0:0:
276,384,27331,5,2,3:2:0:0:
316,104,27497,2,0,L|328:0,1,90,0|0,3:2|0:2,0:0:0:0:
160,196,27831,2,0,B|276:168|224:240|356:216,1,180,6|0,3:2|0:2,0:0:0:0:
496,92,28331,1,2,0:2:0:0:
448,280,28497,1,0,0:2:0:0:
300,68,28664,5,6,3:2:0:0:
352,328,28831,1,0,3:2:0:0:
480,104,28997,1,0,0:2:0:0:
248,272,29164,6,0,B|168:276|168:276|132:260|132:260|44:264,1,202.500007724762,6|0,3:2|0:2,0:0:0:0:
152,40,29997,6,0,B|200:68|200:68|184:208,1,161.999995056153,2|0,3:2|3:2,0:0:0:0:
168,304,30497,1,0,0:2:0:0:
288,184,30664,2,0,P|340:184|376:208,1,80.9999975280763,0|0,3:2|0:2,0:0:0:0:
452,312,30997,1,2,3:2:0:0:
468,188,31164,1,2,0:2:0:0:
340,304,31331,6,0,B|260:332|268:264|172:304,1,161.999995056153,2|2,3:2|3:2,0:0:0:0:
72,212,31831,2,0,P|124:220|156:212,1,80.9999975280763,2|0,0:2|3:2,0:0:0:0:
152,64,32164,2,0,P|119:105|110:136,1,80.9999975280763,2|0,0:2|3:2,0:0:0:0:
183,299,32497,1,2,0:2:0:0:
252,152,32664,6,0,B|372:144|372:144|428:168,1,161.999995056153,0|0,3:2|3:2,0:0:0:0:
476,256,33164,1,0,0:2:0:0:
440,72,33331,1,0,3:2:0:0:
356,232,33497,1,0,0:2:0:0:
500,140,33664,1,0,3:2:0:0:
332,60,33831,6,0,L|236:52,1,80.9999975280763,0|0,0:2|3:2,0:0:0:0:
192,180,34164,1,0,0:2:0:0:
144,16,34331,2,0,P|160:60|164:100,1,80.9999975280763,0|0,3:2|0:2,0:0:0:0:
156,260,34664,1,0,3:2:0:0:
252,112,34831,1,0,0:2:0:0:
260,292,34997,2,0,P|268:344|284:380,1,80.9999975280763,8|0,3:2|0:2,0:0:0:0:
372,188,35331,6,0,B|400:156|448:164|448:164|488:184|496:228,1,161.999995056153,2|0,3:2|3:2,0:0:0:0:
408,320,35831,1,0,0:2:0:0:
352,168,35997,2,0,P|340:108|324:80,1,80.9999975280763,0|0,3:2|0:2,0:0:0:0:
176,84,36331,1,2,3:2:0:0:
296,0,36497,1,2,0:2:0:0:
244,168,36664,6,0,B|208:252|272:252|236:336,1,161.999995056153,2|2,3:2|3:2,0:0:0:0:
100,336,37164,2,0,P|144:312|168:284,1,80.9999975280763,2|0,0:2|3:2,0:0:0:0:
168,112,37497,2,0,P|144:104|68:208,1,161.999995056153,2|0,0:2|0:2,0:0:0:0:
240,232,37997,6,0,L|336:224,1,80.9999975280763,2|0,3:2|0:2,0:0:0:0:
408,328,38331,2,0,L|312:320,1,80.9999975280763,2|0,3:2|0:2,0:0:0:0:
216,212,38664,1,2,3:2:0:0:
400,180,38831,1,2,0:2:0:0:
232,320,38997,1,0,3:2:0:0:
344,88,39164,1,10,0:2:0:0:
332,72,39664,6,0,P|292:60|240:72,1,80.9999975280763,2|0,0:2|0:2,0:0:0:0:
136,328,39997,1,8,3:2:0:0:
108,52,40164,1,0,0:2:0:0:
248,292,40331,2,0,B|312:304|312:304|376:288,1,121.499996292114,8|0,3:2|0:2,0:0:0:0:
432,236,40664,6,0,P|452:192|444:132,1,90,6|0,3:2|0:2,0:0:0:0:
316,72,40997,2,0,P|296:116|304:176,1,90,8|0,0:2|0:2,0:0:0:0:
316,200,41247,1,0,0:2:0:0:
316,200,41331,1,0,3:2:0:0:
428,64,41497,1,0,3:2:0:0:
416,256,41664,1,10,0:2:0:0:
316,72,41831,1,2,0:2:0:0:
256,284,41997,5,2,3:2:0:0:
396,152,42164,1,0,3:2:0:0:
384,352,42331,1,10,0:2:0:0:
276,176,42497,2,0,L|184:160,1,90,2|0,3:2|0:2,0:0:0:0:
80,316,42831,2,0,L|172:300,1,90,2|8,3:2|0:2,0:0:0:0:
368,200,43164,6,0,P|364:144|232:92,1,180,2|0,3:2|3:2,0:0:0:0:
136,204,43664,2,0,P|88:212|40:192,1,90,8|0,0:2|0:2,0:0:0:0:
16,168,43914,1,8,0:2:0:0:
16,168,43997,1,0,3:2:0:0:
152,304,44164,1,0,3:2:0:0:
96,120,44331,1,8,0:2:0:0:
0,276,44497,1,0,0:2:0:0:
188,124,44664,5,2,3:2:0:0:
68,332,44831,1,0,3:2:0:0:
16,80,44997,1,10,0:2:0:0:
232,260,45164,2,0,L|332:268,1,90,6|0,3:2|0:2,0:0:0:0:
264,96,45497,1,2,3:2:0:0:
144,248,45664,2,0,P|92:252|20:184,1,135,8|0,0:2|0:2,0:0:0:0:
28,116,45997,6,0,B|72:100|72:100|134:110,1,90,6|0,3:2|0:2,0:0:0:0:
316,172,46331,2,0,B|272:188|272:188|210:178,1,90,8|0,0:2|0:2,0:0:0:0:
192,152,46581,1,0,0:2:0:0:
192,152,46664,1,0,3:2:0:0:
320,276,46831,1,0,3:2:0:0:
260,88,46997,1,10,0:2:0:0:
208,276,47164,1,2,0:2:0:0:
356,84,47331,6,0,P|404:68|464:188,1,180,2|10,3:2|0:2,0:0:0:0:
412,312,47831,2,0,P|416:264|400:208,1,90,2|0,3:2|0:2,0:0:0:0:
336,68,48164,1,2,3:2:0:0:
260,224,48331,2,0,P|250:267|254:312,1,90,8|0,0:2|0:2,0:0:0:0:
160,112,48664,6,0,L|260:120,1,90,2|0,3:2|0:2,0:0:0:0:
152,248,48997,2,0,L|52:256,1,90,10|0,0:2|0:2,0:0:0:0:
24,280,49247,1,0,0:2:0:0:
24,280,49331,1,2,3:2:0:0:
144,128,49497,1,2,3:2:0:0:
164,340,49664,1,8,0:2:0:0:
52,104,49831,6,0,P|80:56|206:53,1,180,2|0,3:2|0:2,0:0:0:0:
276,164,50331,2,0,P|276:100|292:52,1,90,0|0,0:2|0:2,0:0:0:0:
464,152,50664,1,2,0:2:0:0:
260,188,50831,1,2,3:2:0:0:
400,60,50997,1,10,0:2:0:0:
416,244,51164,1,2,0:2:0:0:
264,100,51331,6,0,B|228:152|228:152|268:288,1,180,6|8,3:2|0:2,0:0:0:0:
316,384,51831,1,0,0:2:0:0:
424,228,51997,2,0,P|456:185|505:169,1,90,2|0,0:2|3:2,0:0:0:0:
436,320,52331,2,0,P|383:313|344:278,1,90,8|0,0:2|0:2,0:0:0:0:
308,84,52664,6,0,B|244:80|244:80|204:96|204:96|112:92,1,180,2|8,3:2|0:2,0:0:0:0:
40,232,53164,1,0,3:2:0:0:
12,44,53331,1,2,0:2:0:0:
160,200,53497,1,2,3:2:0:0:
188,0,53664,1,10,0:2:0:0:
28,136,53831,1,2,0:2:0:0:
28,136,53914,1,0,0:2:0:0:
28,136,53997,6,0,B|-8:192|32:248|32:248|48:212|84:200,1,180,2|8,3:2|0:2,0:0:0:0:
220,144,54497,1,0,0:2:0:0:
172,344,54664,2,0,P|132:320|108:264,1,90,2|0,0:2|3:2,0:0:0:0:
228,164,54997,2,0,P|268:188|292:244,1,90,8|0,0:2|0:2,0:0:0:0:
296,268,55247,1,0,0:2:0:0:
296,268,55331,5,2,3:2:0:0:
288,84,55497,1,0,3:2:0:0:
199,253,55664,1,8,0:2:0:0:
196,72,55831,1,0,3:2:0:0:
372,200,55997,1,2,0:2:0:0:
140,176,56164,1,2,0:2:0:0:
380,100,56331,1,14,3:2:0:0:
280,312,56497,1,2,0:2:0:0:
168,84,56664,6,0,B|60:72|104:144|-24:132,1,180,14|2,0:2|3:2,0:0:0:0:
116,333,57164,2,0,P|92:281|152:169,1,180,2|0,0:2|3:2,0:0:0:0:
332,124,57664,6,0,B|336:72|280:52|280:52|220:112|252:188|304:204,1,270,14|0,0:2|3:2,0:0:0:0:
488,260,58331,2,0,P|432:248|384:260,1,90,8|0,0:2|0:2,0:0:0:0:
360,276,58581,1,8,0:2:0:0:
360,276,58664,1,0,3:2:0:0:
504,152,58831,1,0,3:2:0:0:
432,352,58997,1,0,3:2:0:0:
432,352,59081,1,0,3:2:0:0:
432,352,59164,1,0,3:2:0:0:
348,152,59331,6,0,B|284:140|284:140|240:152|240:152|132:136,1,180,6|2,0:2|3:2,0:0:0:0:
52,252,59831,2,0,L|148:244,1,90,2|0,0:2|0:2,0:0:0:0:
232,48,60164,1,0,3:2:0:0:
300,260,60331,5,2,0:2:0:0:
384,52,60497,2,0,P|428:32|488:132,1,180,6|0,3:2|3:2,0:0:0:0:
412,256,60997,2,0,P|412:196|384:148,1,90,12|0,0:2|0:2,0:0:0:0:
364,140,61247,1,8,0:2:0:0:
364,140,61331,1,2,3:2:0:0:
284,316,61497,1,0,3:2:0:0:
228,128,61664,2,0,P|228:96|232:76,2,45,2|0|0,3:2|3:2|3:2,0:0:0:0:
128,352,61997,5,10,3:2:0:0:
336,208,62164,1,0,0:2:0:0:
52,160,62331,5,10,0:2:0:0:
288,304,62497,1,0,3:2:0:0:
116,56,62664,5,10,0:2:0:0:
40,316,62831,1,0,3:2:0:0:
216,56,62997,5,10,0:2:0:0:
276,328,63164,1,2,3:2:0:0:
364,24,63331,5,8,0:2:0:0:
168,236,63497,1,0,3:2:0:0:
480,200,63664,5,8,0:2:0:0:
217,79,63830,1,0,3:2:0:0:
364,360,63997,5,10,0:2:0:0:
384,44,64163,1,2,3:2:0:0:
228,332,64331,1,8,0:2:0:0:
120,16,64497,6,0,B|68:0|32:44|32:44|28:92|60:120,1,180,6|0,3:2|3:2,0:0:0:0:
416,192,64997,5,10,0:2:0:0:
120,292,65164,1,0,3:2:0:0:
312,8,65331,5,10,0:2:0:0:
364,348,65498,1,2,3:2:0:0:
200,0,65664,5,10,0:2:0:0:
124,384,65831,1,6,3:2:0:0:
176,112,66331,6,0,B|100:96|128:144|28:128,1,135.000005149842,0|0,0:2|0:2,0:0:0:0:
180,240,66831,1,0,3:2:0:0:
180,240,66914,1,0,3:2:0:0:
180,240,66997,2,0,P|236:232|284:240,1,90,8|0,3:2|0:2,0:0:0:0:
488,376,67331,5,6,3:2:0:0:
400,136,67497,1,0,0:2:0:0:
300,372,67664,1,8,3:2:0:0:
496,184,67831,2,0,P|508:132|484:72,1,107.999996704102,2|0,0:2|3:2,0:0:0:0:
292,156,68164,1,0,0:2:0:0:
472,272,68331,1,8,3:2:0:0:
324,40,68497,6,0,P|268:36|220:60,1,107.999996704102,2|0,0:2|3:0,0:0:0:0:
130,246,68831,1,2,0:2:0:0:
72,44,68998,1,10,3:2:0:0:
130,266,69165,1,2,0:2:0:0:
216,48,69331,1,2,3:2:0:0:
12,248,69498,1,0,0:2:0:0:
256,188,69665,1,10,3:2:0:0:
8,132,69831,1,0,0:2:0:0:
264,328,69997,6,0,B|372:352|372:352|476:308,1,215.999993408203,2|10,3:2|3:2,0:0:0:0:
432,104,70497,2,0,P|380:100|320:128,1,107.999996704102,2|0,0:2|3:2,0:0:0:0:
172,312,70831,1,0,0:2:0:0:
228,84,70997,1,8,3:2:0:0:
360,260,71164,1,0,0:2:0:0:
136,164,71331,6,0,L|24:156,1,107.999996704102,0|0,3:2|0:2,0:0:0:0:
180,16,71664,1,8,3:2:0:0:
236,232,71831,1,0,0:2:0:0:
236,232,71914,1,0,0:2:0:0:
236,232,71997,1,0,3:2:0:0:
348,24,72164,1,0,0:2:0:0:
360,296,72331,1,14,3:2:0:0:
264,88,72497,1,2,0:2:0:0:
188,340,72664,5,6,3:2:0:0:
360,128,72831,1,0,0:2:0:0:
96,172,72997,1,10,3:2:0:0:
360,296,73164,2,0,P|420:312|484:288,1,107.999996704102,2|0,0:2|3:2,0:0:0:0:
344,108,73497,1,0,0:2:0:0:
268,296,73664,1,8,3:2:0:0:
196,56,73831,6,0,P|144:44|84:60,1,107.999996704102,2|0,0:2|3:0,0:0:0:0:
144,288,74164,1,2,0:2:0:0:
280,104,74330,1,10,3:2:0:0:
40,176,74497,1,0,0:2:0:0:
280,248,74664,1,2,3:2:0:0:
48,304,74830,1,0,0:2:0:0:
168,104,74997,1,10,3:2:0:0:
224,340,75164,1,0,0:2:0:0:
432,124,75331,6,0,P|344:120|300:256,1,215.999993408203,2|10,3:2|3:2,0:0:0:0:
478,249,75831,2,0,P|436:216|384:208,1,107.999996704102,2|0,0:2|3:2,0:0:0:0:
152,304,76164,1,2,0:2:0:0:
388,356,76331,1,8,0:2:0:0:
248,120,76497,6,0,B|292:184|292:184|236:324,1,215.999993408203,6|0,3:2|3:2,0:0:0:0:
132,148,76997,1,8,0:2:0:0:
356,104,77164,1,0,0:2:0:0:
356,104,77247,1,8,0:2:0:0:
356,104,77331,1,0,3:2:0:0:
88,236,77497,2,0,P|48:200|36:128,1,107.999996704102,2|8,3:2|0:2,0:0:0:0:
44,96,77747,1,0,0:0:0:0:
44,96,77831,1,0,0:0:0:0:
292,336,77997,5,6,3:2:0:0:
176,124,78164,1,2,0:2:0:0:
100,356,78331,1,10,3:2:0:0:
32,120,78497,1,2,0:2:0:0:
196,320,78664,1,2,3:2:0:0:
108,56,78831,1,2,0:2:0:0:
16,308,78997,1,8,3:2:0:0:
300,140,79164,6,0,B|384:156|384:156|412:192|412:192|504:204,1,215.999993408203,2|0,0:2|0:2,0:0:0:0:
488,4,79664,2,0,P|484:68|452:119,1,107.999996704102,10|0,3:2|0:2,0:0:0:0:
320,252,79997,1,2,3:2:0:0:
296,40,80164,1,2,0:2:0:0:
176,244,80331,2,0,L|64:249,1,107.999996704102,14|0,3:2|0:2,0:0:0:0:
208,32,80664,5,6,3:2:0:0:
304,304,80831,1,2,0:2:0:0:
404,24,80997,1,10,3:2:0:0:
304,280,81164,1,2,0:2:0:0:
196,12,81331,1,2,3:2:0:0:
472,144,81497,1,2,3:2:0:0:
176,240,81664,1,8,0:2:0:0:
392,8,81831,6,0,B|340:56|340:56|368:208,1,215.999993408203,6|0,3:2|3:2,0:0:0:0:
304,376,82331,1,10,0:2:0:0:
236,160,82498,1,2,0:2:0:0:
236,160,82581,1,8,0:2:0:0:
236,160,82664,1,2,3:2:0:0:
144,364,82831,1,2,3:2:0:0:
368,260,82997,6,0,L|288:264,1,53.9999983520508,10|8,0:2|0:2,0:0:0:0:
100,208,83164,2,0,L|176:212,1,53.9999983520508,10|8,0:2|0:2,0:0:0:0:
436,164,83331,6,0,L|304:172,1,107.999996704102,6|0,3:2|0:2,0:0:0:0:
124,336,83664,5,10,0:2:0:0:
256,68,83831,1,0,3:2:0:0:
284,376,83997,5,10,0:2:0:0:
136,52,84164,1,0,3:2:0:0:
32,384,84331,5,10,0:2:0:0:
348,156,84497,1,0,0:2:0:0:
348,156,84581,1,0,0:2:0:0:
348,156,84664,6,0,B|500:144|500:144|440:180,1,215.999993408203,2|0,3:2|0:2,0:0:0:0:
436,192,85497,5,0,3:2:0:0:
384,60,85664,2,0,L|304:68,1,67.5000025749208,10|2,0:2|0:0,0:0:0:0:
116,256,85997,5,6,3:2:0:0:
200,32,86164,1,0,3:2:0:0:
276,324,86331,5,8,0:2:0:0:
78,148,86498,1,0,3:2:0:0:
376,80,86664,6,0,P|432:64|500:108,2,135,8|8|8,0:2|0:2|0:2,0:0:0:0:
280,380,87331,5,6,3:2:0:0:
232,92,87497,1,0,3:2:0:0:
36,356,87664,5,8,0:2:0:0:
340,296,87830,1,0,3:2:0:0:
128,88,87997,6,0,P|65:65|1:83,2,135,10|8|8,0:2|0:2|0:2,0:0:0:0:
256,192,88997,12,0,91831,0:2:0:0:
