osu file format v14

[General]
AudioFilename: audio.mp3
AudioLeadIn: 0
PreviewTime: 66247
Countdown: 0
SampleSet: Soft
StackLeniency: 0.4
Mode: 0
LetterboxInBreaks: 0
WidescreenStoryboard: 1

[Editor]
DistanceSpacing: 1.4
BeatDivisor: 4
GridSize: 4
TimelineZoom: 1.4

[Metadata]
Title:Dreaming!
TitleUnicode:Dreaming!
Artist:Yamazaki Haruka, Tadokoro Azusa, Machico
ArtistUnicode:山崎はるか、田所あずさ、Machico
Creator:browiec
Version:Extra!
Source:アイドルマスター ミリオンライブ!
Tags:idolm@ster the idolmaster million live im@s imas mogami shizuka ibuki tsubasa mirai kasuga mimari kowari never_log_off japanese game size 最上 静香 伊吹 翼 春日 未来
BeatmapID:2200000
BeatmapSetID:1052724

[Difficulty]
HPDrainRate:5.2
CircleSize:4
OverallDifficulty:9
ApproachRate:9.2
SliderMultiplier:1.75
SliderTickRate:1

[Events]
//Background and Video events
0,0,"sylvari thanks for bg.jpg",0,0
//Break Periods
//Storyboard Layer 0 (Background)
//Storyboard Layer 1 (Fail)
//Storyboard Layer 2 (Pass)
//Storyboard Layer 3 (Foreground)
//Storyboard Layer 4 (Overlay)
//Storyboard Sound Samples

[TimingPoints]
5998,333.333333333333,4,2,1,35,1,0
5998,-200,4,2,1,35,0,0
11331,-166.666666666667,4,2,1,35,0,0
12664,-166.666666666667,4,2,1,45,0,0
13331,-166.666666666667,4,2,1,50,0,0
13997,-100,4,2,1,55,0,0
15997,-100,4,2,1,55,0,0
18331,-200,4,2,1,35,0,0
18831,-200,4,2,1,55,0,0
18997,-133.333333333333,4,2,1,55,0,0
19331,-100,4,2,1,55,0,0
29164,-133.333333333333,4,2,1,50,0,0
29664,-133.333333333333,4,2,1,35,0,0
29997,-111.111111111111,4,2,1,45,0,0
39997,-111.111111111111,4,2,1,50,0,0
40664,-100,4,2,1,55,0,0
51331,-100,4,2,1,50,0,0
56664,-100,4,2,1,55,0,0
61997,-100,4,2,1,60,0,0
66331,-133.333333333333,4,2,1,35,0,0
66831,-100,4,2,1,55,0,0
67331,-83.3333333333333,4,2,1,65,0,0
84997,-83.3333333333333,4,2,1,35,0,0
85497,-83.3333333333333,4,2,1,50,0,0
85664,-133.333333333333,4,2,1,50,0,0
85997,-133.333333333333,4,2,1,55,0,0
86664,-100,4,2,1,55,0,0
88997,-100,4,2,1,25,0,0

[Colours]
Combo1 : 255,255,0
Combo2 : 91,140,255
Combo3 : 255,128,0
Combo4 : 255,0,255

[HitObjects]
40,164,5998,6,0,B|116:148|96:200|184:188,1,131.25,2|2,0:2|0:2,0:0:0:0:
340,84,7164,6,0,L|332:188,1,87.5,2|2,0:2|0:2,0:0:0:0:
352,256,7664,2,0,P|404:272|448:248,2,87.5,2|2|2,0:2|0:2|0:2,0:0:0:0:
244,144,8664,2,0,B|192:136|192:136|160:148|160:148|100:140,1,131.25,2|2,0:2|0:2,0:0:0:0:
0,312,9664,6,0,L|64:308,1,43.75,2|0,0:2|0:2,0:0:0:0:
108,232,9997,2,0,L|208:238,2,87.5,2|2|2,0:2|0:2|0:2,0:0:0:0:
0,68,10997,5,2,0:2:0:0:
16,184,11164,1,2,0:2:0:0:
124,68,11331,2,0,P|161:41|236:48,1,104.999996795654,2|2,0:2|0:2,0:0:0:0:
256,184,11997,2,0,P|218:210|143:203,1,104.999996795654,2|2,0:2|0:2,0:0:0:0:
308,24,12664,5,2,3:2:0:0:
324,40,13331,6,0,L|328:164,1,104.999996795654,2|2,0:2|0:2,0:0:0:0:
276,264,13831,1,2,0:2:0:0:
232,80,13997,6,0,P|184:68|140:84,1,87.5,4|0,0:2|0:2,0:0:0:0:
32,244,14331,1,0,3:2:0:0:
192,160,14497,1,0,0:2:0:0:
16,84,14664,1,0,3:2:0:0:
140,252,14831,1,0,0:2:0:0:
112,40,14997,6,0,P|108:100|112:144,1,87.5,4|0,0:2|3:2,0:0:0:0:
124,272,15331,1,0,3:2:0:0:
280,100,15497,2,0,P|284:160|280:204,1,87.5,4|0,0:2|3:2,0:0:0:0:
240,304,15831,1,4,0:2:0:0:
128,144,15997,2,0,L|124:92,2,43.75,4|0|0,0:2|0:2|0:2,0:0:0:0:
160,324,16331,1,0,3:2:0:0:
160,324,16414,1,0,3:2:0:0:
160,324,16497,6,0,B|216:360|216:360|336:324,1,175,2|0,3:2|3:2,0:0:0:0:
472,144,16997,1,0,3:2:0:0:
444,332,17164,1,0,3:2:0:0:
320,124,17331,1,6,0:2:0:0:
292,320,17497,1,0,3:2:0:0:
292,320,17581,1,0,3:2:0:0:
292,320,17664,1,0,3:2:0:0:
488,128,17831,1,6,0:2:0:0:
472,144,18331,6,0,B|428:156|428:156|384:144,1,87.5,0|0,0:2|0:2,0:0:0:0:
276,68,18831,1,0,3:2:0:0:
276,68,18914,1,0,3:2:0:0:
276,68,18997,2,0,L|252:176,1,98.4375037550928,8|0,3:2|0:2,0:0:0:0:
276,232,19331,6,0,P|232:204|168:216,1,87.5,6|0,3:2|0:2,0:0:0:0:
148,344,19664,2,0,P|194:319|215:258,1,87.5,10|0,0:2|0:2,0:0:0:0:
160,88,19997,1,0,3:2:0:0:
128,260,20164,1,0,3:2:0:0:
48,104,20331,1,8,0:2:0:0:
256,216,20497,6,0,B|356:244|332:168|432:204,1,175,2|0,3:2|3:2,0:0:0:0:
504,332,20997,1,10,0:2:0:0:
480,124,21164,1,0,0:2:0:0:
480,124,21247,1,0,0:2:0:0:
480,124,21331,2,0,P|476:56|480:20,1,87.5,2|0,3:2|3:2,0:0:0:0:
280,120,21664,1,10,0:2:0:0:
460,216,21831,1,0,0:2:0:0:
352,24,21997,6,0,B|388:72|388:72|352:196,1,175,2|10,3:2|0:2,0:0:0:0:
216,344,22497,1,2,0:2:0:0:
264,172,22664,1,0,3:2:0:0:
376,348,22831,1,0,3:2:0:0:
364,176,22997,1,10,0:2:0:0:
200,328,23164,6,0,B|136:332|136:332|92:316|92:316|8:320,1,175,2|0,3:2|3:2,0:0:0:0:
96,64,23664,1,8,0:2:0:0:
148,248,23831,1,0,0:2:0:0:
0,104,23997,1,8,0:2:0:0:
196,152,24164,1,0,0:2:0:0:
26,234,24331,2,0,P|18:282|34:330,1,87.5,10|2,0:2|0:2,0:0:0:0:
212,168,24664,6,0,B|300:148|300:148|400:172,1,175,2|10,3:2|0:2,0:0:0:0:
280,336,25164,1,2,0:2:0:0:
280,336,25247,1,0,0:2:0:0:
280,336,25331,1,0,3:2:0:0:
196,152,25497,1,0,3:2:0:0:
352,264,25664,1,8,0:2:0:0:
244,68,25831,6,0,P|196:56|104:152,1,175,2|2,3:2|3:2,0:0:0:0:
256,320,26331,1,10,0:2:0:0:
196,152,26497,1,0,0:2:0:0:
132,316,26664,2,0,P|80:324|32:308,1,87.5,2|0,3:2|3:2,0:0:0:0:
96,116,26997,1,10,0:2:0:0:
96,116,27081,1,8,0:2:0:0:
96,116,27164,1,8,0:2:0:0:
220,300,27331,5,2,3:2:0:0:
300,112,27497,2,0,L|312:8,1,87.5,0|0,3:2|0:2,0:0:0:0:
368,216,27831,2,0,B|312:207|312:207|286:220|286:220|265:200|265:200|185:189,1,175,6|0,3:2|0:2,0:0:0:0:
332,308,28331,1,2,0:2:0:0:
392,124,28497,1,0,0:2:0:0:
424,348,28664,5,6,3:2:0:0:
292,180,28831,1,0,3:2:0:0:
264,376,28997,1,0,0:2:0:0:
376,196,29164,6,0,P|356:126|224:123,1,196.875007510186,6|0,3:2|0:2,0:0:0:0:
176,256,29997,6,0,B|100:268|100:268|16:236,1,157.499995193482,2|0,3:2|3:2,0:0:0:0:
36,104,30497,1,0,0:2:0:0:
36,104,30664,2,0,P|87:113|118:142,1,78.7499975967408,0|0,3:2|0:2,0:0:0:0:
192,268,30997,1,2,3:2:0:0:
228,144,31164,1,2,0:2:0:0:
276,312,31331,6,0,B|356:340|348:272|444:312,1,157.499995193482,2|2,3:2|3:2,0:0:0:0:
500,208,31831,2,0,P|448:216|416:208,1,78.7499975967408,2|0,0:2|3:2,0:0:0:0:
420,64,32164,2,0,P|453:105|462:136,1,78.7499975967408,2|0,0:2|3:2,0:0:0:0:
428,306,32497,1,2,0:2:0:0:
368,140,32664,6,0,P|320:120|236:192,1,157.499995193482,0|0,3:2|3:2,0:0:0:0:
208,296,33164,1,0,0:2:0:0:
160,168,33331,2,0,L|148:88,2,78.7499975967408,0|0|0,3:2|0:2|3:2,0:0:0:0:
108,324,33831,6,0,P|64:332|8:228,1,157.499995193482,0|0,0:2|0:2,0:0:0:0:
64,140,34331,2,0,P|72:192|84:228,1,78.7499975967408,0|0,3:2|0:2,0:0:0:0:
128,344,34664,1,0,3:2:0:0:
184,212,34831,1,0,0:2:0:0:
252,356,34997,2,0,P|300:360|336:344,1,78.7499975967408,8|0,3:2|0:2,0:0:0:0:
388,180,35331,6,0,B|416:148|464:156|464:156|504:176|512:220,1,157.499995193482,2|0,3:2|3:2,0:0:0:0:
392,276,35831,1,0,0:2:0:0:
392,276,35997,2,0,P|344:264|308:224,1,78.7499975967408,0|0,3:2|0:2,0:0:0:0:
260,120,36331,1,2,3:2:0:0:
228,256,36497,1,2,0:2:0:0:
168,84,36664,6,0,B|116:64|116:64|0:80,1,157.499995193482,2|2,3:2|3:2,0:0:0:0:
16,216,37164,2,0,P|76:204|104:180,1,78.7499975967408,2|0,0:2|3:2,0:0:0:0:
184,68,37497,2,0,P|224:52|288:144,1,157.499995193482,2|0,0:2|0:2,0:0:0:0:
224,252,37997,6,0,L|128:260,1,78.7499975967408,2|0,3:2|0:2,0:0:0:0:
252,348,38331,2,0,L|348:356,1,78.7499975967408,2|0,3:2|0:2,0:0:0:0:
380,192,38664,1,2,3:2:0:0:
432,352,38831,1,2,0:2:0:0:
476,176,38997,1,0,3:2:0:0:
330,354,39164,1,10,0:2:0:0:
312,340,39664,6,0,P|272:352|220:340,1,78.7499975967408,2|0,0:2|0:2,0:0:0:0:
112,144,39997,1,8,3:2:0:0:
76,360,40164,1,0,0:2:0:0:
216,172,40331,2,0,B|264:168|264:168|292:176|292:176|356:172,1,118.124996395111,8|0,3:2|0:2,0:0:0:0:
396,232,40664,6,0,P|416:188|408:128,1,87.5,6|0,3:2|0:2,0:0:0:0:
320,4,40997,2,0,P|300:48|308:108,1,87.5,8|0,0:2|0:2,0:0:0:0:
316,128,41247,1,0,0:2:0:0:
316,128,41331,1,0,3:2:0:0:
436,24,41497,1,0,3:2:0:0:
428,200,41664,2,0,L|424:296,1,87.5,10|2,0:2|0:2,0:0:0:0:
236,372,41997,5,2,3:2:0:0:
308,212,42164,1,0,3:2:0:0:
368,384,42331,1,10,0:2:0:0:
216,256,42497,2,0,P|208:200|220:156,1,87.5,2|0,3:2|0:2,0:0:0:0:
381,167,42831,2,0,P|336:201|292:213,1,87.5,2|8,3:2|0:2,0:0:0:0:
180,64,43164,6,0,B|128:92|128:92|112:216,1,175,2|0,3:2|3:2,0:0:0:0:
32,320,43664,2,0,L|20:228,1,87.5,8|0,0:2|0:2,0:0:0:0:
16,188,43914,1,8,0:2:0:0:
16,188,43997,1,0,3:2:0:0:
128,304,44164,1,0,3:2:0:0:
136,128,44331,2,0,P|168:92|212:80,1,87.5,8|0,0:2|0:2,0:0:0:0:
344,256,44664,5,2,3:2:0:0:
300,48,44831,1,0,3:2:0:0:
180,216,44997,1,10,0:2:0:0:
380,112,45164,2,0,L|480:120,1,87.5,6|0,3:2|0:2,0:0:0:0:
360,272,45497,1,2,3:2:0:0:
272,128,45664,2,0,P|216:124|164:180,1,131.25,8|0,0:2|0:2,0:0:0:0:
124,248,45997,6,0,P|77:260|38:246,1,87.5,6|0,3:2|0:2,0:0:0:0:
20,104,46331,2,0,P|66:91|105:105,1,87.5,8|0,0:2|0:2,0:0:0:0:
136,132,46581,1,0,0:2:0:0:
136,132,46664,1,0,3:2:0:0:
204,0,46831,1,0,3:2:0:0:
260,152,46997,2,0,P|264:204|260:244,1,87.5,10|2,0:2|0:2,0:0:0:0:
128,344,47331,6,0,B|204:336|204:336|236:348|236:348|308:340,1,175,2|10,3:2|0:2,0:0:0:0:
384,200,47831,2,0,P|376:264|384:296,1,87.5,2|0,3:2|0:2,0:0:0:0:
508,336,48164,1,2,3:2:0:0:
468,148,48331,2,0,P|416:109|384:100,1,87.5,8|0,0:2|0:2,0:0:0:0:
204,200,48664,6,0,L|304:192,1,87.5,2|0,3:2|0:2,0:0:0:0:
216,68,48997,2,0,L|116:60,1,87.5,10|0,0:2|0:2,0:0:0:0:
84,56,49247,1,0,0:2:0:0:
84,56,49331,1,2,3:2:0:0:
136,264,49497,1,2,3:2:0:0:
232,52,49664,1,8,0:2:0:0:
52,224,49831,6,0,P|44:280|136:360,1,175,2|0,3:2|0:2,0:0:0:0:
220,312,50331,2,0,P|232:260|216:208,1,87.5,0|0,0:2|0:2,0:0:0:0:
88,120,50664,1,2,0:2:0:0:
136,264,50831,1,2,3:2:0:0:
208,112,50997,2,0,L|300:108,1,87.5,10|2,0:2|0:2,0:0:0:0:
440,220,51331,6,0,B|388:260|388:260|256:224,1,175,6|8,3:2|0:2,0:0:0:0:
192,96,51831,1,0,0:2:0:0:
160,256,51997,2,0,L|152:348,1,87.5,2|0,0:2|3:2,0:0:0:0:
68,240,52331,2,0,L|60:148,1,87.5,8|0,0:2|0:2,0:0:0:0:
248,208,52664,6,0,B|312:204|312:204|352:220|352:220|444:216,1,175,2|8,3:2|0:2,0:0:0:0:
352,328,53164,1,0,3:2:0:0:
172,264,53331,2,0,P|156:212|172:160,1,87.5,2|2,0:2|3:2,0:0:0:0:
272,116,53664,1,10,0:2:0:0:
256,304,53831,1,2,0:2:0:0:
256,304,53914,1,0,0:2:0:0:
256,304,53997,6,0,P|188:356|96:316,1,175,2|8,3:2|0:2,0:0:0:0:
68,204,54497,1,0,0:2:0:0:
244,208,54664,2,0,L|336:212,1,87.5,2|0,0:2|3:2,0:0:0:0:
404,112,54997,2,0,L|312:116,1,87.5,8|0,0:2|0:2,0:0:0:0:
272,120,55247,1,0,0:2:0:0:
272,120,55331,5,2,3:2:0:0:
424,208,55497,1,0,3:2:0:0:
368,28,55664,1,8,0:2:0:0:
324,216,55831,1,0,3:2:0:0:
492,96,55997,2,0,P|508:156|508:200,1,87.5,2|2,0:2|0:2,0:0:0:0:
424,324,56331,2,0,P|408:264|408:220,1,87.5,14|2,3:2|0:2,0:0:0:0:
280,92,56664,6,0,B|172:80|216:152|88:140,1,175,14|2,0:2|3:2,0:0:0:0:
8,188,57164,2,0,P|60:172|172:240,1,175,2|0,0:2|3:2,0:0:0:0:
244,360,57664,6,0,B|205:300|253:239|253:239|339:255|332:343,1,262.5,14|0,0:2|3:2,0:0:0:0:
508,224,58331,2,0,P|452:236|404:224,1,87.5,8|0,0:2|0:2,0:0:0:0:
380,208,58581,1,8,0:2:0:0:
380,208,58664,1,0,3:2:0:0:
512,132,58831,1,0,3:2:0:0:
496,324,58997,1,0,3:2:0:0:
496,324,59081,1,0,3:2:0:0:
496,324,59164,1,0,3:2:0:0:
416,112,59331,6,0,B|352:100|352:100|308:112|308:112|220:96,1,175,6|2,0:2|3:2,0:0:0:0:
104,200,59831,2,0,L|200:192,1,87.5,2|0,0:2|0:2,0:0:0:0:
312,288,60164,1,0,3:2:0:0:
236,80,60331,5,2,0:2:0:0:
136,288,60497,2,0,P|72:288|16:180,1,175,6|0,3:2|3:2,0:0:0:0:
152,84,60997,2,0,P|152:144|124:192,1,87.5,12|0,0:2|0:2,0:0:0:0:
104,200,61247,1,8,0:2:0:0:
104,200,61331,1,2,3:2:0:0:
88,8,61497,1,0,3:2:0:0:
240,120,61664,2,0,L|288:144,2,43.75,2|0|0,3:2|3:2|3:2,0:0:0:0:
8,208,61997,5,10,3:2:0:0:
176,48,62164,1,0,0:2:0:0:
156,304,62331,5,10,0:2:0:0:
24,88,62497,1,0,3:2:0:0:
240,224,62664,6,0,P|292:232|340:216,1,87.5,10|0,0:2|3:2,0:0:0:0:
192,32,62997,5,10,0:2:0:0:
140,256,63164,1,2,3:2:0:0:
320,68,63331,5,8,0:2:0:0:
336,304,63497,1,0,3:2:0:0:
128,140,63664,5,8,0:2:0:0:
408,204,63831,1,0,3:2:0:0:
128,272,63997,5,10,0:2:0:0:
424,188,64164,1,2,3:2:0:0:
180,24,64331,1,8,0:2:0:0:
288,316,64497,6,0,B|360:324|360:324|396:312|396:312|492:324,1,175,6|0,3:2|3:2,0:0:0:0:
256,76,64997,5,10,0:2:0:0:
192,324,65164,1,0,3:2:0:0:
416,132,65331,5,10,0:2:0:0:
116,208,65498,1,2,3:2:0:0:
440,296,65664,5,10,0:2:0:0:
124,80,65831,1,6,3:2:0:0:
140,64,66331,6,0,B|216:48|188:96|288:80,1,131.25000500679,0|0,0:2|0:2,0:0:0:0:
156,164,66831,1,0,3:2:0:0:
156,164,66914,1,0,3:2:0:0:
156,164,66997,2,0,P|100:156|52:164,1,87.5,8|0,3:2|0:2,0:0:0:0:
160,300,67331,6,0,P|208:264|264:264,1,104.999996795654,6|0,3:2|0:2,0:0:0:0:
336,384,67664,1,8,3:2:0:0:
396,188,67831,2,0,L|408:72,1,104.999996795654,2|0,0:2|3:2,0:0:0:0:
312,232,68164,1,0,0:2:0:0:
492,180,68331,1,8,3:2:0:0:
319,48,68497,6,0,B|270:99|270:99|319:256,1,209.999993591309,2|2,0:2|0:2,0:0:0:0:
211,344,68997,2,0,L|108:310,1,104.999996795654,10|2,3:2|0:2,0:0:0:0:
52,152,69331,2,0,P|113:189|133:241,1,104.999996795654,2|0,3:2|0:2,0:0:0:0:
20,348,69664,2,0,P|21:275|57:232,1,104.999996795654,10|0,3:2|0:2,0:0:0:0:
208,64,69997,6,0,B|260:20|260:20|240:179,1,209.999993591309,2|10,3:2|3:2,0:0:0:0:
260,340,70497,2,0,P|312:344|364:304,1,104.999996795654,2|0,0:2|3:2,0:0:0:0:
404,120,70831,1,0,0:2:0:0:
460,320,70997,1,8,3:2:0:0:
512,120,71164,1,0,0:2:0:0:
332,220,71331,6,0,L|220:212,1,104.999996795654,0|0,3:2|0:2,0:0:0:0:
116,44,71664,1,8,3:2:0:0:
108,248,71831,1,0,0:2:0:0:
108,248,71914,1,0,0:2:0:0:
108,248,71997,1,0,3:2:0:0:
228,80,72164,1,0,0:2:0:0:
16,204,72331,2,0,P|8:260|32:312,1,104.999996795654,14|2,3:2|0:2,0:0:0:0:
210,267,72664,6,0,P|159:254|90:247,1,104.999996795654,6|0,3:2|0:2,0:0:0:0:
216,368,72997,1,10,3:2:0:0:
268,180,73164,2,0,P|328:164|392:188,1,104.999996795654,2|0,0:2|3:2,0:0:0:0:
440,340,73497,1,0,0:2:0:0:
496,184,73664,1,8,3:2:0:0:
308,320,73831,6,0,B|228:304|228:304|188:316|188:316|96:300,1,209.999993591309,2|2,0:2|0:2,0:0:0:0:
0,184,74331,2,0,L|120:176,1,104.999996795654,10|0,3:2|0:2,0:0:0:0:
236,60,74664,2,0,L|116:52,1,104.999996795654,2|0,3:2|0:2,0:0:0:0:
220,200,74997,2,0,L|340:192,1,104.999996795654,10|0,3:2|0:2,0:0:0:0:
448,8,75331,6,0,B|396:64|396:64|444:192,1,209.999993591309,2|10,3:2|3:2,0:0:0:0:
404,368,75831,2,0,P|404:320|376:260,1,104.999996795654,2|0,0:2|3:2,0:0:0:0:
196,184,76164,1,2,0:2:0:0:
288,352,76331,1,8,0:2:0:0:
340,144,76497,6,0,P|388:112|504:200,1,209.999993591309,6|0,3:2|3:2,0:0:0:0:
380,336,76997,1,8,0:2:0:0:
320,136,77164,1,0,0:2:0:0:
320,136,77247,1,8,0:2:0:0:
320,136,77331,1,0,3:2:0:0:
220,344,77497,2,0,L|116:340,1,104.999996795654,2|8,3:2|0:2,0:0:0:0:
64,336,77747,1,0,0:0:0:0:
64,336,77831,1,0,0:0:0:0:
112,72,77997,5,6,3:2:0:0:
168,260,78164,1,2,0:2:0:0:
200,44,78331,1,10,3:2:0:0:
80,220,78497,1,2,0:2:0:0:
56,4,78664,1,2,3:2:0:0:
216,168,78831,2,0,P|272:180|336:164,1,104.999996795654,2|8,0:2|3:2,0:0:0:0:
512,208,79164,6,0,B|432:224|432:224|408:256|408:256|308:272,1,209.999993591309,2|0,0:2|0:2,0:0:0:0:
120,144,79664,2,0,P|124:208|156:256,1,104.999996795654,10|0,3:2|0:2,0:0:0:0:
272,360,79997,1,2,3:2:0:0:
216,168,80164,1,2,0:2:0:0:
124,344,80331,2,0,L|12:352,1,104.999996795654,14|0,3:2|0:2,0:0:0:0:
120,108,80664,5,6,3:2:0:0:
204,308,80831,1,2,0:2:0:0:
276,84,80997,1,10,3:2:0:0:
116,220,81164,1,2,0:2:0:0:
348,176,81331,1,2,3:2:0:0:
168,28,81497,2,0,P|108:16|60:36,1,104.999996795654,2|8,3:2|0:2,0:0:0:0:
0,276,81831,6,0,B|92:264|92:264|128:272|128:272|228:260,1,209.999993591309,6|0,3:2|3:2,0:0:0:0:
300,72,82331,1,10,0:2:0:0:
332,296,82498,1,2,0:2:0:0:
332,296,82581,1,8,0:2:0:0:
332,296,82664,1,2,3:2:0:0:
188,120,82831,1,2,3:2:0:0:
412,172,82997,6,0,L|332:176,1,52.4999983978272,10|8,0:2|0:2,0:0:0:0:
172,248,83164,2,0,L|248:252,1,52.4999983978272,10|8,0:2|0:2,0:0:0:0:
452,304,83331,6,0,L|320:312,1,104.999996795654,6|0,3:2|0:2,0:0:0:0:
164,124,83664,5,10,0:2:0:0:
204,355,83831,1,0,3:2:0:0:
312,136,83997,5,10,0:2:0:0:
84,251,84164,1,0,3:2:0:0:
332,336,84331,5,10,0:2:0:0:
155,112,84497,1,0,0:2:0:0:
155,112,84581,1,0,0:2:0:0:
155,112,84664,2,0,P|135:60|259:20,1,209.999993591309,2|0,3:2|0:2,0:0:0:0:
260,24,85497,5,0,3:2:0:0:
228,168,85664,2,0,P|224:216|232:260,1,65.6250025033952,10|2,0:2|0:0,0:0:0:0:
404,64,85997,5,6,3:2:0:0:
384,272,86164,1,0,3:2:0:0:
236,72,86331,5,8,0:2:0:0:
292,292,86497,1,0,3:2:0:0:
392,80,86664,6,0,P|456:84|504:144,2,131.25,8|8|8,0:2|0:2|0:2,0:0:0:0:
140,180,87331,5,6,3:2:0:0:
392,280,87497,1,0,3:2:0:0:
128,280,87664,5,8,0:2:0:0:
384,180,87830,1,0,3:2:0:0:
100,100,87997,6,0,P|53:144|55:221,2,131.25,10|8|8,0:2|0:2|0:2,0:0:0:0:
256,192,88997,12,0,91831,0:2:0:0:
