osu file format v14

[General]
AudioFilename: audio.mp3
AudioLeadIn: 0
PreviewTime: 66350
Countdown: 0
SampleSet: None
StackLeniency: 0.7
Mode: 0
LetterboxInBreaks: 0
WidescreenStoryboard: 1

[Editor]
Bookmarks: 10016,117016
DistanceSpacing: 1.4
BeatDivisor: 4
GridSize: 4
TimelineZoom: 3.499999

[Metadata]
Title:Dreaming!
TitleUnicode:Dreaming!
Artist:Yamazaki Haruka, Tadokoro Azusa, Machico
ArtistUnicode:山崎はるか、田所あずさ、Machico
Creator:_Star
Version:Insane
Source:アイドルマスター ミリオンライブ!
Tags:idolm@ster the idolmaster million live im@s imas startrick kasuga miral mogami shizuka ibuki tsubasa
BeatmapID:1432564
BeatmapSetID:677363

[Difficulty]
HPDrainRate:7
CircleSize:4
OverallDifficulty:5
ApproachRate:9
SliderMultiplier:1.6
SliderTickRate:1

[Events]
//Background and Video events
0,0,"yande.re 320654 baba_konomi heels kasuga_mirai kousaka_umi matsuda_arisa momose_rio nanao_yuriko satake_minako tokoro_megumi wallpaper yabuki_kana yokoyama_nao.jpg",0,0
//Break Periods
2,158799,166750
//Storyboard Layer 0 (Background)
//Storyboard Layer 1 (Fail)
//Storyboard Layer 2 (Pass)
//Storyboard Layer 3 (Foreground)
//Storyboard Sound Samples

[TimingPoints]
6017,333.333333333333,4,2,0,90,1,0
14016,-100,4,3,0,40,0,0
67350,-100,4,3,0,95,0,1
78016,-100,4,3,0,75,0,0
86016,-100,4,2,0,70,0,0
96683,-133.333333333333,4,2,0,90,0,0
106683,-100,4,2,0,90,0,0
132850,-100,4,2,0,5,0,0
134183,-100,4,2,0,90,0,0
135350,-100,4,3,0,70,0,1
146016,-100,4,3,0,80,0,0
159350,-133.333333333333,4,2,0,90,0,0
170016,-100,4,3,0,75,0,0
186016,-100,4,3,0,60,0,0
210016,-100,4,2,0,5,0,0
210350,-100,4,3,0,80,0,1
217516,-100,4,2,0,90,0,0
218016,-100,4,2,0,90,0,0
230350,-100,4,1,0,90,0,1
230683,-100,4,1,0,70,0,1
240683,-100,4,2,0,90,0,0
251016,-100,4,1,0,90,0,0
251350,-100,4,3,0,90,0,1
262016,-100,4,2,0,90,0,0
270016,-100,4,3,0,90,0,0
273016,-100,4,2,0,90,0,0

[HitObjects]
36,236,6016,6,0,B|108:272|108:272|196:252,1,160
296,192,6516,2,0,B|216:144|216:144|144:160,1,160
408,168,7183,2,0,B|372:92|372:92|388:-4,1,160
292,104,7683,1,0,0:0:0:0:
328,220,7850,1,0,0:0:0:0:
452,256,8016,2,0,B|400:328|400:328|316:344,1,160
128,372,8683,5,2,0:0:0:0:
184,244,9016,1,0,0:0:0:0:
176,240,9183,2,0,P|152:200|180:92,1,160
80,64,9683,1,0,0:0:0:0:
256,52,10016,5,2,0:0:0:0:
100,80,10349,1,0,0:0:0:0:
212,180,10683,1,0,0:0:0:0:
72,208,11016,1,0,0:0:0:0:
48,292,11183,1,0,0:0:0:0:
120,348,11350,6,0,B|200:368|200:368|284:336|288:324,1,160
412,260,12016,2,0,B|336:216|336:216|256:232,1,160
116,264,12683,1,0,0:0:0:0:
120,28,14016,6,0,L|192:108,1,80,0|4,0:0|0:0,0:0:0:0:
88,168,14350,1,4,0:0:0:0:
140,264,14516,2,0,L|56:296,1,80,0|4,0:0|0:0,0:0:0:0:
168,164,14850,1,4,0:0:0:0:
264,248,15016,1,0,0:0:0:0:
272,92,15183,1,4,0:0:0:0:
452,160,15350,6,0,L|388:252,1,80
488,336,15683,1,4,0:0:0:0:
480,340,15850,1,4,0:0:0:0:
320,384,16016,2,0,L|280:280,1,80
348,184,16350,5,0,0:0:0:0:
216,112,16516,2,0,B|152:168|152:168|76:192,1,160,0|4,0:0|0:0,0:0:0:0:
252,184,17016,1,4,0:0:0:0:
88,260,17183,1,4,0:0:0:0:
40,108,17350,2,0,L|88:8,1,80
176,160,17683,1,4,0:0:0:0:
304,64,17850,1,0,0:0:0:0:
364,56,18850,5,4,0:0:0:0:
364,56,18933,1,4,0:0:0:0:
364,56,19016,1,0,0:0:0:0:
460,184,19350,6,0,L|416:276,1,80,4|0,0:0|0:0,0:0:0:0:
276,300,19683,2,0,L|232:192,1,80
240,60,20016,1,0,0:0:0:0:
392,88,20183,1,0,0:0:0:0:
292,172,20350,1,0,0:0:0:0:
132,124,20516,6,0,P|132:192|188:264,1,160,4|0,0:0|0:0,0:0:0:0:
16,352,21016,1,0,0:0:0:0:
52,224,21183,1,0,0:0:0:0:
148,316,21350,1,0,0:0:0:0:
284,316,21516,1,0,0:0:0:0:
288,196,21683,1,0,0:0:0:0:
148,196,21850,1,0,0:0:0:0:
378,197,22016,6,0,B|350:273|350:273|262:329,1,160,4|0,0:0|0:0,0:0:0:0:
296,120,22516,2,0,P|356:56|460:32,1,160
468,192,23016,1,4,0:0:0:0:
300,248,23183,2,0,P|224:236|156:280,1,160,4|0,0:0|0:0,0:0:0:0:
48,372,23683,2,0,L|16:264,1,80,4|0,0:0|0:0,0:0:0:0:
96,160,24016,1,0,0:0:0:0:
404,12,24350,6,0,L|444:100,1,80
280,104,24683,2,0,L|248:268,1,160,4|0,0:0|0:0,0:0:0:0:
360,196,25183,1,0,0:0:0:0:
492,280,25350,1,4,0:0:0:0:
484,284,25516,1,0,0:0:0:0:
388,368,25683,1,0,0:0:0:0:
248,336,25850,6,0,P|168:324|104:260,1,160,4|0,0:0|0:0,0:0:0:0:
268,148,26350,2,0,L|224:248,1,80
36,140,26683,1,0,0:0:0:0:
188,136,26850,1,0,0:0:0:0:
96,216,27016,1,0,0:0:0:0:
236,76,27183,1,0,0:0:0:0:
408,120,27350,5,0,0:0:0:0:
320,228,27516,1,4,0:0:0:0:
480,272,27850,6,0,B|440:344|440:344|364:376,1,160,4|0,0:0|0:0,0:0:0:0:
276,192,28350,2,0,P|260:232|264:280,1,80
124,356,28683,1,4,0:0:0:0:
36,192,28850,1,4,0:0:0:0:
48,324,29016,1,4,0:0:0:0:
168,192,29183,1,0,0:0:0:0:
408,252,30016,6,4,L|388:348,1,80
260,184,30350,2,4,L|340:172,1,80
292,348,30683,2,4,L|224:272,1,80
120,356,31016,1,4,0:0:0:0:
36,276,31183,1,4,0:0:0:0:
164,232,31350,6,4,P|168:152|220:76,1,160
48,120,31850,2,4,L|8:32,1,80
148,8,32183,1,4,0:0:0:0:
320,32,32350,2,4,L|280:116,1,80
452,216,32683,6,4,P|412:240|372:236,1,80
312,340,33016,2,4,P|348:364|388:360,1,80
288,216,33350,1,4,0:0:0:0:
284,220,33516,1,4,0:0:0:0:
172,264,33683,1,4,0:0:0:0:
168,268,33850,1,4,0:0:0:0:
136,148,34016,6,4,L|176:72,1,80
48,196,34350,2,4,L|8:280,1,80
16,116,34683,1,4,0:0:0:0:
20,120,34850,1,4,0:0:0:0:
160,212,35016,1,4,0:0:0:0:
464,64,35350,6,4,P|440:152|464:220,1,160
344,168,35850,1,4,0:0:0:0:
332,300,36016,2,4,L|264:360,1,80
456,380,36350,2,4,L|464:284,1,80
288,228,36683,2,4,P|224:292|136:316,1,160
168,320,37183,1,4,0:0:0:0:
44,304,37350,2,4,L|24:220,1,80
76,124,37683,2,4,L|172:172,1,80
292,48,38016,5,4,0:0:0:0:
300,52,38183,1,4,0:0:0:0:
428,108,38350,2,4,L|396:216,1,80
280,216,38683,1,4,0:0:0:0:
384,288,38850,2,4,P|472:256|516:200,1,160
180,312,40016,6,0,L|132:396,1,80
44,268,40350,1,0,0:0:0:0:
104,132,40683,6,0,L|124:36,1,80
224,168,41016,1,0,0:0:0:0:
244,44,41183,1,0,0:0:0:0:
252,40,41266,1,0,0:0:0:0:
260,36,41349,2,0,L|340:92,1,80,4|0,0:0|0:0,0:0:0:0:
404,24,41682,1,0,0:0:0:0:
496,120,41849,1,0,0:0:0:0:
360,152,42016,6,0,P|356:232|304:308,1,160
224,152,42516,2,0,L|264:240,1,80
352,376,42849,1,0,0:0:0:0:
164,352,43016,2,0,L|204:268,1,80
60,176,43349,6,0,L|152:152,1,80
128,48,43683,2,0,L|36:28,1,80
208,100,44016,1,4,0:0:0:0:
208,212,44182,1,0,0:0:0:0:
320,212,44349,1,0,0:0:0:0:
320,100,44516,1,0,0:0:0:0:
424,248,44683,6,0,L|400:156,1,80,4|0,0:0|0:0,0:0:0:0:
400,16,45016,2,0,L|456:112,1,80
500,232,45350,1,4,0:0:0:0:
496,228,45516,1,0,0:0:0:0:
384,324,45682,1,0,0:0:0:0:
88,356,46016,6,0,P|112:268|88:200,1,160,4|0,0:0|0:0,0:0:0:0:
232,320,46516,2,0,L|280:352,2,40,0|0|4,0:0|0:0|0:0,0:0:0:0:
216,208,46850,1,0,0:0:0:0:
136,56,47016,2,0,L|84:136,1,80
248,112,47349,2,0,P|312:48|400:24,1,160,4|0,0:0|0:0,0:0:0:0:
396,164,47849,1,0,0:0:0:0:
492,64,48016,2,0,L|512:148,1,80
420,300,48349,2,0,L|324:252,1,80
280,352,48682,5,4,0:0:0:0:
168,352,48849,1,0,0:0:0:0:
84,276,49016,2,0,L|116:168,1,80
200,100,49349,1,4,0:0:0:0:
312,212,49516,1,4,0:0:0:0:
336,60,49683,1,4,0:0:0:0:
200,100,49850,1,0,0:0:0:0:
96,208,50683,5,0,0:0:0:0:
68,352,50850,1,0,0:0:0:0:
232,300,51016,1,0,0:0:0:0:
96,208,51183,1,0,0:0:0:0:
264,136,51350,6,0,P|300:60|372:12,1,160,4|0,0:0|0:0,0:0:0:0:
492,272,52016,2,0,B|456:196|456:196|368:164,1,160,4|0,0:0|0:0,0:0:0:0:
356,356,52683,2,4,P|276:324|196:352,1,160,4|0,0:0|0:0,0:0:0:0:
216,128,53350,1,0,0:0:0:0:
112,248,53516,1,0,0:0:0:0:
84,88,53683,1,0,0:0:0:0:
180,208,53850,1,0,0:0:0:0:
160,60,54016,6,0,P|232:16|312:28,1,160,4|0,0:0|0:0,0:0:0:0:
500,112,54683,2,0,B|484:196|484:196|408:264,1,160,4|0,0:0|0:0,0:0:0:0:
280,220,55350,2,4,P|248:284|312:320,1,160,4|0,0:0|0:0,0:0:0:0:
96,368,56016,2,0,P|72:336|24:328,1,80,4|0,0:0|0:0,0:0:0:0:
104,156,56350,1,0,0:0:0:0:
208,280,56516,1,0,0:0:0:0:
276,136,56683,6,0,P|264:84|180:0,1,160,4|0,0:0|0:0,0:0:0:0:
344,28,57183,2,0,P|432:56|504:40,1,160,4|0,0:0|0:0,0:0:0:0:
448,140,57683,2,0,P|384:168|408:240,1,160,4|0,0:0|0:0,0:0:0:0:
268,200,58183,1,4,0:0:0:0:
308,368,58350,1,4,0:0:0:0:
148,296,58516,2,4,L|188:256,2,40
64,124,58850,1,0,0:0:0:0:
224,8,59016,1,4,0:0:0:0:
231,16,59100,1,4,0:0:0:0:
239,21,59183,1,4,0:0:0:0:
246,26,59266,1,4,0:0:0:0:
256,34,59350,6,4,L|412:131,1,160
252,208,59850,2,0,L|200:384,1,160,4|0,0:0|0:0,0:0:0:0:
352,312,60350,1,0,0:0:0:0:
472,172,60516,2,0,P|472:272|504:336,1,160,4|0,0:0|0:0,0:0:0:0:
496,332,61016,1,0,0:0:0:0:
272,80,61350,6,0,P|260:128|228:176,1,80
124,24,61683,1,0,0:0:0:0:
120,32,61766,1,0,0:0:0:0:
116,40,61850,1,4,0:0:0:0:
112,48,61933,1,4,0:0:0:0:
108,56,62016,6,0,L|72:136,1,80
36,292,62350,2,0,L|120:272,1,80,4|0,0:0|0:0,0:0:0:0:
232,168,62683,2,0,L|248:256,1,80,4|0,0:0|0:0,0:0:0:0:
328,360,63016,2,0,L|404:304,1,80,4|0,0:0|0:0,0:0:0:0:
500,216,63350,6,0,L|440:140,1,80,4|0,0:0|0:0,0:0:0:0:
392,8,63683,2,0,L|308:60,1,80,4|0,0:0|0:0,0:0:0:0:
356,224,64016,1,4,0:0:0:0:
208,152,64183,1,4,0:0:0:0:
324,48,64350,1,4,0:0:0:0:
132,16,64516,6,0,P|104:72|100:176,1,160,4|0,0:0|0:0,0:0:0:0:
232,328,65016,2,0,L|168:384,1,80,4|0,0:0|0:0,0:0:0:0:
92,240,65350,1,4,0:0:0:0:
264,244,65516,1,4,0:0:0:0:
128,324,65683,1,4,0:0:0:0:
352,280,65850,1,0,0:0:0:0:
120,80,66850,5,4,0:0:0:0:
124,88,66933,1,4,0:0:0:0:
128,96,67016,1,2,0:0:0:0:
96,272,67350,6,0,L|172:320,1,80
272,240,67683,1,0,0:0:0:0:
368,344,67850,1,0,0:0:0:0:
464,240,68016,2,0,L|404:168,1,80
496,76,68350,1,0,0:0:0:0:
352,28,68516,6,0,P|304:96|224:120,1,160
112,24,69016,1,0,0:0:0:0:
108,32,69183,1,0,0:0:0:0:
188,204,69350,2,0,L|132:260,1,80
52,112,69683,1,0,0:0:0:0:
48,116,69850,1,0,0:0:0:0:
16,272,70016,6,0,L|60:348,1,80
200,320,70350,1,0,0:0:0:0:
332,376,70516,2,0,P|356:344|484:304,1,160
328,180,71016,1,0,0:0:0:0:
496,96,71183,2,0,P|476:188|428:236,1,160
336,80,71683,1,0,0:0:0:0:
332,84,71850,1,0,0:0:0:0:
176,24,72016,2,0,P|156:60|104:100,1,80
216,220,72350,2,0,P|244:168|276:156,1,80
96,272,72683,6,0,L|172:320,1,80
324,284,73016,1,0,0:0:0:0:
424,360,73183,1,0,0:0:0:0:
464,240,73349,2,0,L|404:168,1,80
496,76,73683,1,0,0:0:0:0:
324,24,73849,6,0,P|276:92|196:116,1,160
220,312,74349,1,0,0:0:0:0:
288,224,74516,1,0,0:0:0:0:
168,196,74683,2,0,L|112:252,1,80
96,116,75016,1,0,0:0:0:0:
8,168,75183,1,0,0:0:0:0:
16,272,75349,6,0,L|60:348,1,80
200,320,75683,1,0,0:0:0:0:
332,376,75849,2,0,P|356:344|484:304,1,160
384,84,76516,6,0,P|364:176|316:224,1,160
148,80,77016,1,0,0:0:0:0:
248,152,77183,1,0,0:0:0:0:
164,232,77350,2,0,L|120:164,1,80
40,244,77683,1,0,0:0:0:0:
44,252,77766,1,0,0:0:0:0:
48,260,77850,1,0,0:0:0:0:
52,268,77933,1,0,0:0:0:0:
56,276,78016,6,0,L|104:348,1,80,4|0,0:0|0:0,0:0:0:0:
200,280,78350,2,0,L|268:232,1,80
320,368,78683,1,0,0:0:0:0:
448,316,78850,2,0,P|464:280|500:256,1,80
416,88,79183,6,0,P|400:180|348:224,1,160
416,88,79683,1,0,0:0:0:0:
260,92,79850,1,0,0:0:0:0:
128,176,80016,2,0,L|192:232,1,80
124,96,80350,2,0,L|64:44,1,80
40,232,80683,6,0,P|68:280|68:332,1,80,4|0,0:0|0:0,0:0:0:0:
220,296,81016,1,0,0:0:0:0:
88,376,81183,1,0,0:0:0:0:
228,368,81350,2,0,P|276:360|304:344,1,80
416,168,81850,6,0,P|408:256|440:328,1,160
416,168,82350,1,0,0:0:0:0:
504,200,82516,1,0,0:0:0:0:
412,52,82683,1,0,0:0:0:0:
312,184,82850,1,0,0:0:0:0:
216,36,83016,1,0,0:0:0:0:
212,44,83100,1,0,0:0:0:0:
208,52,83183,1,0,0:0:0:0:
204,60,83266,1,0,0:0:0:0:
200,68,83350,6,0,L|164:140,1,80,4|0,0:0|0:0,0:0:0:0:
52,212,83683,2,0,L|120:276,1,80
200,380,84016,2,0,L|248:304,1,80
336,244,84350,2,0,L|272:188,1,80
192,232,84683,1,0,0:0:0:0:
456,128,85516,5,4,0:0:0:0:
284,40,85683,2,0,P|200:36|132:76,1,160
256,192,86100,12,0,88350,0:0:0:0:
448,184,88683,6,0,P|440:248|392:336,1,160,4|0,0:0|0:0,0:0:0:0:
280,184,89183,2,4,L|340:32,1,160
156,24,89683,1,0,0:0:0:0:
48,136,89850,2,0,P|56:216|16:288,1,160,4|0,0:0|0:0,0:0:0:0:
204,228,90350,1,0,0:0:0:0:
204,236,90516,1,0,0:0:0:0:
148,376,90683,2,0,L|228:340,1,80,4|0,0:0|0:0,0:0:0:0:
384,280,91016,2,0,L|352:360,1,80,4|0,0:0|0:0,0:0:0:0:
336,196,91350,6,0,P|384:112|360:20,1,160,4|0,0:0|0:0,0:0:0:0:
248,68,91850,2,0,B|176:120|204:224,1,160,4|0,0:0|0:0,0:0:0:0:
80,88,92350,1,0,0:0:0:0:
24,196,92516,2,0,B|60:272|60:272|48:360,1,160,4|0,0:0|0:0,0:0:0:0:
156,336,93016,2,0,L|228:288,1,80
320,292,93350,1,4,0:0:0:0:
432,292,93516,1,0,0:0:0:0:
432,180,93683,1,4,0:0:0:0:
320,176,93850,1,0,0:0:0:0:
228,108,94016,5,4,0:0:0:0:
232,104,94183,2,0,P|308:60|396:76,1,160,4|0,0:0|0:0,0:0:0:0:
252,24,94850,1,0,0:0:0:0:
248,32,95016,2,0,P|184:64|168:84,1,80,4|0,0:0|0:0,0:0:0:0:
44,144,95350,1,4,0:0:0:0:
164,240,95516,1,4,0:0:0:0:
36,288,95683,1,4,0:0:0:0:
188,144,95850,1,4,0:0:0:0:
448,140,96683,6,0,P|440:200|464:268,1,120.000004577637
360,352,97183,2,0,L|288:184,1,180.000006866455,0|8,0:0|0:0,0:0:0:0:
72,120,98016,2,0,P|36:176|32:228,1,120.000004577637
112,336,98516,2,0,B|200:264|144:172,1,180.000006866455
246,376,99350,6,0,L|366:312,1,120.000004577637
480,368,99850,2,0,B|452:288|452:288|480:192,1,180.000006866455,0|8,0:0|0:0,0:0:0:0:
376,60,100683,2,0,B|344:120|344:120|296:148,1,120.000004577637,4|0,0:0|0:0,0:0:0:0:
124,56,101350,1,0,0:0:0:0:
56,200,101516,1,0,0:0:0:0:
212,184,101683,1,8,0:0:0:0:
120,352,102016,6,0,P|184:336|224:284,1,120.000004577637
276,368,102516,2,0,P|312:292|300:184,1,180.000006866455,0|8,0:0|0:0,0:0:0:0:
416,36,103350,6,0,P|352:52|312:104,1,120.000004577637
268,16,103850,2,0,P|232:56|216:120,1,120.000004577637
280,232,104350,1,8,0:0:0:0:
144,236,104516,1,0,0:0:0:0:
144,88,104683,2,0,P|100:48|40:56,1,120.000004577637,4|0,0:0|0:0,0:0:0:0:
52,224,105350,1,0,0:0:0:0:
52,232,105516,2,0,P|68:296|108:336,1,120.000004577637,0|4,0:0|0:0,0:0:0:0:
360,360,106683,6,0,L|424:304,1,80
424,304,107016,1,8,0:0:0:0:
408,132,107349,6,0,L|388:36,1,80
280,212,107682,1,0,0:0:0:0:
268,44,107849,1,0,0:0:0:0:
260,40,107932,1,0,0:0:0:0:
252,36,108016,2,0,L|172:92,1,80
80,24,108350,1,0,0:0:0:0:
16,120,108515,1,0,0:0:0:0:
84,208,108682,6,0,P|88:288|140:364,1,160
288,152,109183,2,0,L|248:240,1,80
196,376,109515,1,0,0:0:0:0:
348,352,109683,2,0,L|308:268,1,80
448,196,110016,6,0,L|416:288,1,80
392,120,110349,2,0,L|424:44,1,80
368,192,110682,1,0,0:0:0:0:
240,192,110850,1,0,0:0:0:0:
240,80,111015,1,0,0:0:0:0:
128,80,111182,1,0,0:0:0:0:
36,152,111350,6,0,P|84:204|96:308,1,160
12,308,111850,2,0,B|72:360|72:360|176:360,1,160
424,356,112682,6,0,P|400:268|424:200,1,160
280,264,113183,2,0,L|232:296,2,40
328,144,113516,1,0,0:0:0:0:
424,12,113683,2,0,L|432:108,1,80
264,112,114016,2,0,P|200:48|112:24,1,160
116,164,114515,1,0,0:0:0:0:
20,64,114683,2,0,L|0:148,1,80
84,288,115016,2,0,L|180:240,1,80
280,356,115350,5,0,0:0:0:0:
288,352,115515,1,0,0:0:0:0:
428,276,115683,2,0,L|396:168,1,80
312,100,116015,1,8,0:0:0:0:
200,212,116182,1,8,0:0:0:0:
176,60,116349,1,0,0:0:0:0:
312,100,116516,1,8,0:0:0:0:
428,344,117350,5,8,0:0:0:0:
360,232,117516,2,0,L|396:156,2,80,8|0|8,0:0|0:0|0:0,0:0:0:0:
248,136,118016,6,0,P|212:60|140:12,1,160,0|8,0:0|0:0,0:0:0:0:
92,236,118683,2,0,L|44:156,2,80,0|0|8,0:0|0:0|0:0,0:0:0:0:
156,356,119349,2,0,P|236:324|316:352,1,160,0|8,0:0|0:0,0:0:0:0:
296,128,120016,1,0,0:0:0:0:
400,248,120182,1,0,0:0:0:0:
428,88,120349,1,8,0:0:0:0:
332,208,120516,1,8,0:0:0:0:
352,60,120682,6,0,P|280:16|200:28,1,160,0|8,0:0|0:0,0:0:0:0:
124,148,121350,2,0,L|68:216,2,80,0|0|8,0:0|0:0|0:0,0:0:0:0:
232,220,122016,2,0,P|240:308|156:348,1,160,0|8,0:0|0:0,0:0:0:0:
416,368,122683,2,0,P|440:336|488:328,1,80
408,156,123016,1,8,0:0:0:0:
304,280,123182,1,0,0:0:0:0:
236,136,123349,6,0,P|248:84|332:0,1,160,0|8,0:0|0:0,0:0:0:0:
168,28,123849,2,0,P|80:56|8:40,1,160
104,140,124350,2,0,B|36:196|172:240|80:296,1,160
244,200,124849,1,0,0:0:0:0:
204,368,125016,1,0,0:0:0:0:
364,296,125183,2,0,L|324:256,2,40
448,124,125516,1,0,0:0:0:0:
288,8,125682,1,0,0:0:0:0:
281,16,125766,1,0,0:0:0:0:
273,21,125849,1,0,0:0:0:0:
266,26,125932,1,0,0:0:0:0:
256,34,126016,6,0,L|100:131,1,160,4|8,0:0|0:0,0:0:0:0:
252,184,126516,2,0,B|264:244|264:244|292:276|292:276|312:348,1,160
160,312,127016,1,0,0:0:0:0:
40,172,127182,2,0,P|40:272|8:336,1,160,0|8,0:0|0:0,0:0:0:0:
16,332,127682,1,0,0:0:0:0:
192,172,127850,6,0,L|148:212,2,40
352,216,128183,1,0,0:0:0:0:
388,24,128349,1,0,0:0:0:0:
392,32,128432,1,0,0:0:0:0:
396,40,128516,1,0,0:0:0:0:
400,48,128599,1,0,0:0:0:0:
404,56,128683,6,0,L|440:136,1,80,12|0,0:0|0:0,0:0:0:0:
264,104,129016,2,0,L|344:148,1,80,8|0,0:0|0:0,0:0:0:0:
344,264,129349,2,0,L|260:316,1,80,8|0,0:0|0:0,0:0:0:0:
500,316,129683,2,0,L|424:260,1,80,8|0,0:0|0:0,0:0:0:0:
196,304,130016,6,0,L|256:228,1,80,8|0,0:0|0:0,0:0:0:0:
132,112,130349,2,0,L|192:184,1,80,8|0,0:0|0:0,0:0:0:0:
100,0,130682,1,0,0:0:0:0:
292,152,130849,1,8,0:0:0:0:
420,44,131182,6,0,P|448:100|452:204,1,160
280,328,131683,2,0,L|344:384,1,80,8|0,0:0|0:0,0:0:0:0:
376,236,132016,1,12,0:0:0:0:
228,228,132182,1,0,0:0:0:0:
400,324,132349,1,0,0:0:0:0:
184,288,132516,1,8,0:0:0:0:
320,136,132850,6,0,L|344:184,9,40
380,252,133683,2,0,L|428:228,4,40
232,304,134183,1,0,0:0:0:0:
228,296,134350,1,0,0:0:0:0:
224,292,134516,2,0,P|200:240|176:212,1,80
60,176,134850,1,0,0:0:0:0:
68,176,134933,1,0,0:0:0:0:
76,176,135016,1,8,0:0:0:0:
280,176,135350,6,0,L|196:128,1,80,4|0,0:0|0:0,0:0:0:0:
256,280,135683,1,0,0:0:0:0:
136,336,135850,1,0,0:0:0:0:
60,212,136016,2,0,L|28:132,1,80,4|0,0:0|0:0,0:0:0:0:
160,184,136350,1,0,0:0:0:0:
160,28,136516,6,0,P|208:96|288:120,1,160,4|0,0:0|0:0,0:0:0:0:
400,24,137016,1,0,0:0:0:0:
404,32,137183,1,0,0:0:0:0:
328,176,137350,2,0,L|384:232,1,80,4|0,0:0|0:0,0:0:0:0:
460,112,137683,1,0,0:0:0:0:
464,116,137850,1,0,0:0:0:0:
496,272,138016,6,0,L|452:348,1,80,4|0,0:0|0:0,0:0:0:0:
312,320,138350,1,0,0:0:0:0:
180,376,138516,2,0,L|28:304,1,160
184,180,139016,1,0,0:0:0:0:
16,96,139183,2,0,P|36:188|84:236,1,160
176,80,139683,1,0,0:0:0:0:
180,84,139850,1,0,0:0:0:0:
328,32,140016,2,0,L|396:112,1,80,4|0,0:0|0:0,0:0:0:0:
320,196,140350,2,0,L|260:132,1,80
416,272,140683,6,0,L|340:320,1,80,4|0,0:0|0:0,0:0:0:0:
240,240,141016,1,0,0:0:0:0:
144,344,141183,1,0,0:0:0:0:
48,240,141349,2,0,L|108:168,1,80,4|0,0:0|0:0,0:0:0:0:
16,76,141683,1,0,0:0:0:0:
148,28,141850,6,0,B|208:9|236:102|299:76,1,160
400,24,142349,1,0,0:0:0:0:
344,148,142516,1,0,0:0:0:0:
336,4,142683,1,0,0:0:0:0:
396,196,142850,1,0,0:0:0:0:
464,48,143016,1,0,0:0:0:0:
308,204,143183,1,0,0:0:0:0:
464,304,143349,6,0,L|420:380,1,80,4|0,0:0|0:0,0:0:0:0:
312,320,143683,1,0,0:0:0:0:
180,376,143849,2,0,P|156:344|28:304,1,160,4|0,0:0|0:0,0:0:0:0:
100,68,144516,6,0,B|112:120|112:120|160:160|160:160|180:220,1,160
296,76,145016,1,0,0:0:0:0:
340,224,145183,2,0,L|388:176,2,40
512,152,145516,1,0,0:0:0:0:
504,172,145600,1,0,0:0:0:0:
496,192,145683,1,4,0:0:0:0:
488,212,145766,1,4,0:0:0:0:
480,232,145850,1,4,0:0:0:0:
472,252,145933,1,4,0:0:0:0:
464,272,146016,6,0,L|428:356,1,80,4|0,0:0|0:0,0:0:0:0:
312,280,146350,2,0,L|244:232,1,80
192,368,146683,1,4,0:0:0:0:
64,316,146850,2,0,P|48:280|12:256,1,80
96,88,147183,6,0,P|112:180|164:224,1,160,4|0,0:0|0:0,0:0:0:0:
244,96,147683,1,0,0:0:0:0:
248,104,147850,1,0,0:0:0:0:
384,176,148016,2,0,L|320:232,1,80,4|0,0:0|0:0,0:0:0:0:
468,88,148350,1,0,0:0:0:0:
468,88,148516,1,0,0:0:0:0:
472,232,148683,6,0,P|444:280|444:332,1,80
292,296,149016,1,0,0:0:0:0:
424,376,149183,1,0,0:0:0:0:
284,368,149350,2,0,P|236:360|208:344,1,80,4|0,0:0|0:0,0:0:0:0:
96,168,149850,6,0,P|104:256|72:328,1,160,4|0,0:0|0:0,0:0:0:0:
4,196,150350,1,0,0:0:0:0:
8,200,150516,1,0,0:0:0:0:
100,52,150683,1,4,0:0:0:0:
200,184,150850,1,0,0:0:0:0:
296,36,151016,1,4,0:0:0:0:
300,44,151100,1,0,0:0:0:0:
304,52,151183,1,4,0:0:0:0:
308,60,151266,1,4,0:0:0:0:
312,68,151350,6,0,L|348:140,1,80,4|0,0:0|0:0,0:0:0:0:
412,188,151683,2,0,P|376:216|312:204,1,80
372,300,152016,2,0,P|412:292|456:256,1,80
296,340,152350,2,0,L|384:396,1,80
256,256,152683,1,14,0:0:0:0:
344,156,153516,5,0,0:0:0:0:
200,96,153683,1,2,0:0:0:0:
120,308,154016,5,0,0:0:0:0:
248,380,154183,1,4,0:0:0:0:
236,252,154350,1,2,0:0:0:0:
244,252,154433,1,2,0:0:0:0:
252,252,154516,1,2,0:0:0:0:
368,356,154683,2,0,L|436:272,2,106.666666666667
272,200,155350,5,0,0:0:0:0:
368,132,155516,1,4,0:0:0:0:
248,76,155683,1,2,0:0:0:0:
236,80,155766,1,2,0:0:0:0:
228,84,155850,1,2,0:0:0:0:
144,196,156016,2,0,L|76:112,2,106.666666666667
304,160,156683,5,0,0:0:0:0:
316,172,156766,1,0,0:0:0:0:
328,184,156850,1,4,0:0:0:0:
232,288,157016,1,0,0:0:0:0:
404,288,157183,1,0,0:0:0:0:
412,280,157266,1,0,0:0:0:0:
416,272,157350,2,0,L|484:188,2,106.666666666667,4|0|0,0:0|0:0|0:0,0:0:0:0:
280,96,158016,5,0,0:0:0:0:
276,104,158100,1,0,0:0:0:0:
272,112,158183,2,0,L|256:148,1,40
100,208,158350,2,0,L|136:236,1,40
268,340,158516,2,0,L|296:292,1,40
100,88,167350,6,0,P|164:140|184:172,1,120.000004577637,0|8,0:0|0:0,0:0:0:0:
104,264,167850,2,0,P|148:320|200:336,1,120.000004577637,0|8,0:0|0:0,0:0:0:0:
276,196,168350,1,0,0:0:0:0:
404,344,168683,1,0,0:0:0:0:
408,336,168850,2,0,P|440:280|440:216,1,120.000004577637,0|8,0:0|0:0,0:0:0:0:
300,108,169350,1,0,0:0:0:0:
460,156,169516,1,0,0:0:0:0:
396,8,169683,1,8,0:0:0:0:
64,76,170016,6,0,P|80:116|80:168,1,80,4|0,0:0|0:0,0:0:0:0:
12,244,170350,1,0,0:0:0:0:
152,240,170516,1,0,0:0:0:0:
64,368,170683,2,0,P|104:352|144:348,1,80
224,256,171016,1,0,0:0:0:0:
100,188,171183,1,0,0:0:0:0:
200,112,171350,6,0,L|264:56,1,80,4|0,0:0|0:0,0:0:0:0:
328,160,171683,1,0,0:0:0:0:
408,48,171850,1,0,0:0:0:0:
472,176,172016,2,0,L|428:248,1,80
504,344,172350,1,0,0:0:0:0:
360,344,172516,1,0,0:0:0:0:
280,216,172683,6,0,P|232:248|216:284,1,80,4|0,0:0|0:0,0:0:0:0:
216,272,173016,1,0,0:0:0:0:
104,368,173183,2,0,B|64:304|64:304|76:208,1,160
104,32,173850,6,0,P|148:108|140:180,1,160,14|0,0:0|0:0,0:0:0:0:
252,100,174350,1,0,0:0:0:0:
352,204,174516,1,0,0:0:0:0:
216,240,174683,1,4,0:0:0:0:
360,308,174850,1,0,0:0:0:0:
208,316,175016,1,0,0:0:0:0:
328,384,175183,1,0,0:0:0:0:
168,384,175350,6,0,L|108:328,1,80,4|0,0:0|0:0,0:0:0:0:
68,152,175683,2,0,L|132:220,1,80
208,92,176016,2,0,L|280:56,1,80
392,56,176350,2,0,L|472:112,1,80
460,276,176683,6,0,P|436:312|400:332,1,80,4|0,0:0|0:0,0:0:0:0:
336,272,177016,2,0,P|299:295|258:300,1,80
240,208,177350,2,0,P|197:215|158:203,1,80
188,116,177683,2,0,P|145:106|114:80,1,80
36,180,178016,6,0,L|28:260,1,80,4|0,0:0|0:0,0:0:0:0:
80,384,178350,2,0,L|160:340,1,80
268,320,178683,2,0,P|308:340|332:376,1,80
364,224,179016,1,0,0:0:0:0:
492,264,179183,6,0,B|500:180|500:180|472:96,1,160,4|0,0:0|0:0,0:0:0:0:
356,28,179683,1,0,0:0:0:0:
212,100,179850,2,0,L|252:140,2,40
276,284,180183,1,0,0:0:0:0:
96,240,180350,1,0,0:0:0:0:
92,232,180433,1,0,0:0:0:0:
88,224,180516,1,0,0:0:0:0:
84,216,180600,1,0,0:0:0:0:
80,208,180683,6,0,L|40:132,1,80,4|0,0:0|0:0,0:0:0:0:
180,224,181016,2,0,L|224:304,1,80
76,248,181350,2,0,L|0:304,1,80
148,112,181683,2,0,L|228:60,1,80
360,112,182016,6,0,L|372:204,1,80,4|0,0:0|0:0,0:0:0:0:
264,292,182350,2,0,L|172:240,1,80
380,380,182683,2,0,L|460:336,1,80
460,208,183016,1,0,0:0:0:0:
452,212,183100,1,0,0:0:0:0:
444,216,183183,1,0,0:0:0:0:
412,24,183350,5,2,0:0:0:0:
160,60,183516,1,4,0:0:0:0:
160,60,183683,1,4,0:0:0:0:
292,248,183850,1,2,0:0:0:0:
104,196,184016,1,4,0:0:0:0:
108,200,184183,1,4,0:0:0:0:
184,364,184350,1,2,0:0:0:0:
276,128,184516,1,4,0:0:0:0:
408,216,185350,5,2,0:0:0:0:
304,304,185516,1,4,0:0:0:0:
232,84,185683,1,2,0:0:0:0:
52,52,186016,6,4,L|72:152,1,80
48,288,186350,2,4,L|116:224,1,80
184,340,186683,1,4,0:0:0:0:
304,240,186850,1,4,0:0:0:0:
172,192,187016,1,4,0:0:0:0:
256,320,187183,1,4,0:0:0:0:
440,276,187350,6,4,L|472:184,1,80
492,32,187683,2,4,L|408:64,1,80
336,172,188016,1,4,0:0:0:0:
268,52,188183,1,4,0:0:0:0:
200,168,188350,1,4,0:0:0:0:
128,48,188516,1,4,0:0:0:0:
40,152,188683,6,4,L|48:260,1,80
156,260,189016,1,4,0:0:0:0:
84,376,189183,1,4,0:0:0:0:
232,384,189350,2,4,L|288:312,1,80
428,320,189683,1,4,0:0:0:0:
372,208,189850,1,4,0:0:0:0:
444,68,190016,6,4,P|432:112|404:152,1,80
256,120,190350,2,4,L|276:212,1,80
128,60,190683,1,4,0:0:0:0:
44,224,190850,1,4,0:0:0:0:
180,136,191016,1,4,0:0:0:0:
188,280,191183,1,4,0:0:0:0:
300,184,191350,6,4,L|264:292,1,80
136,348,191683,2,4,L|216:380,1,80
360,368,192016,2,4,L|432:320,1,80
372,176,192350,1,4,0:0:0:0:
488,260,192516,1,4,0:0:0:0:
504,92,192683,6,4,L|472:168,1,80
380,96,193016,2,4,L|348:12,1,80
264,88,193350,2,4,L|236:172,1,80
128,80,193683,1,4,0:0:0:0:
8,32,193850,1,4,0:0:0:0:
32,156,194016,5,4,0:0:0:0:
120,248,194183,1,4,0:0:0:0:
28,336,194350,2,4,P|108:332|192:380,1,160
348,376,194850,1,4,0:0:0:0:
344,236,195183,6,4,P|412:236|464:136,1,160
380,160,195683,1,4,0:0:0:0:
372,60,195850,2,4,L|424:80,2,40
232,124,196183,1,4,0:0:0:0:
120,20,196350,1,4,0:0:0:0:
116,28,196433,1,4,0:0:0:0:
112,36,196516,1,4,0:0:0:0:
108,44,196600,1,4,0:0:0:0:
104,52,196683,6,4,L|68:132,1,80
192,204,197016,2,4,L|116:252,1,80
168,384,197350,2,4,L|204:304,1,80
292,372,197683,2,4,L|372:380,1,80
460,268,198016,6,4,L|368:264,1,80
276,184,198350,2,4,L|368:184,1,80
480,120,198683,2,4,L|388:116,1,80
296,36,199017,2,4,L|388:36,1,80
204,56,199350,6,4,B|136:104|136:104|56:96,1,160
36,216,200016,1,4,0:0:0:0:
44,220,200183,2,4,P|84:296|76:372,1,160
344,280,200850,1,4,0:0:0:0:
436,344,201016,1,4,0:0:0:0:
512,284,201183,1,4,0:0:0:0:
444,200,201350,2,4,L|408:108,1,80
468,8,201683,2,4,L|388:32,1,80
308,120,202016,6,4,L|272:32,1,80
196,48,202350,2,4,L|164:148,1,80
80,192,202683,2,4,L|152:244,1,80
144,320,203016,2,4,L|68:368,1,80
240,352,203350,2,4,P|272:320|312:312,1,80
452,272,203683,2,4,P|432:312|392:332,1,80
352,188,204016,2,4,P|360:148|396:100,1,80
248,160,204350,2,4,P|208:156|160:116,1,80
156,344,204683,5,4,0:0:0:0:
36,188,204850,1,4,0:0:0:0:
36,188,205016,1,4,0:0:0:0:
44,380,205183,1,4,0:0:0:0:
188,244,205350,1,4,0:0:0:0:
192,244,205516,1,4,0:0:0:0:
252,368,205683,1,4,0:0:0:0:
320,96,205850,1,4,0:0:0:0:
432,16,206683,5,0,0:0:0:0:
424,40,206766,1,0,0:0:0:0:
416,64,206850,1,0,0:0:0:0:
408,88,206933,1,0,0:0:0:0:
400,112,207016,1,0,0:0:0:0:
392,136,207100,1,0,0:0:0:0:
384,160,207183,1,0,0:0:0:0:
376,180,207266,1,0,0:0:0:0:
368,204,207350,6,0,L|336:296,1,80,2|4,0:0|0:0,0:0:0:0:
484,280,207683,1,4,0:0:0:0:
408,376,207850,2,0,L|320:380,1,80,2|4,0:0|0:0,0:0:0:0:
244,280,208183,1,4,0:0:0:0:
156,356,208350,1,2,0:0:0:0:
80,216,208516,6,4,P|92:144|152:72,1,160
248,180,209016,1,0,0:0:0:0:
296,24,209183,1,0,0:0:0:0:
356,180,209350,1,0,0:0:0:0:
232,304,209516,1,0,0:0:0:0:
152,200,209683,1,2,0:0:0:0:
156,192,209766,1,2,0:0:0:0:
160,184,209850,1,4,0:0:0:0:
128,316,210016,5,0,0:0:0:0:
20,204,210350,2,0,L|52:48,1,160,14|0,0:0|0:0,0:0:0:0:
224,24,210850,2,0,L|136:64,1,80,2|0,0:0|0:0,0:0:0:0:
244,128,211183,2,0,B|316:92|316:92|420:112,1,160,4|0,0:0|0:0,0:0:0:0:
340,220,211683,1,0,0:0:0:0:
484,232,211850,5,4,0:0:0:0:
488,224,211933,1,4,0:0:0:0:
492,216,212016,1,2,0:0:0:0:
436,368,212183,1,0,0:0:0:0:
284,280,212350,1,0,0:0:0:0:
268,292,212433,1,0,0:0:0:0:
252,304,212516,1,0,0:0:0:0:
236,316,212600,1,0,0:0:0:0:
220,332,212683,6,4,L|156:388,2,80,4|4|2,0:0|0:0|0:0,0:0:0:0:
436,320,213350,2,4,L|352:372,1,80
328,180,213683,1,2,0:0:0:0:
496,96,213850,2,4,P|476:188|428:236,1,160
336,80,214350,1,0,0:0:0:0:
332,84,214517,1,0,0:0:0:0:
176,24,214683,2,4,P|156:60|104:100,1,80
216,220,215017,2,2,P|244:168|276:156,1,80
96,272,215350,6,0,L|172:320,1,80,4|0,0:0|0:0,0:0:0:0:
272,240,215683,1,0,0:0:0:0:
368,344,215850,1,0,0:0:0:0:
464,240,216016,2,0,L|404:168,1,80
496,76,216350,1,0,0:0:0:0:
352,28,216516,6,0,P|304:96|224:120,1,160,4|0,0:0|0:0,0:0:0:0:
152,44,217016,1,0,0:0:0:0:
64,124,217183,1,0,0:0:0:0:
152,204,217350,2,4,L|96:260,1,80
4,244,218016,6,0,P|44:336|96:376,1,160
200,320,218516,1,0,0:0:0:0:
332,376,218683,2,0,P|356:344|484:304,1,160,0|8,0:0|0:0,0:0:0:0:
384,84,219183,6,0,P|364:176|316:224,1,160
216,76,219683,1,0,0:0:0:0:
220,188,219850,1,0,0:0:0:0:
120,208,220017,2,0,L|76:140,1,80
0,212,220350,2,0,P|8:312|64:372,1,160
188,384,220850,1,0,0:0:0:0:
200,236,221017,2,0,L|268:188,1,80
320,368,221350,1,0,0:0:0:0:
448,316,221517,2,0,P|464:280|500:256,1,80
416,88,221850,6,0,P|400:180|348:224,1,160
300,124,222350,1,0,0:0:0:0:
188,124,222517,1,0,0:0:0:0:
108,200,222683,2,0,L|172:256,1,80
124,96,223017,2,0,L|64:44,1,80
40,232,223350,6,0,P|68:280|68:332,1,80
220,296,223683,1,0,0:0:0:0:
88,376,223850,1,0,0:0:0:0:
228,368,224017,2,0,P|276:360|304:344,1,80
448,240,224350,2,0,P|436:284|408:324,1,80
340,240,224683,6,0,L|336:144,1,80
440,48,225016,1,0,0:0:0:0:
304,88,225183,1,0,0:0:0:0:
188,0,225350,2,0,L|88:32,1,80
172,144,225683,1,0,0:0:0:0:
168,152,225766,1,0,0:0:0:0:
164,160,225850,1,0,0:0:0:0:
56,284,226016,6,0,P|96:308|144:312,1,80
256,280,226350,1,0,0:0:0:0:
384,360,226516,2,0,P|388:320|380:280,1,80,0|8,0:0|0:0,0:0:0:0:
232,176,226850,1,8,0:0:0:0:
392,204,227016,1,8,0:0:0:0:
340,68,227183,1,8,0:0:0:0:
272,144,230350,5,0,0:0:0:0:
456,104,230683,2,0,P|448:152|416:188,1,80
496,308,231017,1,0,0:0:0:0:
352,356,231183,6,0,P|272:344|224:264,1,160
84,312,231683,1,0,0:0:0:0:
80,308,231850,1,0,0:0:0:0:
160,184,232017,2,0,L|216:100,1,80
136,24,232350,1,0,0:0:0:0:
132,20,232517,1,0,0:0:0:0:
12,120,232683,6,0,L|56:44,1,80
200,64,233017,1,0,0:0:0:0:
296,8,233183,2,0,B|340:40|340:40|392:52|392:52|452:92,1,160
328,204,233683,1,0,0:0:0:0:
496,288,233850,2,0,P|476:196|428:148,1,160
336,304,234350,1,0,0:0:0:0:
332,300,234517,1,0,0:0:0:0:
176,360,234683,2,0,P|156:324|104:284,1,80
220,208,235016,1,0,0:0:0:0:
220,208,235183,1,0,0:0:0:0:
96,112,235350,6,0,L|172:64,1,80
272,144,235683,1,0,0:0:0:0:
368,40,235850,1,0,0:0:0:0:
464,144,236016,2,0,L|404:216,1,80
496,308,236350,1,0,0:0:0:0:
352,356,236516,6,0,P|304:288|224:264,1,160
164,352,237016,1,0,0:0:0:0:
52,352,237183,1,0,0:0:0:0:
196,220,237350,2,0,L|140:164,1,80
52,272,237683,1,0,0:0:0:0:
52,160,237850,1,0,0:0:0:0:
68,76,238016,6,0,L|156:36,1,80
156,36,238266,1,0,0:0:0:0:
168,32,238350,1,0,0:0:0:0:
332,8,238516,2,0,P|356:40|484:80,1,160
384,300,239183,6,0,P|364:208|316:160,1,160
220,300,239683,1,0,0:0:0:0:
196,92,239850,1,0,0:0:0:0:
168,132,239933,1,0,0:0:0:0:
144,168,240017,2,0,L|100:236,1,80
40,140,240350,1,0,0:0:0:0:
44,132,240433,1,0,0:0:0:0:
48,124,240517,1,0,0:0:0:0:
52,116,240600,1,0,0:0:0:0:
56,108,240683,6,0,L|104:36,1,80,4|0,0:0|0:0,0:0:0:0:
200,104,241017,2,0,L|268:152,1,80
320,16,241350,1,0,0:0:0:0:
448,68,241517,2,0,P|464:104|500:128,1,80
416,296,241850,6,0,L|332:152,1,160,4|0,0:0|0:0,0:0:0:0:
268,288,242350,1,0,0:0:0:0:
192,208,242517,1,0,0:0:0:0:
131,260,242683,2,0,L|195:204,1,80,4|0,0:0|0:0,0:0:0:0:
160,344,243016,1,0,0:0:0:0:
12,288,243183,1,0,0:0:0:0:
40,152,243350,6,0,P|68:104|68:52,1,80,4|0,0:0|0:0,0:0:0:0:
220,88,243683,1,0,0:0:0:0:
88,8,243850,1,0,0:0:0:0:
228,16,244017,2,0,P|276:24|304:40,1,80
416,216,244517,6,0,P|408:128|440:56,1,160,4|0,0:0|0:0,0:0:0:0:
508,188,245017,1,0,0:0:0:0:
504,184,245183,1,0,0:0:0:0:
412,332,245350,1,4,0:0:0:0:
312,200,245517,1,0,0:0:0:0:
264,384,245683,1,4,0:0:0:0:
244,368,245767,1,0,0:0:0:0:
224,344,245850,1,0,0:0:0:0:
204,324,245933,1,0,0:0:0:0:
184,300,246017,6,0,L|124:228,1,80,4|0,0:0|0:0,0:0:0:0:
56,120,246350,2,0,P|84:80|132:64,1,80
196,164,246683,2,0,P|252:144|272:116,1,80
384,204,247016,2,0,P|364:248|328:280,1,80
316,60,247350,1,4,0:0:0:0:
256,192,248683,12,0,251016,0:0:0:0:
440,188,251350,6,0,P|404:184|364:148,1,80
232,96,251683,2,0,P|200:140|196:180,1,80
280,300,252016,1,0,0:0:0:0:
404,248,252183,1,0,0:0:0:0:
288,172,252350,1,0,0:0:0:0:
112,260,252516,6,0,P|112:192|168:120,1,160,4|0,0:0|0:0,0:0:0:0:
24,16,253016,1,0,0:0:0:0:
40,164,253183,1,0,0:0:0:0:
180,48,253350,1,0,0:0:0:0:
196,184,253516,1,0,0:0:0:0:
328,200,253683,1,0,0:0:0:0:
309,69,253850,1,0,0:0:0:0:
472,180,254016,6,0,B|444:104|444:104|356:48,1,160,4|0,0:0|0:0,0:0:0:0:
296,244,254516,2,0,B|336:296|336:296|364:300|364:300|416:364,1,160
468,192,255016,1,0,0:0:0:0:
300,136,255183,2,0,P|224:148|156:104,1,160
48,12,255683,2,0,L|16:120,1,80,4|0,0:0|0:0,0:0:0:0:
104,232,256016,1,2,0:0:0:0:
404,372,256350,6,0,L|444:284,1,80
292,320,256683,2,0,L|260:156,1,160,4|0,0:0|0:0,0:0:0:0:
388,208,257183,1,0,0:0:0:0:
484,124,257350,1,0,0:0:0:0:
484,124,257516,1,0,0:0:0:0:
396,24,257683,1,0,0:0:0:0:
256,24,257850,6,0,P|176:36|112:100,1,160,4|0,0:0|0:0,0:0:0:0:
256,188,258350,2,0,L|212:88,1,80
136,216,258683,1,0,0:0:0:0:
132,328,258850,1,0,0:0:0:0:
284,328,259016,1,0,0:0:0:0:
284,216,259183,1,0,0:0:0:0:
428,184,259350,6,0,P|468:112|456:32,1,160,4|0,0:0|0:0,0:0:0:0:
312,108,259850,1,2,0:0:0:0:
72,72,260183,2,0,L|48:160,1,80,4|0,0:0|0:0,0:0:0:0:
64,356,260516,6,2,B|128:304|128:304|216:296,1,160,6|2,0:0|0:0,0:0:0:0:
292,176,261016,1,2,0:0:0:0:
372,312,261183,1,4,0:0:0:0:
440,192,261350,1,2,0:0:0:0:
292,104,261516,1,2,0:0:0:0:
136,156,261683,1,2,0:0:0:0:
128,148,261766,1,2,0:0:0:0:
120,140,261850,1,2,0:0:0:0:
112,132,261933,1,2,0:0:0:0:
104,124,262016,6,0,L|48:64,1,80,4|0,0:0|0:0,0:0:0:0:
176,8,262350,2,0,L|260:20,1,80
336,120,262683,1,4,0:0:0:0:
232,200,262850,1,0,0:0:0:0:
304,320,263016,1,0,0:0:0:0:
168,364,263183,6,0,P|104:316|60:248,1,160,4|0,0:0|0:0,0:0:0:0:
188,136,263683,1,0,0:0:0:0:
336,208,263850,1,0,0:0:0:0:
188,244,264016,1,4,0:0:0:0:
356,272,264183,1,0,0:0:0:0:
204,308,264350,1,0,0:0:0:0:
404,224,264516,1,0,0:0:0:0:
360,384,264683,6,0,L|444:372,1,80,4|0,0:0|0:0,0:0:0:0:
492,240,265016,2,0,L|444:156,1,80
504,48,265350,1,0,0:0:0:0:
344,8,265516,2,0,P|304:12|264:44,1,80
176,112,265850,6,0,P|108:88|32:132,1,160,4|0,0:0|0:0,0:0:0:0:
116,240,266350,2,0,P|156:264|204:256,1,80
324,176,266683,1,4,0:0:0:0:
440,176,266850,1,0,0:0:0:0:
328,304,267016,1,0,0:0:0:0:
444,304,267183,1,0,0:0:0:0:
264,264,267350,2,0,B|240:216|240:216|204:184|204:184|168:116,1,160
264,68,267850,2,0,P|308:48|336:20,1,80
120,92,268183,2,0,P|84:140|68:252,1,160,4|4,0:0|0:0,0:0:0:0:
64,244,268683,1,4,0:0:0:0:
160,128,270016,5,2,0:0:0:0:
232,236,270183,1,4,0:0:0:0:
96,260,270350,1,4,0:0:0:0:
100,268,270433,1,4,0:0:0:0:
104,276,270516,1,4,0:0:0:0:
184,384,270683,2,2,L|284:332,2,106.666666666667
232,240,271350,5,2,0:0:0:0:
344,160,271517,1,4,0:0:0:0:
472,224,271683,1,4,0:0:0:0:
468,232,271767,1,4,0:0:0:0:
464,240,271850,1,4,0:0:0:0:
356,312,272016,2,2,L|450:361,2,106.666666666667
256,192,273016,12,0,275850,0:0:0:0:
