osu file format v14

[General]
AudioFilename: audio.mp3
AudioLeadIn: 0
PreviewTime: 66247
Countdown: 0
SampleSet: Soft
StackLeniency: 0.4
Mode: 0
LetterboxInBreaks: 0
WidescreenStoryboard: 1

[Editor]
DistanceSpacing: 1
BeatDivisor: 4
GridSize: 4
TimelineZoom: 2.5

[Metadata]
Title:Dreaming!
TitleUnicode:Dreaming!
Artist:Yamazaki Haruka, Tadokoro Azusa, Machico
ArtistUnicode:山崎はるか、田所あずさ、Machico
Creator:[Karcher]
Version:Normal
Source:アイドルマスター ミリオンライブ!
Tags:idolm@ster the idolmaster million live im@s imas mogami shizuka ibuki tsubasa mirai kasuga japanese anime video game jpop pop j-pop 最上静香 伊吹翼 春日未来
BeatmapID:2861460
BeatmapSetID:1385110

[Difficulty]
HPDrainRate:3
CircleSize:3
OverallDifficulty:4
ApproachRate:5
SliderMultiplier:1
SliderTickRate:1

[Events]
//Background and Video events
0,0,"1.jpg",0,0
//Break Periods
//Storyboard Layer 0 (Background)
//Storyboard Layer 1 (Fail)
//Storyboard Layer 2 (Pass)
//Storyboard Layer 3 (Foreground)
//Storyboard Layer 4 (Overlay)
//Storyboard Sound Samples

[TimingPoints]
5997,333.333333333333,4,2,1,30,1,0
5997,-100,4,2,1,30,0,0
11330,-100,4,2,1,40,0,0
12663,-100,4,2,1,50,0,0
13996,-100,4,2,1,60,0,0
16496,-100,4,2,1,70,0,0
18330,-100,4,2,1,50,0,0
19330,-100,4,2,1,60,0,0
29996,-100,4,2,1,45,0,0
40663,-100,4,2,1,55,0,0
51330,-100,4,2,1,65,0,0
53996,-100,4,2,1,70,0,0
56663,-100,4,2,1,60,0,0
59330,-100,4,2,1,65,0,0
61996,-100,4,2,1,75,0,0
64496,-100,4,2,1,85,0,0
66830,-100,4,2,1,60,0,0
67330,-90.9090909090909,4,2,1,70,0,1
72663,-90.9090909090909,4,2,1,80,0,1
77996,-90.9090909090909,4,2,1,75,0,1
80663,-90.9090909090909,4,2,1,85,0,1
83330,-90.9090909090909,4,2,1,95,0,1
84663,-100,4,2,1,95,0,0
85330,-100,4,2,1,70,0,0
87330,-100,4,2,1,80,0,0
91830,-100,4,2,1,20,0,0

[Colours]
Combo1 : 169,77,253
Combo2 : 252,126,208

[HitObjects]
33,42,5996,6,0,P|88:12|162:64,1,150,2|2,0:0|0:0,0:0:0:0:
276,213,7163,1,2,0:0:0:0:
240,309,7496,1,2,0:0:0:0:
240,309,7663,2,0,L|121:294,2,100,2|2|2,0:0|0:0|0:0,0:0:0:0:
318,370,8663,6,0,L|419:355,1,100,2|0,0:0|0:0,0:0:0:0:
466,357,9163,2,0,P|431:324|434:218,1,150,2|2,0:0|0:0,0:0:0:0:
459,187,9830,1,2,0:0:0:0:
459,187,9996,2,0,L|446:86,2,100,2|2|2,0:0|0:0|0:0,0:0:0:0:
361,164,10996,6,0,L|298:168,1,50,2|2,0:0|0:0,0:0:0:0:
260,170,11330,1,2,0:0:0:0:
181,108,11663,1,2,0:0:0:0:
97,163,11996,1,2,0:0:0:0:
124,259,12330,1,2,0:0:0:0:
224,264,12663,1,2,1:2:0:0:
224,264,13996,6,0,B|272:250|272:250|328:256,1,100,14|2,0:0|1:2,0:0:0:0:
347,298,14496,2,0,L|348:366,2,50,2|2|2,1:2|1:2|1:2,0:0:0:0:
396,289,14996,1,14,0:0:0:0:
476,227,15330,1,2,1:2:0:0:
476,227,15496,2,0,L|461:118,1,100,14|14,0:0|0:0,0:0:0:0:
456,78,15996,1,10,0:0:0:0:
380,19,16330,1,10,0:0:0:0:
380,19,16496,6,0,L|273:32,1,100,10|10,0:0|0:0,0:0:0:0:
231,42,16996,1,2,1:2:0:0:
136,67,17330,2,0,L|141:10,2,50,14|2|2,0:0|1:2|1:2,0:0:0:0:
108,109,17830,1,14,0:0:0:0:
108,109,19330,5,6,1:2:0:0:
185,45,19663,2,0,P|207:87|198:146,1,100,10|0,0:0|1:2,0:0:0:0:
183,184,20163,2,0,L|177:249,1,50,0|8,1:2|0:0,0:0:0:0:
181,283,20496,1,2,1:2:0:0:
279,301,20830,2,0,L|273:239,2,50,2|10|2,1:2|0:0|0:0,0:0:0:0:
298,347,21330,2,0,P|338:363|404:351,1,100,2|10,1:2|0:0,0:0:0:0:
481,309,21996,5,2,1:2:0:0:
500,210,22330,2,0,B|491:156|491:156|437:166,1,100,10|0,0:0|1:2,0:0:0:0:
397,173,22830,2,0,L|342:171,1,50,0|10,1:2|0:0,0:0:0:0:
297,161,23163,1,2,1:2:0:0:
199,182,23496,2,0,L|204:117,2,50,0|8|0,1:2|0:0|1:2,0:0:0:0:
199,232,23996,1,8,0:0:0:0:
120,293,24330,2,0,L|69:291,1,50,10|2,0:0|0:0,0:0:0:0:
19,292,24663,5,6,1:2:0:0:
54,198,24996,2,0,L|44:96,1,100,10|0,0:0|1:2,0:0:0:0:
36,49,25496,2,0,L|92:44,1,50,0|8,1:2|0:0,0:0:0:0:
136,40,25830,1,2,1:2:0:0:
233,61,26163,2,0,L|238:123,1,50,2|10,1:2|0:0,0:0:0:0:
243,160,26496,1,2,1:2:0:0:
243,160,26663,2,0,B|296:150|296:150|351:165,1,100,2|10,1:2|0:0,0:0:0:0:
411,232,27330,5,10,0:0:0:0:
411,232,27496,1,10,0:0:0:0:
501,188,27830,2,0,L|487:83,1,100,6|2,1:2|0:0,0:0:0:0:
479,39,28330,2,0,L|419:49,1,50,10|2,0:0|0:0,0:0:0:0:
382,63,28663,1,6,1:2:0:0:
284,42,28996,1,10,0:0:0:0:
284,42,29163,2,0,P|211:36|184:107,1,150,6|0,1:2|0:0,0:0:0:0:
166,196,29996,6,0,L|176:305,1,100,2|0,1:2|1:2,0:0:0:0:
224,382,30663,2,0,P|263:341|269:294,1,100,0|2,1:2|1:2,0:0:0:0:
275,249,31163,1,2,0:0:0:0:
275,249,31330,2,0,L|385:261,1,100,2|2,1:2|1:2,0:0:0:0:
423,268,31830,1,2,0:0:0:0:
498,202,32163,1,2,0:0:0:0:
475,104,32496,1,2,0:0:0:0:
475,104,32663,6,0,P|433:121|381:106,1,100,0|2,1:2|1:2,0:0:0:0:
305,42,33330,2,0,L|200:54,1,100,2|2,1:2|1:2,0:0:0:0:
156,61,33830,1,2,0:0:0:0:
62,96,34163,2,0,L|56:43,2,50,2|2|2,0:0|1:2|0:0,0:0:0:0:
69,145,34663,2,0,L|61:262,1,100,2|10,1:2|0:0,0:0:0:0:
157,213,35330,6,0,B|211:200|211:200|265:215,1,100,2|0,1:2|1:2,0:0:0:0:
333,272,35996,2,0,L|441:260,1,100,0|2,1:2|1:2,0:0:0:0:
481,253,36496,1,2,0:0:0:0:
481,253,36663,2,0,B|460:211|460:211|476:152,1,100,2|2,1:2|1:2,0:0:0:0:
497,115,37163,1,2,0:0:0:0:
399,94,37496,2,0,L|281:113,1,100,2|0,0:0|0:0,0:0:0:0:
251,121,37996,6,0,L|244:234,1,100,2|2,1:2|1:2,0:0:0:0:
271,322,38663,1,2,1:2:0:0:
271,322,38830,2,0,L|219:316,1,50,2|0,0:0|1:2,0:0:0:0:
171,308,39163,1,10,0:0:0:0:
73,331,39496,2,0,L|77:380,2,50,2|2|2,0:0|1:2|0:0,0:0:0:0:
72,281,39996,1,10,0:0:0:0:
67,180,40330,1,10,0:0:0:0:
60,80,40663,5,6,1:2:0:0:
151,118,40996,2,0,B|200:106|200:106|257:119,1,100,10|0,0:0|1:2,0:0:0:0:
295,132,41496,1,0,1:2:0:0:
295,132,41663,1,10,0:0:0:0:
328,225,41996,2,0,P|377:195|393:145,1,100,2|10,1:2|0:0,0:0:0:0:
405,108,42496,2,0,L|394:53,1,50,2|0,1:2|0:0,0:0:0:0:
372,13,42830,1,2,1:2:0:0:
272,11,43163,6,0,B|223:-2|223:-2|176:14,1,100,2|0,1:2|1:2,0:0:0:0:
128,27,43663,1,8,0:0:0:0:
62,102,43996,2,0,L|61:164,1,50,0|0,1:2|1:2,0:0:0:0:
63,202,44330,1,8,0:0:0:0:
148,254,44663,2,0,P|197:266|247:246,1,100,2|10,1:2|0:0,0:0:0:0:
281,218,45163,1,6,1:2:0:0:
376,246,45496,2,0,L|379:310,2,50,2|8|0,1:2|0:0|0:0,0:0:0:0:
379,196,45996,6,0,L|504:212,2,100,6|10|2,1:2|0:0|1:2,0:0:0:0:
297,137,46996,2,0,L|222:140,1,50,10|2,0:0|0:0,0:0:0:0:
196,137,47330,2,0,B|146:126|146:126|95:139,1,100,2|10,1:2|0:0,0:0:0:0:
54,162,47830,1,2,1:2:0:0:
7,250,48163,2,0,B|16:351,1,100,2|0,1:2|0:0,0:0:0:0:
62,367,48663,5,2,1:2:0:0:
149,319,48996,1,10,0:0:0:0:
248,333,49330,1,2,0:0:0:0:
248,333,49496,2,0,L|306:342,1,50,2|10,1:2|0:0,0:0:0:0:
342,363,49830,5,6,1:2:0:0:
479,154,50663,2,0,L|467:255,1,100,2|10,0:0|0:0,0:0:0:0:
460,306,51163,1,2,0:0:0:0:
460,306,51330,6,0,P|406:323|351:305,1,100,6|8,1:2|0:0,0:0:0:0:
291,245,51996,2,0,L|171:256,1,100,2|8,0:0|0:0,0:0:0:0:
145,264,52496,1,0,0:0:0:0:
145,264,52663,2,0,P|120:313|127:364,1,100,2|8,1:2|0:0,0:0:0:0:
222,376,53330,2,0,L|275:382,2,50,2|2|10,0:0|1:2|0:0,0:0:0:0:
248,279,53996,6,0,L|256:173,1,100,6|8,1:2|0:0,0:0:0:0:
190,102,54663,2,0,B|142:91|142:91|93:102,1,100,2|8,0:0|0:0,0:0:0:0:
55,134,55163,1,0,1:2:0:0:
55,134,55330,2,0,L|46:242,1,100,2|10,1:2|0:0,0:0:0:0:
27,332,55996,2,0,L|83:336,1,50,2|2,0:0|1:2,0:0:0:0:
127,339,56330,1,14,0:0:0:0:
199,268,56663,6,0,L|312:281,1,100,14|2,0:0|1:2,0:0:0:0:
348,284,57163,1,10,0:0:0:0:
436,341,57496,1,2,1:2:0:0:
436,341,57663,2,0,P|450:287|434:242,1,100,14|0,0:0|0:0,0:0:0:0:
414,201,58163,2,0,L|417:142,2,50,0|12|0,1:2|0:0|0:0,0:0:0:0:
365,215,58663,1,0,1:2:0:0:
278,164,58996,1,12,0:0:0:0:
204,230,59330,6,0,L|76:223,1,100,14|2,0:0|1:2,0:0:0:0:
54,221,59830,2,0,P|81:174|71:132,1,100,10|2,0:0|1:2,0:0:0:0:
52,85,60330,1,10,0:0:0:0:
52,85,60496,2,0,L|163:78,1,100,14|0,0:0|1:2,0:0:0:0:
201,78,60996,1,12,0:0:0:0:
281,17,61330,2,0,L|330:27,1,50,2|0,1:2|1:2,0:0:0:0:
380,30,61663,2,0,L|435:24,1,50,10|8,0:0|0:0,0:0:0:0:
478,15,61996,5,14,0:0:0:0:
466,114,62330,2,0,L|462:182,1,50,10|0,0:0|1:2,0:0:0:0:
461,213,62663,1,10,0:0:0:0:
455,312,62996,2,0,L|394:314,1,50,10|2,0:0|1:2,0:0:0:0:
354,315,63330,2,0,B|304:305|304:305|252:323,2,100,8|8|10,0:0|0:0|0:0,0:0:0:0:
380,357,64163,1,2,1:2:0:0:
448,284,64496,6,0,L|434:174,1,100,10|0,0:0|1:2,0:0:0:0:
428,135,64996,1,10,0:0:0:0:
408,36,65330,2,0,L|351:40,1,50,10|2,0:0|1:2,0:0:0:0:
314,63,65663,1,10,0:0:0:0:
314,63,65830,1,14,0:0:0:0:
391,186,66830,6,0,L|382:132,1,50,0|10,1:2|0:0,0:0:0:0:
314,63,67330,6,0,L|198:57,1,110.000003356934,6|8,1:2|0:0,0:0:0:0:
154,53,67830,1,2,0:0:0:0:
154,53,67996,1,0,1:2:0:0:
66,118,68330,1,8,0:0:0:0:
66,118,68496,2,0,B|46:169|46:169|53:230,1,110.000003356934,2|2,0:0|0:0,0:0:0:0:
73,274,68996,2,0,L|130:275,1,55.0000016784668,10|2,0:0|0:0,0:0:0:0:
182,282,69330,1,2,1:2:0:0:
289,258,69663,1,10,0:0:0:0:
229,165,69996,6,0,B|239:112|239:112|295:122,1,110.000003356934,2|8,1:2|0:0,0:0:0:0:
342,132,70496,1,2,0:0:0:0:
342,132,70663,1,0,1:2:0:0:
444,91,70996,2,0,L|439:146,1,55.0000016784668,10|2,0:0|0:0,0:0:0:0:
424,193,71330,2,0,L|418:320,1,110.000003356934,2|8,1:2|0:0,0:0:0:0:
449,348,71830,2,0,B|417:325|417:325|345:338,1,110.000003356934,2|0,1:2|1:2,0:0:0:0:
293,347,72330,1,14,0:0:0:0:
183,349,72663,6,0,P|128:351|91:305,1,110.000003356934,6|8,1:2|0:0,0:0:0:0:
87,263,73163,1,2,0:0:0:0:
115,157,73496,2,0,L|112:94,1,55.0000016784668,0|8,0:0|0:0,0:0:0:0:
101,53,73830,2,0,B|131:35|131:35|216:54,1,110.000003356934,2|2,0:0|0:0,0:0:0:0:
251,68,74330,1,10,0:0:0:0:
349,68,74663,2,0,L|407:67,1,55.0000016784668,2|0,1:2|0:0,0:0:0:0:
447,66,74996,1,10,0:0:0:0:
500,149,75330,6,0,B|522:200|522:200|505:254,1,110.000003356934,2|10,1:2|0:0,0:0:0:0:
479,302,75830,1,2,0:0:0:0:
479,302,75996,1,0,1:2:0:0:
391,234,76330,1,8,0:0:0:0:
391,234,76496,2,0,P|334:230|299:185,1,110.000003356934,6|0,1:2|1:2,0:0:0:0:
293,137,76996,2,0,L|230:143,1,55.0000016784668,8|0,0:0|1:2,0:0:0:0:
189,150,77330,1,0,1:2:0:0:
92,98,77663,2,0,L|90:154,1,55.0000016784668,8|10,0:0|0:0,0:0:0:0:
74,205,77996,6,0,B|58:257|58:257|71:313,1,110.000003356934,6|10,1:2|0:0,0:0:0:0:
121,345,78496,1,2,0:0:0:0:
121,345,78663,2,0,L|187:340,1,55.0000016784668,2|2,1:2|0:0,0:0:0:0:
224,241,79163,2,0,B|276:222|276:222|328:237,1,110.000003356934,2|0,0:0|0:0,0:0:0:0:
379,259,79663,1,10,0:0:0:0:
487,278,79996,2,0,L|483:216,1,55.0000016784668,2|2,1:2|0:0,0:0:0:0:
481,173,80330,1,14,0:0:0:0:
498,80,80663,6,0,P|443:59|392:71,1,110.000003356934,6|10,1:2|0:0,0:0:0:0:
351,103,81163,1,2,0:0:0:0:
351,103,81330,1,2,1:2:0:0:
404,205,81663,1,8,0:0:0:0:
404,205,81830,2,0,P|371:240|304:227,1,110.000003356934,2|0,1:2|0:0,0:0:0:0:
258,238,82330,2,0,L|186:244,1,55.0000016784668,10|2,0:0|1:2,0:0:0:0:
149,254,82663,1,2,1:2:0:0:
42,281,82996,2,0,L|47:223,1,55.0000016784668,14|10,0:0|0:0,0:0:0:0:
52,171,83330,5,14,0:0:0:0:
61,73,83663,1,10,0:0:0:0:
156,52,83996,1,14,0:0:0:0:
205,136,84330,1,10,0:0:0:0:
142,209,84663,1,14,0:0:0:0:
8,66,85996,6,0,L|173:48,1,150,6|2,1:2|1:2,0:0:0:0:
184,91,86663,2,0,L|175:174,2,75,10|2|10,0:0|1:2|0:0,0:0:0:0:
231,76,87330,1,6,1:2:0:0:
312,134,87663,2,0,L|370:125,1,50,10|2,0:0|1:2,0:0:0:0:
410,115,87996,2,0,L|418:23,2,75,10|2|10,0:0|1:2|0:0,0:0:0:0:
256,192,88996,12,2,91830,0:0:0:0:
