osu file format v14

[General]
AudioFilename: audio.mp3
AudioLeadIn: 0
PreviewTime: 66247
Countdown: 0
SampleSet: Soft
StackLeniency: 0.4
Mode: 0
LetterboxInBreaks: 0
WidescreenStoryboard: 1

[Editor]
DistanceSpacing: 1
BeatDivisor: 4
GridSize: 4
TimelineZoom: 2.5

[Metadata]
Title:Dreaming!
TitleUnicode:Dreaming!
Artist:Yamazaki Haruka, Tadokoro Azusa, Machico
ArtistUnicode:山崎はるか、田所あずさ、Machico
Creator:[Karcher]
Version:Hard
Source:アイドルマスター ミリオンライブ!
Tags:idolm@ster the idolmaster million live im@s imas mogami shizuka ibuki tsubasa mirai kasuga japanese anime video game jpop pop j-pop 最上静香 伊吹翼 春日未来
BeatmapID:2861459
BeatmapSetID:1385110

[Difficulty]
HPDrainRate:5
CircleSize:4
OverallDifficulty:6.5
ApproachRate:8
SliderMultiplier:1.4
SliderTickRate:1

[Events]
//Background and Video events
0,0,"1.jpg",0,0
//Break Periods
//Storyboard Layer 0 (Background)
//Storyboard Layer 1 (Fail)
//Storyboard Layer 2 (Pass)
//Storyboard Layer 3 (Foreground)
//Storyboard Layer 4 (Overlay)
//Storyboard Sound Samples

[TimingPoints]
5997,333.333333333333,4,2,1,30,1,0
5997,-166.666666666667,4,2,1,30,0,0
10996,-111.111111111111,4,2,1,30,0,0
11330,-111.111111111111,4,2,1,40,0,0
12663,-111.111111111111,4,2,1,50,0,0
13996,-100,4,2,1,60,0,0
16496,-100,4,2,1,70,0,0
18330,-100,4,2,1,50,0,0
19330,-100,4,2,1,60,0,0
29163,-125,4,2,1,60,0,0
29830,-125,4,2,1,5,0,0
29996,-125,4,2,1,45,0,0
35330,-111.111111111111,4,2,1,45,0,0
39913,-111.111111111111,4,2,1,5,0,0
39996,-111.111111111111,4,2,1,45,0,0
40663,-100,4,2,1,55,0,0
51330,-90.9090909090909,4,2,1,65,0,0
53996,-90.9090909090909,4,2,1,70,0,0
56663,-90.9090909090909,4,2,1,60,0,0
59330,-90.9090909090909,4,2,1,65,0,0
61996,-83.3333333333333,4,2,1,75,0,0
64496,-83.3333333333333,4,2,1,85,0,0
66830,-83.3333333333333,4,2,1,60,0,0
67246,-83.3333333333333,4,2,1,5,0,0
67330,-90.9090909090909,4,2,1,70,0,1
72663,-83.3333333333333,4,2,1,80,0,1
77996,-83.3333333333333,4,2,1,75,0,1
80663,-83.3333333333333,4,2,1,85,0,1
83330,-83.3333333333333,4,2,1,95,0,1
84663,-111.111111111111,4,2,1,95,0,0
85330,-111.111111111111,4,2,1,70,0,0
85913,-111.111111111111,4,2,1,5,0,0
85996,-111.111111111111,4,2,1,70,0,0
87330,-90.9090909090909,4,2,1,80,0,0
91830,-90.9090909090909,4,2,1,20,0,0

[Colours]
Combo1 : 169,77,253
Combo2 : 252,126,208

[HitObjects]
415,284,5997,6,0,B|368:283|368:283|336:303|292:289,1,125.999996154785,2|2,0:0|0:0,0:0:0:0:
81,265,7163,6,0,P|128:253|174:270,1,83.9999974365235,2|2,0:0|0:0,0:0:0:0:
214,321,7663,1,2,0:0:0:0:
214,321,7830,1,2,0:0:0:0:
235,244,7996,2,0,L|230:146,1,83.9999974365235,2|2,0:0|0:0,0:0:0:0:
107,58,8663,6,0,B|148:49|148:49|191:60,1,83.9999974365235,2|0,0:0|0:0,0:0:0:0:
267,70,9163,2,0,L|369:66,1,83.9999974365235,2|0,0:0|0:0,0:0:0:0:
429,54,9663,2,0,L|425:95,1,41.9999987182618,2|2,0:0|0:0,0:0:0:0:
363,147,9996,2,0,L|372:242,2,83.9999974365235,2|2|2,0:0|0:0|0:0,0:0:0:0:
486,248,10996,5,2,0:0:0:0:
444,319,11163,1,2,0:0:0:0:
364,338,11330,2,0,L|284:341,1,62.9999980773926,2|0,0:0|0:0,0:0:0:0:
227,376,11663,2,0,P|219:341|229:306,1,62.9999980773926,2|0,0:0|0:0,0:0:0:0:
289,264,11996,2,0,P|297:229|287:194,1,62.9999980773926,2|0,0:0|0:0,0:0:0:0:
224,155,12330,2,0,P|216:120|226:85,1,62.9999980773926,2|0,0:0|0:0,0:0:0:0:
277,33,12663,5,2,1:2:0:0:
277,33,13996,6,0,L|201:42,1,70,14|2,0:0|1:2,0:0:0:0:
132,81,14330,1,2,1:2:0:0:
132,81,14496,2,0,L|62:70,2,70,2|2|2,1:2|1:2|1:2,0:0:0:0:
200,130,14996,6,0,L|196:213,1,70,14|2,0:0|1:2,0:0:0:0:
162,277,15330,1,2,1:2:0:0:
162,277,15496,2,0,B|196:288|196:288|234:278,1,70,14|2,0:0|1:2,0:0:0:0:
299,232,15830,1,14,0:0:0:0:
382,241,15996,1,10,0:0:0:0:
382,241,16080,1,2,1:2:0:0:
382,241,16163,2,0,L|385:287,3,35,2|2|10|10,1:2|1:2|0:0|0:0,0:0:0:0:
386,317,16496,6,0,B|431:288|431:288|461:327|513:319,1,140,10|10,0:0|0:0,0:0:0:0:
500,235,16996,2,0,L|490:155,1,70,2|2,1:2|1:2,0:0:0:0:
478,81,17330,1,14,0:0:0:0:
414,135,17496,1,2,1:2:0:0:
414,135,17580,1,0,1:2:0:0:
414,135,17663,1,2,1:2:0:0:
335,105,17830,1,14,0:0:0:0:
71,27,18830,5,0,1:2:0:0:
71,27,18913,1,0,1:2:0:0:
71,27,18996,2,0,L|80:98,1,70,10|0,0:0|0:0,0:0:0:0:
67,205,19330,6,0,B|156:187|112:233|211:212,1,140,6|10,1:2|0:0,0:0:0:0:
245,140,19830,2,0,B|291:113|291:113|373:145,1,140,2|0,1:2|1:2,0:0:0:0:
445,184,20330,1,8,0:0:0:0:
440,267,20496,6,0,B|355:244|393:293|293:268,1,140,2|2,1:2|1:2,0:0:0:0:
231,239,20996,1,10,0:0:0:0:
231,239,21163,1,2,0:0:0:0:
165,292,21330,2,0,L|85:298,1,70,2|2,1:2|1:2,0:0:0:0:
26,248,21663,1,10,0:0:0:0:
26,248,21830,1,2,0:0:0:0:
26,164,21996,6,0,B|68:135|68:135|159:160,1,140,2|10,1:2|0:0,0:0:0:0:
234,183,22496,2,0,P|190:152|220:72,1,140,2|0,0:0|1:2,0:0:0:0:
282,35,22996,1,10,0:0:0:0:
344,91,23163,6,0,B|431:65|390:120|482:90,1,140,2|0,1:2|1:2,0:0:0:0:
509,169,23663,1,8,0:0:0:0:
475,246,23830,1,0,1:2:0:0:
475,246,23913,1,0,1:2:0:0:
475,246,23996,2,0,L|401:240,1,70,8|0,0:0|1:2,0:0:0:0:
322,222,24330,1,10,0:0:0:0:
289,144,24496,1,2,0:0:0:0:
332,71,24663,6,0,B|287:45|287:45|201:75,1,140,6|10,1:2|0:0,0:0:0:0:
141,130,25163,2,0,L|157:271,1,140,2|0,1:2|1:2,0:0:0:0:
131,349,25663,1,8,0:0:0:0:
214,336,25830,6,0,B|268:333|268:333|285:309|285:309|341:306,1,140,2|2,1:2|1:2,0:0:0:0:
415,345,26330,1,10,0:0:0:0:
415,345,26496,1,2,1:2:0:0:
489,305,26663,2,0,L|482:223,1,70,2|2,1:2|1:2,0:0:0:0:
476,151,26996,1,10,0:0:0:0:
476,151,27080,1,8,0:0:0:0:
476,151,27163,1,2,1:2:0:0:
401,111,27330,6,0,P|388:146|399:194,1,70,10|10,0:0|0:0,0:0:0:0:
283,307,27830,2,0,B|215:316|215:316|204:241,1,140,6|2,1:2|0:0,0:0:0:0:
186,163,28330,1,10,0:0:0:0:
106,136,28496,1,2,0:0:0:0:
30,172,28663,6,0,L|46:319,1,140,6|10,1:2|0:0,0:0:0:0:
119,349,29163,2,0,B|258:312|177:402|339:355,1,224,6|0,1:2|0:0,0:0:0:0:
416,376,29996,6,0,L|426:258,1,112,2|0,1:2|1:2,0:0:0:0:
498,113,30663,2,0,B|459:91|459:91|390:113,1,112,0|2,1:2|1:2,0:0:0:0:
314,135,31163,1,2,0:0:0:0:
314,135,31330,6,0,P|263:116|199:148,1,112,2|2,1:2|1:2,0:0:0:0:
144,186,31830,2,0,P|127:137|154:79,2,112,2|2|2,0:0|0:0|0:0,0:0:0:0:
227,332,32830,5,2,0:0:0:0:
227,332,32996,2,0,L|293:340,1,56,2|2,1:2|0:0,0:0:0:0:
353,290,33330,2,0,L|350:223,2,56,2|2|2,1:2|0:0|1:2,0:0:0:0:
410,351,33830,2,0,P|459:363|505:312,1,112,2|2,0:0|0:0,0:0:0:0:
505,241,34330,2,0,L|499:180,1,56,2|2,1:2|0:0,0:0:0:0:
425,145,34663,2,0,L|431:84,1,56,2|2,1:2|0:0,0:0:0:0:
499,41,34996,1,10,0:0:0:0:
348,108,35330,6,0,B|299:112|299:112|286:130|286:130|228:136,1,125.999996154785,2|0,1:2|1:2,0:0:0:0:
111,26,35996,2,0,P|173:17|223:57,1,125.999996154785,0|2,1:2|1:2,0:0:0:0:
232,136,36496,1,2,0:0:0:0:
232,136,36663,6,0,L|216:273,1,125.999996154785,2|2,1:2|1:2,0:0:0:0:
172,329,37163,1,2,0:0:0:0:
326,383,37496,2,0,B|346:327|346:327|326:260,1,125.999996154785,2|0,0:0|0:0,0:0:0:0:
292,188,37996,6,0,P|331:181|356:188,1,62.9999980773926,2|0,1:2|0:0,0:0:0:0:
408,248,38330,2,0,L|472:241,1,62.9999980773926,2|0,1:2|0:0,0:0:0:0:
510,169,38663,1,2,1:2:0:0:
510,169,38830,2,0,L|505:102,1,62.9999980773926,2|0,0:0|1:2,0:0:0:0:
497,24,39163,1,10,0:0:0:0:
303,175,39663,6,0,B|287:128|287:128|300:84,1,94.499997116089,2|0,1:2|0:0,0:0:0:0:
329,56,39996,2,0,L|400:66,2,62.9999980773926,10|2|10,0:0|1:2|0:0,0:0:0:0:
132,68,40663,5,6,1:2:0:0:
252,184,40996,2,0,P|224:243|150:246,1,140,10|0,0:0|1:2,0:0:0:0:
74,232,41496,1,0,1:2:0:0:
74,232,41663,2,0,L|68:315,1,70,10|2,0:0|0:0,0:0:0:0:
18,369,41996,6,0,B|63:336|63:336|146:366,1,140,2|10,1:2|0:0,0:0:0:0:
225,378,42496,2,0,L|216:304,1,70,2|0,1:2|0:0,0:0:0:0:
169,238,42830,2,0,L|177:168,1,70,2|8,1:2|0:0,0:0:0:0:
225,99,43163,6,0,B|314:76|278:131|362:105,1,140,2|0,1:2|1:2,0:0:0:0:
416,43,43663,2,0,P|440:83|429:153,1,105,8|8,0:0|0:0,0:0:0:0:
423,179,43996,2,0,L|431:258,1,70,0|0,1:2|1:2,0:0:0:0:
494,303,44330,2,0,L|486:381,1,70,8|0,0:0|0:0,0:0:0:0:
404,353,44663,6,0,B|347:348|347:348|330:369|330:369|268:363,1,140,2|10,1:2|0:0,0:0:0:0:
193,340,45163,1,6,1:2:0:0:
297,209,45496,2,0,L|290:281,2,70,2|8|0,1:2|0:0|0:0,0:0:0:0:
263,131,45996,5,6,1:2:0:0:
379,252,46330,2,0,B|428:265|428:265|479:248,1,105,10|8,0:0|0:0,0:0:0:0:
498,210,46663,2,0,L|493:139,1,70,2|0,1:2|1:2,0:0:0:0:
466,60,46996,1,10,0:0:0:0:
412,124,47163,1,2,0:0:0:0:
382,45,47330,6,0,B|333:26|333:26|245:47,1,140,2|10,1:2|0:0,0:0:0:0:
183,100,47830,2,0,L|99:89,1,70,2|0,1:2|1:2,0:0:0:0:
84,12,48163,2,0,P|39:46|32:124,1,140,2|0,1:2|0:0,0:0:0:0:
72,198,48663,6,0,L|84:272,1,70,2|0,1:2|0:0,0:0:0:0:
167,264,48996,2,0,L|148:151,1,105,10|8,0:0|0:0,0:0:0:0:
140,119,49330,1,2,0:0:0:0:
213,79,49496,2,0,L|286:84,1,70,2|10,1:2|0:0,0:0:0:0:
340,145,49830,5,6,1:2:0:0:
499,91,50163,2,0,L|506:14,2,70,2|2|2,0:0|0:0|0:0,0:0:0:0:
491,174,50663,1,2,0:0:0:0:
491,174,50830,1,2,1:2:0:0:
483,253,50996,2,0,P|465:285|431:297,1,70,10|2,0:0|0:0,0:0:0:0:
362,220,51330,6,0,B|270:199|312:252|211:224,1,154.000004699707,6|8,1:2|0:0,0:0:0:0:
127,222,51830,1,0,0:0:0:0:
64,164,51996,2,0,B|23:142|23:142|46:266,1,154.000004699707,2|8,0:0|0:0,0:0:0:0:
64,334,52496,1,0,0:0:0:0:
64,334,52663,6,0,B|141:315|141:315|212:337,1,154.000004699707,2|8,1:2|0:0,0:0:0:0:
297,368,53163,1,0,1:2:0:0:
297,368,53330,2,0,L|377:357,1,77.0000023498536,2|2,0:0|1:2,0:0:0:0:
437,302,53663,1,10,0:0:0:0:
437,302,53830,1,2,1:2:0:0:
431,217,53996,6,0,B|506:202|506:202|521:278,1,154.000004699707,6|8,1:2|0:0,0:0:0:0:
500,360,54496,1,0,1:2:0:0:
416,377,54663,2,0,B|375:343|375:343|266:377,1,154.000004699707,2|8,0:0|0:0,0:0:0:0:
235,305,55163,1,0,1:2:0:0:
235,305,55330,6,0,L|243:225,1,77.0000023498536,2|2,1:2|1:2,0:0:0:0:
254,147,55663,1,10,0:0:0:0:
254,147,55830,1,2,1:2:0:0:
217,70,55996,2,0,L|133:60,1,77.0000023498536,2|2,0:0|1:2,0:0:0:0:
69,13,56330,2,0,P|53:51|59:88,1,77.0000023498536,14|2,0:0|0:0,0:0:0:0:
31,166,56663,6,0,L|10:331,1,154.000004699707,14|2,0:0|1:2,0:0:0:0:
96,310,57163,2,0,B|145:284|145:284|243:314,1,154.000004699707,10|2,0:0|1:2,0:0:0:0:
317,344,57663,2,0,P|281:303|324:216,1,154.000004699707,14|0,0:0|0:0,0:0:0:0:
396,194,58163,1,0,1:2:0:0:
464,243,58330,5,12,0:0:0:0:
473,159,58496,1,0,0:0:0:0:
473,159,58580,1,8,0:0:0:0:
473,159,58663,2,0,L|466:74,1,77.0000023498536,0|0,1:2|1:2,0:0:0:0:
399,29,58996,2,0,L|353:32,3,38.5000011749268,12|8|8|8,0:0|0:0|0:0|0:0,0:0:0:0:
318,34,59330,6,0,B|267:7|267:7|170:45,1,154.000004699707,14|2,0:0|1:2,0:0:0:0:
100,77,59830,2,0,P|42:53|31:140,1,154.000004699707,10|2,0:0|1:2,0:0:0:0:
84,170,60330,1,10,0:0:0:0:
163,141,60496,6,0,B|255:108|221:168|316:131,1,154.000004699707,14|0,0:0|1:2,0:0:0:0:
382,85,60996,1,12,0:0:0:0:
461,113,61163,1,0,0:0:0:0:
461,113,61246,1,8,0:0:0:0:
461,113,61330,2,0,L|467:198,1,77.0000023498536,2|0,1:2|1:2,0:0:0:0:
473,274,61663,2,0,L|431:278,3,38.5000011749268,10|8|8|8,0:0|0:0|0:0|0:0,0:0:0:0:
392,282,61996,6,0,L|302:274,1,83.9999974365235,14|0,0:0|1:2,0:0:0:0:
233,234,62330,2,0,L|136:243,1,83.9999974365235,10|0,0:0|1:2,0:0:0:0:
77,285,62663,2,0,P|65:241|82:197,1,83.9999974365235,10|0,0:0|1:2,0:0:0:0:
144,156,62996,1,10,0:0:0:0:
133,72,63163,1,2,1:2:0:0:
53,45,63330,6,0,P|47:90|65:124,1,83.9999974365235,8|0,0:0|1:2,0:0:0:0:
144,156,63663,2,0,L|246:168,1,83.9999974365235,8|0,0:0|1:2,0:0:0:0:
311,161,63996,1,10,0:0:0:0:
385,200,64163,2,0,L|396:292,1,83.9999974365235,2|8,1:2|0:0,0:0:0:0:
453,355,64496,6,0,P|478:320|390:289,1,167.999994873047,10|0,0:0|1:2,0:0:0:0:
314,328,64996,2,0,L|230:341,1,83.9999974365235,10|0,0:0|1:2,0:0:0:0:
146,380,65330,5,10,0:0:0:0:
155,288,65496,1,2,1:2:0:0:
101,212,65663,1,10,0:0:0:0:
9,199,65830,1,14,0:0:0:0:
76,88,66830,5,0,1:2:0:0:
76,88,66913,1,0,1:2:0:0:
76,88,66996,2,0,P|28:88|6:161,1,125.999996154785,10|0,0:0|0:0,0:0:0:0:
9,199,67330,6,0,B|101:173|63:227|158:199,1,154.000004699707,6|8,1:2|0:0,0:0:0:0:
222,142,67830,2,0,P|267:113|349:161,1,154.000004699707,2|0,0:0|0:0,0:0:0:0:
380,234,68330,1,8,0:0:0:0:
429,165,68496,6,0,L|420:78,1,77.0000023498536,2|0,0:0|1:2,0:0:0:0:
365,23,68830,1,2,0:0:0:0:
295,70,68996,2,0,L|205:64,1,77.0000023498536,10|2,0:0|0:0,0:0:0:0:
153,9,69330,2,0,P|133:47|138:91,1,77.0000023498536,2|0,1:2|0:0,0:0:0:0:
188,145,69663,2,0,L|174:233,1,77.0000023498536,10|0,0:0|0:0,0:0:0:0:
120,285,69996,6,0,B|164:252|164:252|264:286,1,154.000004699707,2|8,1:2|0:0,0:0:0:0:
336,314,70496,2,0,P|397:307|399:224,1,154.000004699707,2|0,0:0|0:0,0:0:0:0:
372,148,70996,1,10,0:0:0:0:
429,85,71163,1,2,0:0:0:0:
500,131,71330,6,0,B|524:210|524:210|502:282,1,154.000004699707,2|8,1:2|0:0,0:0:0:0:
429,320,71830,1,2,1:2:0:0:
429,320,71913,1,8,0:0:0:0:
429,320,71996,2,0,L|348:330,1,77.0000023498536,0|0,1:2|1:2,0:0:0:0:
271,303,72330,1,14,0:0:0:0:
186,308,72496,1,2,0:0:0:0:
88,373,72663,6,0,P|31:372|7:274,1,167.999994873047,6|8,1:2|0:0,0:0:0:0:
17,187,73163,2,0,B|119:165|75:225|180:197,1,167.999994873047,2|0,0:0|0:0,0:0:0:0:
259,172,73663,1,8,0:0:0:0:
335,138,73830,6,0,P|291:94|194:117,1,167.999994873047,2|2,0:0|0:0,0:0:0:0:
179,197,74330,2,0,L|190:293,1,83.9999974365235,10|0,0:0|0:0,0:0:0:0:
178,364,74663,2,0,P|219:362|253:339,1,83.9999974365235,2|0,1:2|0:0,0:0:0:0:
277,257,74996,2,0,L|368:264,1,83.9999974365235,10|0,0:0|0:0,0:0:0:0:
446,344,75330,6,0,P|410:301|460:206,1,167.999994873047,2|10,1:2|0:0,0:0:0:0:
500,141,75830,2,0,L|489:54,1,83.9999974365235,2|0,0:0|1:2,0:0:0:0:
423,8,76163,1,2,0:0:0:0:
339,18,76330,1,8,0:0:0:0:
278,118,76496,6,0,B|236:154|236:154|128:121,1,167.999994873047,6|0,1:2|1:2,0:0:0:0:
64,66,76996,1,8,0:0:0:0:
8,129,77163,1,0,1:2:0:0:
8,129,77246,1,8,0:0:0:0:
8,129,77330,2,0,L|12:215,1,83.9999974365235,0|2,1:2|1:2,0:0:0:0:
58,294,77663,1,8,0:0:0:0:
58,294,77746,1,8,0:0:0:0:
58,294,77830,1,10,0:0:0:0:
115,191,77996,6,0,L|201:181,1,83.9999974365235,6|2,1:2|0:0,0:0:0:0:
262,236,78330,2,0,L|345:245,1,83.9999974365235,10|2,0:0|0:0,0:0:0:0:
409,300,78663,1,2,1:2:0:0:
422,216,78830,2,0,L|433:125,1,83.9999974365235,2|8,0:0|0:0,0:0:0:0:
449,24,79163,6,0,B|410:59|410:59|290:26,1,167.999994873047,2|0,0:0|0:0,0:0:0:0:
214,30,79663,2,0,L|106:41,1,83.9999974365235,10|0,0:0|0:0,0:0:0:0:
92,113,79996,1,2,1:2:0:0:
128,188,80163,1,2,0:0:0:0:
212,191,80330,2,0,L|296:178,1,83.9999974365235,14|0,0:0|0:0,0:0:0:0:
373,90,80663,6,0,L|379:179,1,83.9999974365235,6|2,1:2|0:0,0:0:0:0:
343,250,80996,2,0,L|348:347,1,83.9999974365235,10|2,0:0|0:0,0:0:0:0:
277,382,81330,1,2,1:2:0:0:
192,381,81496,2,0,L|100:372,1,83.9999974365235,2|8,0:0|0:0,0:0:0:0:
63,252,81830,6,0,B|161:223|122:283|230:248,1,167.999994873047,2|0,1:2|0:0,0:0:0:0:
297,204,82330,1,10,0:0:0:0:
374,254,82496,1,2,1:2:0:0:
374,254,82580,1,8,0:0:0:0:
374,254,82663,2,0,L|384:351,1,83.9999974365235,2|2,1:2|1:2,0:0:0:0:
466,330,82996,2,0,L|461:288,3,41.9999987182618,14|8|10|8,0:0|0:0|0:0|0:0,0:0:0:0:
455,245,83330,5,14,0:0:0:0:
455,245,83663,2,0,L|446:162,1,83.9999974365235,10|0,0:0|1:2,0:0:0:0:
510,107,83996,2,0,P|473:80|433:79,1,83.9999974365235,14|0,0:0|1:2,0:0:0:0:
359,96,84330,1,10,0:0:0:0:
359,96,84413,1,0,1:2:0:0:
359,96,84496,1,0,1:2:0:0:
298,179,84663,1,14,0:0:0:0:
160,37,85496,5,0,1:2:0:0:
160,37,85663,2,0,P|198:12|248:22,1,94.499997116089,10|0,0:0|0:0,0:0:0:0:
280,41,85996,6,0,L|286:105,1,62.9999980773926,6|2,1:2|0:0,0:0:0:0:
332,171,86330,2,0,L|327:241,1,62.9999980773926,10|2,0:0|1:2,0:0:0:0:
287,305,86663,2,0,P|337:319|376:302,2,94.499997116089,10|2|10,0:0|1:2|0:0,0:0:0:0:
241,232,87330,6,0,L|159:243,1,77.0000023498536,6|2,1:2|1:2,0:0:0:0:
95,292,87663,1,10,0:0:0:0:
13,268,87830,1,2,1:2:0:0:
2,184,87996,2,0,L|19:57,2,115.50000352478,10|2|10,0:0|1:2|0:0,0:0:0:0:
256,192,88996,12,2,91830,0:0:0:0:
