osu file format v14

[General]
AudioFilename: audio.mp3
AudioLeadIn: 0
PreviewTime: 66247
Countdown: 0
SampleSet: Soft
StackLeniency: 0.7
Mode: 0
LetterboxInBreaks: 0
WidescreenStoryboard: 0

[Editor]
DistanceSpacing: 1
BeatDivisor: 4
GridSize: 4
TimelineZoom: 2.5

[Metadata]
Title:Dreaming!
TitleUnicode:Dreaming!
Artist:Yamazaki Haruka, Tadokoro Azusa, Machico
ArtistUnicode:山崎はるか、田所あずさ、Machico
Creator:[Karcher]
Version:Future
Source:アイドルマスター ミリオンライブ!
Tags:idolm@ster the idolmaster million live im@s imas mogami shizuka ibuki tsubasa mirai kasuga japanese anime video game jpop pop j-pop 最上静香 伊吹翼 春日未来
BeatmapID:2861458
BeatmapSetID:1385110

[Difficulty]
HPDrainRate:5.5
CircleSize:4
OverallDifficulty:8
ApproachRate:9
SliderMultiplier:1.8
SliderTickRate:1

[Events]
//Background and Video events
0,0,"1.jpg",0,0
//Break Periods
//Storyboard Layer 0 (Background)
//Storyboard Layer 1 (Fail)
//Storyboard Layer 2 (Pass)
//Storyboard Layer 3 (Foreground)
//Storyboard Layer 4 (Overlay)
//Storyboard Sound Samples

[TimingPoints]
5997,333.333333333333,4,2,1,30,1,0
5997,-200,4,2,1,30,0,0
10996,-125,4,2,1,30,0,0
11330,-125,4,2,1,40,0,0
12663,-125,4,2,1,50,0,0
13913,-125,4,2,1,5,0,0
13996,-100,4,2,1,60,0,0
14996,-83.3333333333333,4,2,1,60,0,0
16496,-76.9230769230769,4,2,1,70,0,0
17830,-55.5555555555556,4,2,1,70,0,0
17913,-55.5555555555556,4,2,1,5,0,0
18330,-100,4,2,1,50,0,0
19330,-90.9090909090909,4,2,1,60,0,0
19580,-90.9090909090909,4,2,1,5,0,0
19663,-90.9090909090909,4,2,1,60,0,0
19746,-90.9090909090909,4,2,1,5,0,0
19830,-90.9090909090909,4,2,1,60,0,0
22246,-90.9090909090909,4,2,1,5,0,0
22330,-90.9090909090909,4,2,1,60,0,0
22413,-90.9090909090909,4,2,1,5,0,0
22496,-90.9090909090909,4,2,1,60,0,0
24913,-90.9090909090909,4,2,1,5,0,0
24996,-90.9090909090909,4,2,1,60,0,0
25080,-90.9090909090909,4,2,1,5,0,0
25163,-90.9090909090909,4,2,1,60,0,0
28913,-90.9090909090909,4,2,1,5,0,0
28996,-90.9090909090909,4,2,1,60,0,0
29163,-181.818181818182,4,2,1,60,0,0
29996,-142.857142857143,4,2,1,45,0,0
39913,-142.857142857143,4,2,1,5,0,0
39996,-142.857142857143,4,2,1,45,0,0
40663,-111.111111111111,4,2,1,55,0,0
40913,-111.111111111111,4,2,1,5,0,0
40996,-111.111111111111,4,2,1,55,0,0
46246,-111.111111111111,4,2,1,5,0,0
46330,-111.111111111111,4,2,1,55,0,0
50163,-166.666666666667,4,2,1,55,0,0
51330,-100,4,2,1,65,0,0
56663,-90.9090909090909,4,2,1,60,0,0
57663,-66.6666666666667,4,2,1,60,0,0
58163,-90.9090909090909,4,2,1,60,0,0
59330,-83.3333333333333,4,2,1,65,0,0
60330,-62.5,4,2,1,65,0,0
60996,-83.3333333333333,4,2,1,65,0,0
61996,-76.9230769230769,4,2,1,75,0,0
64496,-76.9230769230769,4,2,1,85,0,0
66830,-166.666666666667,4,2,1,60,0,0
67246,-166.666666666667,4,2,1,5,0,0
67330,-90.9090909090909,4,2,1,70,0,1
72663,-76.9230769230769,4,2,1,80,0,1
76496,-90.9090909090909,4,2,1,80,0,1
77996,-83.3333333333333,4,2,1,75,0,1
80080,-83.3333333333333,4,2,1,5,0,1
80163,-83.3333333333333,4,2,1,75,0,1
80246,-83.3333333333333,4,2,1,5,0,1
80330,-83.3333333333333,4,2,1,75,0,1
80580,-83.3333333333333,4,2,1,5,0,1
80663,-83.3333333333333,4,2,1,80,0,1
83330,-83.3333333333333,4,2,1,85,0,1
84663,-111.111111111111,4,2,1,85,0,0
85330,-111.111111111111,4,2,1,70,0,0
85913,-111.111111111111,4,2,1,5,0,0
85996,-111.111111111111,4,2,1,70,0,0
87330,-90.9090909090909,4,2,1,80,0,0
91830,-90.9090909090909,4,2,1,20,0,0

[Colours]
Combo1 : 169,77,253
Combo2 : 252,126,208

[HitObjects]
37,124,5997,6,0,P|50:67|121:74,1,135,2|2,0:0|0:0,0:0:0:0:
112,264,7163,6,0,L|124:155,1,90,2|2,0:0|0:0,0:0:0:0:
197,115,7663,1,2,0:0:0:0:
197,115,7830,1,2,0:0:0:0:
292,122,7996,2,0,L|285:225,1,90,2|2,0:0|0:0,0:0:0:0:
226,363,8663,6,0,B|207:379|207:379|222:309,1,90,2|0,0:0|0:0,0:0:0:0:
310,329,9163,2,0,L|407:344,1,90,2|0,0:0|0:0,0:0:0:0:
485,384,9663,2,0,L|480:335,1,45,2|2,0:0|0:0,0:0:0:0:
477,259,9996,2,0,L|478:169,2,90,2|2|2,0:0|0:0|0:0,0:0:0:0:
489,88,10996,5,2,0:0:0:0:
388,73,11163,1,2,0:0:0:0:
303,130,11330,2,0,L|232:144,1,72,2|0,0:0|0:0,0:0:0:0:
156,279,11663,2,0,P|186:250|195:217,1,72,2|0,0:0|0:0,0:0:0:0:
76,145,11996,2,0,P|86:185|110:209,1,72,2|0,0:0|0:0,0:0:0:0:
232,143,12330,2,0,P|191:131|158:140,1,72,2|0,0:0|0:0,0:0:0:0:
62,282,12663,5,2,1:2:0:0:
62,282,13663,6,0,B|84:271|111:282|111:282|115:273|115:273|140:282|167:273,1,108,2|0,1:2|0:0,0:0:0:0:
161,275,13996,5,14,0:0:0:0:
282,137,14163,1,2,1:2:0:0:
303,329,14330,1,2,1:2:0:0:
218,207,14496,2,0,L|314:226,2,90,2|2|2,1:2|1:2|1:2,0:0:0:0:
475,142,14996,6,0,L|355:163,2,107.999996704102,14|2|2,0:0|1:2|1:2,0:0:0:0:
306,224,15496,1,14,0:0:0:0:
429,52,15663,1,2,1:2:0:0:
478,267,15830,1,14,0:0:0:0:
315,88,15996,5,10,0:0:0:0:
283,90,16080,1,2,1:2:0:0:
252,92,16163,1,2,1:2:0:0:
221,94,16246,1,2,1:2:0:0:
189,96,16330,2,0,L|127:100,1,53.9999983520508,10|10,0:0|0:0,0:0:0:0:
46,105,16496,6,0,B|-14:73|-14:73|20:241,1,233.999989288331,10|10,0:0|0:0,0:0:0:0:
199,292,16996,1,2,1:2:0:0:
34,337,17163,1,2,1:2:0:0:
214,176,17330,2,0,L|197:300,1,116.999994644165,14|2,0:0|1:2,0:0:0:0:
187,372,17580,1,0,1:2:0:0:
187,372,17663,1,2,1:2:0:0:
100,140,17830,6,0,L|105:59,1,80.9999975280763,14|0,0:0|0:0,0:0:0:0:
44,287,18330,6,0,B|84:246|84:246|199:291,1,180,2|2,0:0|0:0,0:0:0:0:
285,364,18830,1,0,1:2:0:0:
285,364,18913,1,0,1:2:0:0:
285,364,18996,2,0,L|301:264,1,90,10|0,0:0|0:0,0:0:0:0:
460,348,19330,6,0,B|432:373|432:373|451:259,1,148.50000453186,6|0,1:2|0:0,0:0:0:0:
459,187,19663,2,0,L|457:135,1,49.5000015106202,10|0,0:0|0:0,0:0:0:0:
449,60,19830,2,0,P|434:110|310:110,1,198.000006042481,2|0,1:2|1:2,0:0:0:0:
309,109,20330,1,8,0:0:0:0:
152,29,20496,6,0,B|87:16|87:16|126:143,1,198.000006042481,2|2,1:2|1:2,0:0:0:0:
54,313,20996,1,10,0:0:0:0:
113,240,21163,1,2,0:0:0:0:
113,240,21246,1,0,1:2:0:0:
113,240,21330,2,0,L|211:255,1,99.0000030212403,2|2,1:2|1:2,0:0:0:0:
333,285,21663,2,0,L|431:270,1,99.0000030212403,10|2,0:0|0:0,0:0:0:0:
472,117,21996,6,0,P|409:102|397:184,1,148.50000453186,2|0,1:2|0:0,0:0:0:0:
402,247,22330,2,0,L|399:313,1,49.5000015106202,10|0,0:0|0:0,0:0:0:0:
351,360,22496,2,0,B|272:355|272:355|249:386|249:386|162:377,1,198.000006042481,2|0,0:0|1:2,0:0:0:0:
45,286,22996,1,10,0:0:0:0:
178,194,23163,6,0,B|224:156|224:156|207:307,1,198.000006042481,2|0,1:2|1:2,0:0:0:0:
163,84,23663,2,0,P|213:63|260:72,1,99.0000030212403,8|0,0:0|1:2,0:0:0:0:
267,79,23913,1,0,1:2:0:0:
278,88,23996,2,0,L|394:95,1,99.0000030212403,8|0,0:0|1:2,0:0:0:0:
512,199,24330,1,10,0:0:0:0:
356,189,24496,1,2,0:0:0:0:
434,26,24663,6,0,B|462:91|462:91|438:164,1,148.50000453186,6|0,1:2|0:0,0:0:0:0:
422,241,24996,2,0,L|425:296,1,49.5000015106202,10|0,0:0|0:0,0:0:0:0:
447,367,25163,2,0,B|314:382|314:382|362:337,1,198.000006042481,2|0,1:2|1:2,0:0:0:0:
360,338,25663,1,8,0:0:0:0:
238,128,25830,6,0,P|179:129|191:245,1,198.000006042481,2|2,1:2|1:2,0:0:0:0:
366,233,26330,1,10,0:0:0:0:
274,346,26496,1,2,1:2:0:0:
274,346,26580,1,8,0:0:0:0:
274,346,26663,2,0,L|260:244,1,99.0000030212403,2|2,1:2|1:2,0:0:0:0:
314,113,26996,1,10,0:0:0:0:
313,147,27080,1,8,0:0:0:0:
312,181,27163,1,2,1:2:0:0:
195,319,27330,5,10,0:0:0:0:
401,184,27496,1,10,0:0:0:0:
401,184,27830,6,0,B|349:135|349:135|223:182,1,198.000006042481,6|2,1:2|0:0,0:0:0:0:
66,287,28330,1,10,0:0:0:0:
126,118,28496,1,2,0:0:0:0:
211,287,28663,6,0,P|279:324|355:301,1,148.50000453186,6|0,1:2|0:0,0:0:0:0:
344,308,28996,1,10,0:0:0:0:
416,149,29163,6,0,B|370:143|370:143|398:243,1,148.50000453186,6|0,1:2|0:0,0:0:0:0:
512,301,29996,6,0,B|501:173,1,125.999996154785,2|0,1:2|1:2,0:0:0:0:
314,129,30663,2,0,B|347:157|347:157|431:134,1,125.999996154785,0|2,1:2|1:2,0:0:0:0:
426,135,31163,1,2,0:0:0:0:
512,6,31330,6,0,L|365:18,1,125.999996154785,2|2,1:2|1:2,0:0:0:0:
284,55,31830,2,0,B|221:66|221:66|162:48,1,125.999996154785,2|2,0:0|0:0,0:0:0:0:
24,80,32496,1,2,0:0:0:0:
24,80,32663,6,0,L|89:92,1,62.9999980773926,0|2,1:2|0:0,0:0:0:0:
99,170,32996,1,2,1:2:0:0:
99,170,33163,1,2,0:0:0:0:
109,244,33330,2,0,L|119:313,2,62.9999980773926,2|2|2,1:2|0:0|1:2,0:0:0:0:
165,124,33830,6,0,B|197:100|197:100|216:192,1,125.999996154785,2|2,0:0|0:0,0:0:0:0:
325,341,34330,1,2,1:2:0:0:
325,341,34496,1,2,0:0:0:0:
227,269,34663,1,2,1:2:0:0:
227,269,34830,1,2,0:0:0:0:
312,256,34996,2,0,L|386:245,1,62.9999980773926,10|0,0:0|0:0,0:0:0:0:
467,275,35330,6,0,P|426:247|441:167,1,125.999996154785,2|0,1:2|1:2,0:0:0:0:
484,0,35996,2,0,B|504:59|504:59|485:122,1,125.999996154785,0|2,1:2|1:2,0:0:0:0:
430,176,36496,1,2,0:0:0:0:
354,89,36663,6,0,B|320:74|320:74|343:160,1,125.999996154785,2|2,1:2|1:2,0:0:0:0:
430,176,37163,1,2,0:0:0:0:
313,347,37496,2,0,P|359:307|361:246,1,125.999996154785,2|0,0:0|0:0,0:0:0:0:
199,92,37996,6,0,L|136:101,1,62.9999980773926,2|0,1:2|0:0,0:0:0:0:
198,265,38330,2,0,L|261:274,1,62.9999980773926,2|0,1:2|0:0,0:0:0:0:
196,179,38663,2,0,L|133:188,2,62.9999980773926,2|2|0,1:2|0:0|1:2,0:0:0:0:
313,60,39163,5,10,0:0:0:0:
313,60,39663,2,0,L|411:49,1,94.499997116089,2|0,1:2|0:0,0:0:0:0:
426,55,39996,5,10,0:0:0:0:
293,54,40163,1,2,1:2:0:0:
446,61,40330,1,10,0:0:0:0:
389,250,40663,6,0,B|408:192|408:192|391:134,1,121.499996292114,6|0,1:2|0:0,0:0:0:0:
391,134,40996,2,0,L|308:147,1,80.9999975280763,10|0,0:0|1:2,0:0:0:0:
296,160,41246,1,8,0:0:0:0:
281,174,41330,2,0,L|198:187,1,80.9999975280763,0|0,1:2|1:2,0:0:0:0:
310,253,41663,2,0,L|305:333,1,80.9999975280763,10|2,0:0|0:0,0:0:0:0:
202,362,41996,6,0,P|151:367|196:302,1,161.999995056153,2|10,1:2|0:0,0:0:0:0:
310,253,42496,2,0,L|392:263,1,80.9999975280763,2|0,1:2|0:0,0:0:0:0:
478,344,42830,2,0,L|397:353,1,80.9999975280763,2|8,1:2|0:0,0:0:0:0:
310,253,43163,6,0,B|276:212|276:212|306:102,1,161.999995056153,2|0,1:2|1:2,0:0:0:0:
389,0,43663,2,0,L|400:86,1,80.9999975280763,8|0,0:0|1:2,0:0:0:0:
413,95,43913,1,8,0:0:0:0:
427,108,43996,2,0,L|437:200,1,80.9999975280763,0|0,1:2|1:2,0:0:0:0:
289,347,44330,1,8,0:0:0:0:
309,254,44496,1,0,0:0:0:0:
464,332,44663,6,0,L|363:322,1,80.9999975280763,2|0,1:2|1:2,0:0:0:0:
224,275,44996,1,10,0:0:0:0:
394,231,45163,1,6,1:2:0:0:
394,231,45496,5,2,1:2:0:0:
309,254,45663,1,8,0:0:0:0:
224,275,45830,1,0,0:0:0:0:
141,302,45996,6,0,P|115:253|161:211,1,121.499996292114,6|0,1:2|0:0,0:0:0:0:
155,211,46330,2,0,L|144:130,1,80.9999975280763,10|0,0:0|1:2,0:0:0:0:
133,113,46580,1,8,0:0:0:0:
119,97,46663,2,0,L|108:16,1,80.9999975280763,2|0,1:2|1:2,0:0:0:0:
217,124,46996,1,10,0:0:0:0:
60,158,47163,1,2,0:0:0:0:
191,45,47330,6,0,P|243:42|302:131,1,161.999995056153,2|10,1:2|0:0,0:0:0:0:
391,218,47830,2,0,L|398:126,1,80.9999975280763,2|0,1:2|1:2,0:0:0:0:
472,58,48163,2,0,B|506:31|506:31|494:159,1,161.999995056153,2|0,1:2|0:0,0:0:0:0:
427,292,48663,6,0,P|383:301|348:288,1,80.9999975280763,2|0,1:2|0:0,0:0:0:0:
229,215,48996,2,0,L|145:228,1,80.9999975280763,10|0,0:0|1:2,0:0:0:0:
128,240,49246,1,8,0:0:0:0:
107,253,49330,2,0,L|23:266,1,80.9999975280763,2|2,0:0|1:2,0:0:0:0:
79,170,49663,1,10,0:0:0:0:
216,308,49830,5,6,1:2:0:0:
216,308,50163,2,0,L|209:248,2,53.9999983520508,2|2|2,0:0|0:0|0:0,0:0:0:0:
264,366,50663,1,2,0:0:0:0:
339,372,50830,1,2,1:2:0:0:
405,336,50996,1,10,0:0:0:0:
428,263,51163,1,2,0:0:0:0:
364,176,51330,6,0,B|316:152|316:152|349:278,1,180,6|8,1:2|0:0,0:0:0:0:
348,274,51830,1,0,0:0:0:0:
344,69,51996,2,0,P|284:68|224:173,1,180,2|8,0:0|0:0,0:0:0:0:
185,326,52496,1,0,0:0:0:0:
37,250,52663,6,0,B|84:212|84:212|203:244,1,180,2|8,1:2|0:0,0:0:0:0:
200,244,53163,1,0,1:2:0:0:
259,384,53330,2,0,L|270:294,1,90,2|2,0:0|1:2,0:0:0:0:
350,175,53663,2,0,L|361:265,1,90,10|2,0:0|1:2,0:0:0:0:
479,384,53996,6,0,P|520:351|448:281,1,180,6|8,1:2|0:0,0:0:0:0:
451,279,54496,1,0,1:2:0:0:
316,368,54663,2,0,B|202:339|255:400|131:370,1,180,2|8,0:0|0:0,0:0:0:0:
21,253,55163,1,0,1:2:0:0:
199,205,55330,6,0,L|182:309,1,90,2|2,1:2|1:2,0:0:0:0:
163,118,55663,1,10,0:0:0:0:
275,248,55830,1,2,1:2:0:0:
99,281,55996,6,0,L|113:192,1,90,2|2,0:0|1:2,0:0:0:0:
163,118,56330,1,14,0:0:0:0:
250,96,56496,1,2,0:0:0:0:
336,122,56663,6,0,L|343:229,1,99.0000030212403,14|0,0:0|0:0,0:0:0:0:
342,220,56996,1,2,1:2:0:0:
506,126,57163,2,0,B|469:81|469:81|329:123,1,198.000006042481,10|2,0:0|1:2,0:0:0:0:
149,162,57663,6,0,P|119:86|250:104,1,270.000010299683,14|0,0:0|0:0,0:0:0:0:
159,260,58163,1,0,1:2:0:0:
159,260,58330,2,0,L|148:159,1,99.0000030212403,12|0,0:0|0:0,0:0:0:0:
148,161,58580,1,8,0:0:0:0:
148,161,58663,1,0,1:2:0:0:
244,292,58830,1,0,1:2:0:0:
72,294,58996,1,12,0:0:0:0:
69,269,59079,1,8,0:0:0:0:
66,244,59162,1,8,0:0:0:0:
63,220,59246,1,8,0:0:0:0:
61,195,59330,6,0,L|48:79,1,107.999996704102,14|0,0:0|0:0,0:0:0:0:
48,87,59663,1,2,1:2:0:0:
217,177,59830,2,0,P|190:228|58:186,1,215.999993408203,10|2,0:0|1:2,0:0:0:0:
310,122,60330,5,10,0:0:0:0:
204,347,60496,2,0,P|106:352|71:181,1,288,14|0,0:0|1:2,0:0:0:0:
228,69,60996,2,0,L|215:187,1,107.999996704102,12|0,0:0|0:0,0:0:0:0:
208,252,61246,1,8,0:0:0:0:
208,252,61330,1,2,1:2:0:0:
134,87,61496,1,0,1:2:0:0:
308,202,61663,1,10,0:0:0:0:
341,219,61746,1,8,0:0:0:0:
378,224,61830,1,8,0:0:0:0:
415,221,61913,1,8,0:0:0:0:
450,208,61996,6,0,L|438:83,1,116.999994644165,14|0,0:0|1:2,0:0:0:0:
215,179,62330,2,0,L|203:295,1,116.999994644165,10|0,0:0|1:2,0:0:0:0:
407,384,62663,6,0,L|395:259,1,116.999994644165,10|0,0:0|1:2,0:0:0:0:
264,118,62996,1,10,0:0:0:0:
255,346,63163,1,2,1:2:0:0:
389,140,63330,6,0,L|403:18,1,116.999994644165,8|0,0:0|1:2,0:0:0:0:
129,131,63663,2,0,L|143:253,1,116.999994644165,8|0,0:0|1:2,0:0:0:0:
443,266,63996,5,10,0:0:0:0:
264,118,64163,1,2,1:2:0:0:
255,337,64330,1,8,0:0:0:0:
479,81,64496,6,0,B|471:49|440:28|440:28|380:61|386:119|445:162,1,233.999989288331,10|0,0:0|1:2,0:0:0:0:
345,370,64996,2,0,L|331:251,1,116.999994644165,10|0,0:0|1:2,0:0:0:0:
127,120,65330,1,10,0:0:0:0:
321,37,65496,1,2,1:2:0:0:
155,254,65663,1,10,0:0:0:0:
38,18,65830,5,14,0:0:0:0:
58,345,66830,5,0,1:2:0:0:
58,345,66913,1,0,1:2:0:0:
58,345,66996,2,0,L|54:262,1,80.9999975280763,10|0,0:0|0:0,0:0:0:0:
0,201,67330,6,0,B|126:239|66:169|196:206,1,198.000006042481,6|8,1:2|0:0,0:0:0:0:
334,364,67830,2,0,P|291:322|352:206,1,198.000006042481,2|0,0:0|0:0,0:0:0:0:
338,209,68330,1,8,0:0:0:0:
495,74,68496,6,0,L|484:184,1,99.0000030212403,2|0,0:0|1:2,0:0:0:0:
248,278,68830,1,2,0:0:0:0:
376,110,68996,1,10,0:0:0:0:
428,327,69163,1,2,0:0:0:0:
289,117,69330,2,0,P|297:67|337:32,1,99.0000030212403,2|0,1:2|0:0,0:0:0:0:
434,228,69663,2,0,L|427:327,1,99.0000030212403,10|0,0:0|0:0,0:0:0:0:
232,350,69996,6,0,B|149:354|149:354|129:380|129:380|35:385,1,198.000006042481,2|8,1:2|0:0,0:0:0:0:
0,192,70496,2,0,P|47:161|58:260,1,198.000006042481,2|0,0:0|0:0,0:0:0:0:
0,192,70996,2,0,L|17:90,1,99.0000030212403,10|2,0:0|0:0,0:0:0:0:
255,10,71330,6,0,P|191:20|164:137,1,198.000006042481,2|8,1:2|0:0,0:0:0:0:
343,88,71830,1,2,1:2:0:0:
343,88,71913,1,8,0:0:0:0:
343,88,71996,2,0,L|228:95,1,99.0000030212403,0|0,1:2|1:2,0:0:0:0:
35,130,72330,1,14,0:0:0:0:
217,225,72496,1,2,0:0:0:0:
364,0,72663,6,0,P|436:71|382:182,1,233.999989288331,6|8,1:2|0:0,0:0:0:0:
228,268,73163,2,0,B|361:227|315:317|459:269,1,233.999989288331,2|0,0:0|0:0,0:0:0:0:
454,270,73663,1,8,0:0:0:0:
512,41,73830,6,0,L|500:162,1,116.999994644165,2|0,0:0|1:2,0:0:0:0:
353,321,74163,1,2,0:0:0:0:
378,93,74330,2,0,P|331:66|269:71,1,116.999994644165,10|0,0:0|0:0,0:0:0:0:
210,254,74663,2,0,P|256:227|281:169,1,116.999994644165,2|0,1:2|0:0,0:0:0:0:
152,27,74996,2,0,P|150:79|187:131,1,116.999994644165,10|0,0:0|0:0,0:0:0:0:
426,165,75330,6,0,P|396:77|263:76,1,233.999989288331,2|10,1:2|0:0,0:0:0:0:
53,155,75830,2,0,L|40:35,1,116.999994644165,2|0,0:0|1:2,0:0:0:0:
215,205,76163,2,0,L|201:321,1,116.999994644165,2|8,0:0|0:0,0:0:0:0:
12,317,76496,6,0,B|109:289|109:289|211:324,1,198.000006042481,6|0,1:2|1:2,0:0:0:0:
351,348,76996,2,0,L|340:249,1,99.0000030212403,8|0,0:0|1:2,0:0:0:0:
361,215,77246,1,8,0:0:0:0:
382,181,77330,2,0,L|371:82,1,99.0000030212403,0|2,1:2|1:2,0:0:0:0:
184,6,77663,1,8,0:0:0:0:
181,50,77746,1,8,0:0:0:0:
178,94,77830,1,10,0:0:0:0:
175,138,77913,1,8,0:0:0:0:
175,189,77996,5,6,1:2:0:0:
371,82,78163,1,2,0:0:0:0:
175,189,78330,1,10,0:0:0:0:
371,82,78496,1,2,0:0:0:0:
250,269,78663,1,2,1:2:0:0:
81,133,78830,2,0,L|102:21,1,107.999996704102,2|8,0:0|0:0,0:0:0:0:
371,82,79163,6,0,B|426:55|426:55|394:215,1,215.999993408203,2|0,0:0|0:0,0:0:0:0:
230,375,79663,2,0,L|251:263,1,107.999996704102,10|0,0:0|0:0,0:0:0:0:
489,188,79996,2,0,L|478:245,1,53.9999983520508,2|0,1:2|0:0,0:0:0:0:
338,345,80163,2,0,L|348:291,1,53.9999983520508,2|0,0:0|0:0,0:0:0:0:
290,163,80330,2,0,B|240:134|240:134|123:185,1,161.999995056153,14|0,0:0|0:0,0:0:0:0:
132,262,80663,5,6,1:2:0:0:
351,295,80830,1,2,0:0:0:0:
132,262,80996,1,10,0:0:0:0:
351,295,81163,1,2,0:0:0:0:
138,369,81330,1,2,1:2:0:0:
25,156,81496,2,0,L|40:36,1,107.999996704102,2|8,0:0|0:0,0:0:0:0:
357,37,81830,6,0,P|416:22|436:154,1,215.999993408203,2|0,1:2|0:0,0:0:0:0:
320,322,82330,1,10,0:0:0:0:
318,112,82496,1,2,1:2:0:0:
318,112,82580,1,8,0:0:0:0:
318,112,82663,2,0,L|334:222,1,107.999996704102,2|2,1:2|1:2,0:0:0:0:
171,377,82996,1,14,0:0:0:0:
176,322,83080,1,8,0:0:0:0:
181,268,83163,1,10,0:0:0:0:
186,214,83246,1,8,0:0:0:0:
195,163,83330,5,14,0:0:0:0:
195,163,83663,6,0,L|208:52,1,107.999996704102,10|0,0:0|1:2,0:0:0:0:
334,267,83996,2,0,L|346:374,1,107.999996704102,14|0,0:0|1:2,0:0:0:0:
98,171,84330,2,0,L|107:110,1,53.9999983520508,10|0,0:0|1:2,0:0:0:0:
295,45,84496,2,0,L|287:98,1,53.9999983520508,0|0,1:2|1:2,0:0:0:0:
218,261,84663,5,14,0:0:0:0:
218,261,85496,5,0,1:2:0:0:
0,217,85663,2,0,P|-5:164|41:104,1,121.499996292114,10|0,0:0|0:0,0:0:0:0:
105,62,85996,5,6,1:2:0:0:
256,159,86163,1,2,0:0:0:0:
78,180,86330,1,10,0:0:0:0:
164,137,86496,1,2,1:2:0:0:
164,137,86580,1,0,1:2:0:0:
164,137,86663,6,0,L|154:263,2,121.499996292114,10|2|10,0:0|1:2|0:0,0:0:0:0:
368,48,87330,5,6,1:2:0:0:
253,219,87496,1,2,1:2:0:0:
471,182,87663,1,10,0:0:0:0:
350,164,87830,1,2,1:2:0:0:
350,164,87913,1,0,1:2:0:0:
350,164,87996,6,0,L|371:321,2,148.50000453186,10|2|10,0:0|1:2|0:0,0:0:0:0:
256,192,88996,12,2,91830,0:0:0:0:
