osu file format v14

[General]
AudioFilename: audio.mp3
AudioLeadIn: 0
PreviewTime: 33759
Countdown: 0
SampleSet: Soft
StackLeniency: 0.7
Mode: 0
LetterboxInBreaks: 0
WidescreenStoryboard: 1

[Editor]
Bookmarks: 8496,16917,25338,33759,48232,48496,52180,67443,84285
DistanceSpacing: 1.2
BeatDivisor: 4
GridSize: 32
TimelineZoom: 1.4

[Metadata]
Title:Fire (TV Size)
TitleUnicode:Fire (TV Size)
Artist:Yamato(.S)
ArtistUnicode:Yamato(.S)
Creator:Chaoslitz
Version:Light Insane
Source:SCARLET NEXUS
Tags:ed1 ending anime japanese rock jrock j-rock YamatoS
BeatmapID:3373838
BeatmapSetID:1609800

[Difficulty]
HPDrainRate:5
CircleSize:4
OverallDifficulty:6.5
ApproachRate:8
SliderMultiplier:1.8
SliderTickRate:1

[Events]
//Background and Video events
0,0,"bg.jpg",0,0
Video,-120,"video.mp4"
//Break Periods
//Storyboard Layer 0 (Background)
//Storyboard Layer 1 (Fail)
//Storyboard Layer 2 (Pass)
//Storyboard Layer 3 (Foreground)
//Storyboard Layer 4 (Overlay)
//Storyboard Sound Samples

[TimingPoints]
75,526.315789473684,4,2,1,60,1,0
75,-111.111111111111,4,2,1,60,0,0
206,-111.111111111111,4,2,1,10,0,0
338,-111.111111111111,4,2,1,60,0,0
2311,-111.111111111111,4,2,1,10,0,0
2443,-111.111111111111,4,2,1,60,0,0
4417,-111.111111111111,4,2,1,10,0,0
4548,-111.111111111111,4,2,1,60,0,0
6522,-111.111111111111,4,2,1,10,0,0
6653,-111.111111111111,4,2,1,60,0,0
8496,-100,4,2,1,80,0,0
12180,-90.9090909090909,4,2,2,80,0,0
12311,-90.9090909090909,4,2,1,80,0,0
12706,-90.9090909090909,4,2,10,80,0,0
12969,-100,4,2,1,80,0,0
16127,-100,4,2,2,80,0,0
16259,-100,4,2,1,80,0,0
16390,-90.9090909090909,4,2,5,80,0,0
16522,-100,4,2,1,80,0,0
16917,-111.111111111111,4,2,1,60,0,0
20601,-166.666666666667,4,2,1,60,0,0
20864,-100,4,2,1,10,0,0
21127,-83.3333333333333,4,2,6,60,0,0
21259,-83.3333333333333,4,2,4,80,0,0
21522,-83.3333333333333,4,2,3,80,0,0
21785,-76.9230769230769,4,2,3,80,0,0
22706,-90.9090909090909,4,2,3,80,0,0
23101,-100,4,2,4,80,0,0
23232,-100,4,2,3,80,0,0
23364,-100,4,2,4,80,0,0
23627,-90.9090909090909,4,2,3,80,0,0
23890,-83.3333333333333,4,2,4,80,0,0
24022,-83.3333333333333,4,2,3,80,0,0
24153,-76.9230769230769,4,2,3,80,0,0
24548,-100,4,2,3,80,0,0
24680,-100,4,2,4,80,0,0
24811,-100,4,2,3,80,0,0
25338,-100,4,2,1,70,0,0
25469,-100,4,2,4,70,0,0
25732,-100,4,2,3,70,0,0
26259,-100,4,2,4,70,0,0
26522,-100,4,2,3,70,0,0
27574,-100,4,2,4,70,0,0
27838,-100,4,2,3,70,0,0
28101,-100,4,2,4,70,0,0
28232,-100,4,2,3,70,0,0
28627,-100,4,2,4,70,0,0
28759,-100,4,2,3,70,0,0
28890,-100,4,2,4,70,0,0
29153,-100,4,2,3,70,0,0
29482,-100,4,2,3,10,0,0
29548,-90.9090909090909,4,2,1,80,0,0
29680,-90.9090909090909,4,2,4,80,0,0
29943,-90.9090909090909,4,2,1,80,0,0
30074,-90.9090909090909,4,2,3,80,0,0
30338,-90.9090909090909,4,2,7,80,0,0
30601,-90.9090909090909,4,2,3,80,0,0
31653,-90.9090909090909,4,2,3,70,0,0
31785,-90.9090909090909,4,2,4,70,0,0
32048,-90.9090909090909,4,2,3,70,0,0
32311,-90.9090909090909,4,2,4,70,0,0
32443,-90.9090909090909,4,2,3,70,0,0
33759,-90.9090909090909,4,2,1,70,0,1
33890,-90.9090909090909,4,2,1,70,0,0
34285,-100,4,2,1,70,0,0
35864,-83.3333333333333,4,2,7,90,0,0
35996,-83.3333333333333,4,2,1,90,0,0
36653,-83.3333333333333,4,2,3,90,0,0
37048,-74.0740740740741,4,2,1,90,0,0
37443,-83.3333333333333,4,2,7,90,0,0
37574,-83.3333333333333,4,2,7,90,0,0
37969,-83.3333333333333,4,2,1,90,0,0
38101,-83.3333333333333,4,2,1,90,0,0
38167,-83.3333333333333,4,2,1,10,0,0
38232,-83.3333333333333,4,2,1,90,0,0
38759,-83.3333333333333,4,2,7,90,0,0
38890,-83.3333333333333,4,2,7,90,0,0
39680,-83.3333333333333,4,2,1,90,0,0
39943,-83.3333333333333,4,2,3,90,0,0
40074,-83.3333333333333,4,2,1,90,0,0
40206,-83.3333333333333,4,2,3,90,0,0
40732,-83.3333333333333,4,2,1,90,0,0
40864,-83.3333333333333,4,2,3,90,0,0
41127,-83.3333333333333,4,2,1,90,0,0
41259,-83.3333333333333,4,2,7,90,0,0
41522,-83.3333333333333,4,2,7,90,0,0
41917,-83.3333333333333,4,2,3,90,0,0
42180,-83.3333333333333,4,2,3,90,0,0
42574,-83.3333333333333,4,2,3,90,0,0
43232,-83.3333333333333,4,2,1,90,0,0
43364,-83.3333333333333,4,2,7,90,0,0
44285,-83.3333333333333,4,2,1,90,0,0
44417,-83.3333333333333,4,2,4,90,0,0
44680,-83.3333333333333,4,2,3,90,0,0
45601,-74.0740740740741,4,2,7,90,0,0
45732,-74.0740740740741,4,2,1,90,0,0
46127,-74.0740740740741,4,2,3,90,0,0
46522,-71.4285714285714,4,2,7,90,0,0
46917,-71.4285714285714,4,2,1,90,0,0
47180,-71.4285714285714,4,2,7,90,0,0
47311,-71.4285714285714,4,2,1,90,0,0
47443,-71.4285714285714,4,2,1,95,0,0
47969,-71.4285714285714,4,2,5,100,0,0
48232,-71.4285714285714,4,2,1,100,0,0
48627,-83.3333333333333,4,2,1,10,0,0
48759,-83.3333333333333,4,2,1,60,0,0
49022,-100,4,2,1,60,0,0
49548,-100,4,2,1,60,0,0
49811,-100,4,2,1,10,0,0
49943,-100,4,2,1,60,0,0
50206,-83.3333333333333,4,2,1,10,0,0
50338,-83.3333333333333,4,2,1,60,0,0
50469,-83.3333333333333,4,2,1,10,0,0
50601,-90.9090909090909,4,2,1,90,0,1
53496,-90.9090909090909,4,2,10,90,0,1
54285,-90.9090909090909,4,2,11,90,0,1
54417,-90.9090909090909,4,2,10,90,0,1
55074,-90.9090909090909,4,2,1,90,0,1
56917,-90.9090909090909,4,2,10,90,0,1
57180,-90.9090909090909,4,2,1,90,0,1
57969,-90.9090909090909,4,2,12,90,0,1
58101,-90.9090909090909,4,2,1,90,0,1
58496,-90.9090909090909,4,2,3,90,0,1
58627,-90.9090909090909,4,2,1,90,0,1
62706,-90.9090909090909,4,2,3,90,0,1
62838,-90.9090909090909,4,2,1,90,0,1
66917,-90.9090909090909,4,2,3,90,0,1
67311,-90.9090909090909,4,2,3,90,0,0
67443,-90.9090909090909,4,2,1,90,0,1
70338,-90.9090909090909,4,2,10,90,0,1
71127,-90.9090909090909,4,2,11,90,0,1
71259,-90.9090909090909,4,2,10,90,0,1
71916,-90.9090909090909,4,2,1,90,0,1
73759,-90.9090909090909,4,2,10,90,0,1
74022,-90.9090909090909,4,2,1,90,0,1
74811,-90.9090909090909,4,2,12,90,0,1
74943,-90.9090909090909,4,2,1,90,0,1
75338,-90.9090909090909,4,2,3,90,0,1
75469,-90.9090909090909,4,2,1,90,0,1
79548,-90.9090909090909,4,2,3,90,0,1
79680,-90.9090909090909,4,2,1,90,0,1
83627,-90.9090909090909,4,2,4,90,0,1
83759,-90.9090909090909,4,2,3,90,0,1
84153,-90.9090909090909,4,2,3,90,0,1
84285,-90.9090909090909,4,2,3,90,0,0

[Colours]
Combo1 : 157,233,249
Combo2 : 63,165,139
Combo3 : 58,147,175
Combo4 : 222,222,222
SliderBorder : 112,208,233
SliderTrackOverride : 222,222,222

[HitObjects]
3,312,75,6,0,P|15:371|9:377,1,40.4999987640381,0|0,3:0|0:0,0:0:0:0:
28,358,338,2,0,P|99:316|76:284,1,80.9999975280763,2|0,3:2|0:0,0:0:0:0:
116,238,732,2,0,B|90:260|90:260|160:255,1,80.9999975280763,2|0,3:2|0:0,0:0:0:0:
158,276,1127,2,0,P|234:311|212:364,1,80.9999975280763,2|0,3:2|0:0,0:0:0:0:
309,365,1522,1,2,3:2:0:0:
298,374,1653,6,0,L|302:296,1,40.4999987640381,2|0,3:2|0:0,0:0:0:0:
311,206,1917,1,2,3:2:0:0:
303,201,2049,1,2,3:2:0:0:
293,203,2180,6,0,P|293:248|319:254,1,40.4999987640381,0|0,3:0|0:0,0:0:0:0:
296,251,2443,2,0,P|363:309|349:333,1,80.9999975280763,2|0,3:2|0:0,0:0:0:0:
390,370,2838,2,0,L|514:362,1,80.9999975280763,2|0,3:2|0:0,0:0:0:0:
486,339,3232,2,0,P|460:265|490:260,1,80.9999975280763,2|0,3:2|0:0,0:0:0:0:
403,179,3627,1,2,3:2:0:0:
414,170,3758,6,0,L|410:248,1,40.4999987640381,2|0,3:2|0:0,0:0:0:0:
359,111,4022,1,2,3:2:0:0:
351,117,4153,1,2,3:2:0:0:
342,113,4285,6,0,P|348:58|351:57,1,40.4999987640381,0|0,3:0|0:0,0:0:0:0:
333,64,4548,2,0,L|209:72,1,80.9999975280763,2|0,3:2|3:0,0:0:0:0:
156,10,4943,2,0,B|187:-8|187:-8|171:72,1,80.9999975280763,2|0,3:2|0:0,0:0:0:0:
171,64,5338,2,0,P|192:141|138:155,1,80.9999975280763,2|0,3:2|0:0,0:0:0:0:
91,177,5732,1,2,3:2:0:0:
100,188,5864,2,0,L|170:184,1,40.4999987640381,2|0,3:2|0:0,0:0:0:0:
234,211,6127,1,2,3:2:0:0:
226,205,6259,1,2,3:2:0:0:
217,209,6390,6,0,P|211:251|227:263,1,40.4999987640381,0|0,3:0|0:0,0:0:0:0:
213,259,6653,2,0,P|142:318|161:348,1,80.9999975280763,2|0,3:2|3:0,0:0:0:0:
109,368,7048,2,0,L|233:360,1,80.9999975280763,2|0,3:2|0:0,0:0:0:0:
206,340,7443,2,0,P|298:318|295:298,1,80.9999975280763,2|0,3:2|0:0,0:0:0:0:
336,259,7838,1,2,3:2:0:0:
343,266,7969,2,0,L|339:344,1,40.4999987640381,2|2,3:2|3:2,0:0:0:0:
422,310,8232,2,0,L|426:232,1,40.4999987640381,2|2,3:2|3:2,0:0:0:0:
285,196,8496,5,12,3:2:0:0:
419,77,8759,2,0,B|401:65|401:65|411:115,1,45,10|4,3:0|0:3,0:0:0:0:
263,107,9021,1,8,0:2:0:0:
270,116,9153,2,0,P|351:155|326:219,1,90,10|0,3:2|0:0,0:0:0:0:
361,169,9548,2,0,L|485:161,1,90,10|8,3:2|0:0,0:0:0:0:
456,168,9943,1,2,3:2:0:0:
461,173,10074,1,10,3:0:0:0:
410,68,10338,1,10,3:2:0:0:
403,77,10469,1,2,3:2:0:0:
406,88,10601,1,8,3:2:0:0:
344,188,10864,6,0,L|348:110,1,45,10|4,3:0|0:3,0:0:0:0:
451,266,11127,1,8,0:0:0:0:
453,255,11259,2,0,P|381:325|401:342,1,90,10|0,3:2|0:0,0:0:0:0:
382,303,11653,2,0,B|345:329|345:329|273:287,1,90,10|8,3:2|0:0,0:0:0:0:
178,351,12048,1,10,3:2:0:0:
193,364,12180,6,0,P|260:367|262:372,1,49.5000015106202,10|8,3:2|0:0,0:0:0:0:
273,233,12443,1,10,3:2:0:0:
235,265,12574,1,10,3:2:0:0:
196,243,12706,6,0,B|174:198|174:198|226:108,1,99.0000030212403,6|10,3:2|3:0,0:0:0:0:
203,59,13101,1,4,0:3:0:0:
207,67,13232,1,8,0:0:0:0:
211,75,13364,2,0,P|124:85|135:26,1,90,10|0,3:2|0:0,0:0:0:0:
124,78,13759,2,0,L|0:86,1,90,10|8,3:2|0:0,0:0:0:0:
29,79,14153,1,2,3:2:0:0:
24,74,14285,1,6,3:0:0:0:
85,161,14548,1,10,3:2:0:0:
92,170,14679,1,2,3:2:0:0:
89,181,14811,1,8,3:2:0:0:
146,330,15074,6,0,P|93:330|86:309,1,45,10|4,3:0|0:3,0:0:0:0:
35,250,15338,1,8,0:0:0:0:
33,239,15469,2,0,P|105:309|85:326,1,90,10|0,3:2|0:0,0:0:0:0:
146,330,15864,2,0,L|216:326,1,45,10|0,3:2|0:0,0:0:0:0:
344,275,16127,1,2,0:3:0:0:
375,313,16258,1,10,3:2:0:0:
347,354,16390,6,0,P|293:360|281:327,1,49.5000015106202,10|10,1:2|3:2,0:0:0:0:
265,294,16653,2,0,L|269:216,1,45,10|10,3:2|3:2,0:0:0:0:
340,59,16917,5,6,3:2:0:0:
230,177,17311,1,2,0:0:0:0:
344,63,17706,2,0,L|189:73,2,121.499996292114,2|2|2,0:0|0:0|3:2,0:0:0:0:
287,120,18759,1,0,0:0:0:0:
401,6,19022,6,0,P|460:63|453:72,1,80.9999975280763,0|0,0:0|3:0,0:0:0:0:
480,58,19417,2,0,B|461:94|461:94|495:166,1,80.9999975280763
334,186,19811,2,0,L|458:178,1,80.9999975280763,2|0,0:0|3:0,0:0:0:0:
478,130,20338,1,2,0:0:0:0:
509,228,20601,6,0,B|491:210|491:210|498:246,1,53.9999983520508,2|0,3:2|0:0,0:0:0:0:
368,344,21127,6,0,P|368:380|376:386,2,26.9999991760254,14|2|10,3:1|3:1|3:2,0:0:0:0:
453,307,21390,1,10,3:2:0:0:
445,314,21522,2,0,B|452:322|452:322|536:317,1,53.9999983520508,10|0,3:0|0:0,0:0:0:0:
343,267,21785,6,0,B|311:269|311:269|292:319|292:319|200:324,1,116.999994644165,2|10,3:1|3:0,0:0:0:0:
133,347,22180,1,2,3:0:0:0:
136,358,22311,2,0,P|77:285|97:270,1,116.999994644165,2|2,3:0|3:0,0:0:0:0:
178,222,22706,5,10,3:2:0:0:
184,230,22838,1,10,3:0:0:0:
190,238,22969,2,0,L|186:316,1,49.5000015106202,2|8,3:0|0:0,0:0:0:0:
218,151,23232,1,10,3:0:0:0:
181,124,23364,1,10,3:2:0:0:
137,133,23496,1,10,3:2:0:0:
114,172,23627,6,0,P|50:152|51:141,1,49.5000015106202,10|0,3:0|0:0,0:0:0:0:
130,37,23890,2,0,B|149:22|149:22|141:76,1,53.9999983520508,10|8,3:2|0:3,0:0:0:0:
178,222,24153,6,2,B|193:203|193:203|334:194,1,116.999994644165,2|0,3:1|0:0,0:0:0:0:
395,169,24548,1,2,3:0:0:0:
399,163,24680,1,8,0:0:0:0:
403,157,24811,2,0,L|333:161,1,45,2|8,3:0|3:0,0:0:0:0:
291,115,25074,1,10,3:2:0:0:
320,271,25338,5,14,0:0:0:0:
313,279,25469,2,0,L|317:357,1,45,8|8,0:0|0:0,0:0:0:0:
443,364,25732,2,0,P|350:349|350:352,1,90,10|0,0:3|0:0,0:0:0:0:
246,367,26127,5,10,0:0:0:0:
236,372,26259,2,0,L|229:210,1,90,8|0,0:0|0:0,0:0:0:0:
179,181,26653,2,0,B|168:201|168:201|189:247,1,45,10|0,0:3|0:0,0:0:0:0:
102,323,26917,1,10,0:0:0:0:
108,332,27048,2,0,L|178:328,1,45,8|0,0:3|0:0,0:0:0:0:
40,376,27311,5,2,0:0:0:0:
30,382,27443,2,0,P|36:301|47:304,1,90,8|10,0:3|0:0,0:0:0:0:
55,257,27838,2,0,B|70:208|27:216|59:141,1,90,8|8,0:3|0:0,0:0:0:0:
22,81,28232,1,10,0:3:0:0:
19,88,28364,1,8,0:3:0:0:
16,95,28496,2,0,P|75:110|76:116,1,45,10|8,0:0|0:0,0:0:0:0:
169,133,28759,2,0,L|99:137,1,45,10|8,0:3|0:0,0:0:0:0:
49,169,29022,1,2,0:0:0:0:
168,14,29285,6,2,P|161:11|161:55,1,67.5,2|0,3:1|0:0,0:0:0:0:
146,55,29548,2,0,P|224:119|186:147,1,99.0000030212403,14|10,3:1|3:1,0:0:0:0:
253,193,29943,1,10,3:1:0:0:
246,200,30074,2,0,B|236:177|236:177|258:136,1,49.5000015106202,2|2,3:1|3:1,0:0:0:0:
353,91,30338,2,0,B|347:96|347:96|275:100,1,49.5000015106202,10|10,3:1|3:1,0:0:0:0:
388,19,30601,5,2,0:0:0:0:
394,11,30732,2,0,P|459:76|426:94,1,99.0000030212403,2|2,3:1|3:1,0:0:0:0:
417,140,31127,2,0,P|420:102|410:100,2,33.0000010070801,10|2|0,3:2|3:2|0:0,0:0:0:0:
422,149,31390,2,0,L|492:145,1,49.5000015106202,2|2,0:0|0:0,0:0:0:0:
506,271,31653,6,0,P|426:310|412:260,1,99.0000030212403,2|8,3:0|3:2,0:0:0:0:
378,266,32048,2,0,L|371:428,1,99.0000030212403,10|8,0:3|0:0,0:0:0:0:
297,288,32443,2,0,L|293:366,1,49.5000015106202,10|8,3:0|0:3,0:0:0:0:
353,189,32706,5,10,3:2:0:0:
344,182,32838,2,0,P|325:217|338:220,1,49.5000015106202,2|0,3:0|0:0,0:0:0:0:
209,317,33101,1,2,3:1:0:0:
216,310,33232,5,10,0:0:0:0:
174,284,33363,1,2,3:0:0:0:
124,289,33495,1,8,0:3:0:0:
89,323,33626,1,8,0:3:0:0:
81,368,33759,6,0,P|14:293|46:270,1,99.0000030212403,12|0,3:2|0:0,0:0:0:0:
9,318,34153,1,8,3:2:0:0:
53,251,34285,6,2,B|60:244|60:244|66:76,1,90,2|0,3:1|0:0,0:0:0:0:
39,127,34680,2,2,P|101:117|91:60,1,90,2|0,3:1|0:1,0:0:0:0:
103,0,35074,2,2,B|73:24|73:24|162:15,1,90,2|0,3:1|0:1,0:0:0:0:
163,39,35469,2,2,P|232:94|225:107,1,90,2|0,3:1|0:1,0:0:0:0:
189,201,35864,6,2,L|83:207,1,53.9999983520508,14|0,3:1|0:0,0:0:0:0:
286,322,36127,1,0,0:0:0:0:
220,369,36259,2,2,B|195:321|195:321|260:205,1,107.999996704102,14|0,3:1|0:0,0:0:0:0:
263,169,36653,6,0,P|231:148|228:150,2,26.9999991760254,8|0|8,0:0|3:0|0:0,0:0:0:0:
359,290,36917,1,8,0:0:0:0:
296,242,37048,2,0,L|455:233,1,121.500000463486,12|8,0:0|0:0,0:0:0:0:
510,348,37443,1,10,3:1:0:0:
433,368,37574,2,0,P|461:310|480:317,1,53.9999983520508,6|4,3:0|3:0,0:0:0:0:
512,259,37838,2,0,B|495:241|495:241|504:299,1,53.9999983520508,6|8,3:0|0:0,0:0:0:0:
462,170,38101,6,2,P|461:168|426:171,1,26.9999991760254,2|0,3:1|0:0,0:0:0:0:
470,165,38232,2,2,P|437:66|419:79,1,107.999996704102,2|2,3:1|3:1,0:0:0:0:
376,13,38627,1,2,3:1:0:0:
369,21,38759,1,10,3:1:0:0:
362,29,38890,2,2,B|337:85|397:85|348:161,1,107.999996704102,10|0,3:1|0:0,0:0:0:0:
281,95,39285,2,2,B|259:111|259:111|314:107,1,53.9999983520508,10|0,3:1|0:0,0:0:0:0:
405,246,39548,1,10,3:1:0:0:
417,235,39680,2,2,P|360:268|364:279,1,53.9999983520508,10|0,3:1|0:0,0:0:0:0:
202,340,39943,6,2,L|207:234,1,53.9999983520508,10|12,3:1|0:1,0:0:0:0:
289,378,40206,1,8,3:1:0:0:
282,370,40338,2,2,L|289:198,1,107.999996704102,10|10,3:1|3:1,0:0:0:0:
247,167,40732,1,10,3:1:0:0:
238,159,40864,2,0,P|234:214|270:214,1,53.9999983520508,8|0,0:0|3:0,0:0:0:0:
101,320,41127,5,10,3:1:0:0:
95,311,41259,2,0,L|147:308,2,26.9999991760254,10|8|10,3:1|0:1|3:1,0:0:0:0:
32,362,41522,1,10,3:0:0:0:
21,355,41653,2,0,P|38:290|56:292,1,53.9999983520508,4|6,0:3|3:0,0:0:0:0:
101,149,41917,1,8,3:0:0:0:
135,115,42048,1,8,3:0:0:0:
124,68,42180,6,0,L|18:74,1,53.9999983520508,14|10,3:1|3:1,0:0:0:0:
37,222,42443,1,10,3:1:0:0:
44,233,42574,2,0,L|150:227,1,53.9999983520508,8|8,0:0|0:3,0:0:0:0:
230,143,42838,1,0,3:0:0:0:
234,131,42969,2,0,B|215:120|215:120|227:188,1,53.9999983520508,8|0,0:0|0:0,0:0:0:0:
122,309,43232,5,10,3:1:0:0:
163,285,43364,1,10,3:1:0:0:
211,291,43496,2,8,P|199:321|191:320,1,26.9999991760254,10|0,3:1|3:0,0:0:0:0:
246,323,43627,2,8,P|230:340|221:327,1,26.9999991760254,10|0,3:1|3:0,0:0:0:0:
256,370,43759,2,0,L|362:364,1,53.9999983520508,8|10,0:1|3:0,0:0:0:0:
401,241,44022,1,8,0:1:0:0:
362,212,44153,1,8,0:1:0:0:
320,237,44285,6,0,P|339:297|366:290,1,53.9999983520508,14|8,3:1|0:0,0:0:0:0:
461,366,44548,1,8,0:0:0:0:
453,356,44679,2,0,L|458:250,1,53.9999983520508,8|8,0:0|0:3,0:0:0:0:
427,164,44943,1,8,0:1:0:0:
419,154,45074,2,0,L|424:48,1,53.9999983520508,8|8,0:0|0:0,0:0:0:0:
256,24,45338,1,8,0:0:0:0:
221,58,45469,1,8,0:3:0:0:
241,103,45601,6,0,B|281:100|281:100|317:139|317:139|371:102,1,121.500000463486,10|4,3:1|0:3,0:0:0:0:
395,14,45996,1,10,0:1:0:0:
383,0,46127,2,0,P|383:58|399:55,1,60.7500002317429,12|0,0:0|0:0,0:0:0:0:
457,161,46390,5,6,3:1:0:0:
451,152,46522,2,0,L|399:155,2,31.4999990386963,8|8|10,0:1|0:1|3:1,0:0:0:0:
465,266,46785,1,10,3:1:0:0:
476,256,46917,5,10,3:1:0:0:
423,235,47048,1,10,3:1:0:0:
372,262,47180,1,10,3:0:0:0:
362,318,47311,1,10,3:1:0:0:
396,364,47443,2,0,L|502:358,1,62.9999980773926,2|2,3:1|3:1,0:0:0:0:
206,274,47706,5,10,3:1:0:0:
284,296,47838,1,10,3:1:0:0:
225,352,47969,2,0,P|190:356|187:349,2,31.4999990386963,8|0|0,0:0|0:0|0:0,0:0:0:0:
265,218,48232,6,2,B|221:194|192:248|192:248|198:256|198:256|167:317|111:276,1,188.999994232178,14|0,3:1|3:0,3:3:0:0:
116,277,48759,5,2,0:0:0:0:
9,338,49022,2,0,P|106:311|102:295,1,90,2|2,0:0|0:0,0:0:0:0:
139,207,49548,2,0,P|152:290|186:263,1,90,2|0,0:0|0:0,0:0:0:0:
127,286,49943,2,0,L|251:278,1,90,2|0,0:0|0:0,0:0:0:0:
227,289,50338,1,2,0:0:0:0:
91,143,50601,6,0,P|188:101|158:55,1,99.0000030212403,12|10,0:0|0:3,0:0:0:0:
125,2,50996,1,4,0:3:0:0:
178,58,51128,2,0,L|10:69,1,99.0000030212403,8|8,0:0|0:0,0:0:0:0:
139,207,51653,1,8,0:0:0:0:
6,104,51917,1,6,0:3:0:0:
12,109,52048,1,4,0:3:0:0:
18,114,52180,2,0,P|87:163|60:186,1,99.0000030212403,10|4,0:0|0:3,0:0:0:0:
62,312,52574,6,0,B|36:265|98:256|44:194,1,99.0000030212403,2|0,0:0|0:0,0:0:0:0:
16,384,52969,2,0,P|96:357|94:385,1,99.0000030212403,6|8,0:3|0:0,0:0:0:0:
184,274,53364,1,4,0:3:0:0:
190,285,53496,6,0,L|120:289,1,49.5000015106202,2|4,3:2|0:3,0:0:0:0:
250,139,53759,2,0,B|224:181|224:181|293:309,1,99.0000030212403,10|6,3:2|3:0,0:0:0:0:
355,192,54153,1,8,0:0:0:0:
366,180,54285,2,0,L|270:184,1,49.5000015106202,10|8,3:2|0:0,0:0:0:0:
445,344,54548,1,6,3:0:0:0:
409,378,54680,1,8,0:3:0:0:
365,356,54811,6,0,B|341:312|341:312|416:190,1,99.0000030212403,14|8,3:2|0:3,0:0:0:0:
504,197,55206,1,4,0:3:0:0:
443,244,55338,2,0,L|450:82,1,99.0000030212403,10|12,0:0|0:3,0:0:0:0:
437,135,55732,2,0,P|371:204|422:232,1,99.0000030212403,2|0,0:0|0:0,0:0:0:0:
293,213,56127,2,0,B|275:228|275:228|326:224,1,49.5000015106202,2|4,0:3|0:3,0:0:0:0:
294,306,56390,2,0,P|202:291|213:364,1,99.0000030212403,10|10,0:0|0:3,0:0:0:0:
144,345,56785,1,4,0:3:0:0:
152,332,56917,6,0,B|104:316|112:387|53:359,1,99.0000030212403,10|4,0:0|0:3,0:0:0:0:
54,359,57311,1,4,0:3:0:0:
46,349,57443,2,0,P|64:295|87:298,1,49.5000015106202,8|0,0:0|0:0,0:0:0:0:
113,256,57706,5,6,0:3:0:0:
156,93,57969,2,0,L|0:103,1,99.0000030212403,10|6,0:0|0:3,0:0:0:0:
143,182,58364,1,8,0:0:0:0:
134,175,58496,2,0,L|64:179,1,49.5000015106202,8|8,0:0|0:0,0:0:0:0:
267,331,58759,1,6,0:3:0:0:
232,366,58890,1,8,0:3:0:0:
188,343,59022,6,0,L|195:181,1,99.0000030212403,14|10,0:0|0:3,0:0:0:0:
245,135,59417,1,4,0:3:0:0:
237,126,59548,2,0,P|245:187|253:188,1,49.5000015106202,10|0,0:0|0:0,0:0:0:0:
275,341,59811,1,4,0:3:0:0:
267,331,59943,2,0,P|366:357|342:392,1,99.0000030212403,2|0,0:0|0:0,0:0:0:0:
439,356,60338,1,6,3:3:0:0:
433,360,60469,1,4,0:3:0:0:
427,364,60601,2,0,L|431:267,1,49.5000015106202,8|0,3:2|0:0,0:0:0:0:
396,192,60864,2,0,L|392:289,1,49.5000015106202,8|4,3:0|0:3,0:0:0:0:
510,319,61127,5,8,3:2:0:0:
396,192,61390,2,0,P|326:117|349:103,1,99.0000030212403,6|8,0:3|0:0,0:0:0:0:
356,27,61785,2,0,L|200:37,1,99.0000030212403,6|0,0:3|0:0,0:0:0:0:
360,107,62180,2,0,L|204:117,1,99.0000030212403,10|4,3:2|0:3,0:0:0:0:
155,60,62574,1,10,0:3:0:0:
144,69,62706,2,0,B|151:78|151:78|231:73,1,49.5000015106202,8|4,0:0|0:3,0:0:0:0:
17,207,62969,1,10,0:3:0:0:
52,243,63101,1,4,0:3:0:0:
98,223,63232,6,0,B|120:178|120:178|79:107,1,99.0000030212403,14|8,3:2|0:3,0:0:0:0:
87,130,63627,1,4,0:3:0:0:
79,124,63759,2,0,L|9:128,1,49.5000015106202,8|0,3:2|0:0,0:0:0:0:
42,46,64022,1,4,0:3:0:0:
167,174,64285,1,8,3:2:0:0:
207,189,64417,1,0,0:0:0:0:
246,169,64549,1,4,0:3:0:0:
256,127,64680,1,4,0:3:0:0:
231,92,64811,2,0,L|137:97,1,49.5000015106202,8|0,0:0|0:0,0:0:0:0:
167,174,65074,1,6,0:3:0:0:
257,347,65338,6,0,L|264:185,2,99.0000030212403,10|4|8,3:2|0:3|3:2,0:0:0:0:
256,353,65996,2,0,P|333:301|288:279,1,99.0000030212403,0|4,3:0|0:3,0:0:0:0:
447,255,66390,6,0,P|366:301|405:330,1,99.0000030212403,10|4,3:2|0:3,0:0:0:0:
427,371,66785,1,10,0:0:0:0:
414,378,66917,2,0,L|418:281,1,49.5000015106202,8|8,0:0|0:3,0:0:0:0:
363,157,67180,1,10,0:0:0:0:
398,192,67311,1,8,0:0:0:0:
441,167,67443,6,0,P|393:67|366:83,1,99.0000030212403,12|10,0:0|0:3,0:0:0:0:
312,21,67838,1,4,0:3:0:0:
266,83,67969,2,0,L|411:74,1,99.0000030212403,8|8,0:0|0:0,0:0:0:0:
275,182,68496,1,8,0:0:0:0:
110,29,68759,1,6,0:3:0:0:
115,23,68890,1,4,0:3:0:0:
120,17,69022,2,0,P|146:105|123:101,1,99.0000030212403,10|4,0:0|0:3,0:0:0:0:
206,225,69417,6,0,B|182:181|182:181|257:59,1,99.0000030212403,2|0,0:0|0:0,0:0:0:0:
325,180,69811,2,0,L|231:185,1,49.5000015106202,6|4,0:3|0:3,0:0:0:0:
130,116,70074,2,0,L|36:121,1,49.5000015106202,10|4,0:0|0:3,0:0:0:0:
191,304,70338,6,0,P|174:317|184:299,1,49.5000015106202,2|4,3:2|0:3,0:0:0:0:
15,353,70601,2,0,P|97:323|50:269,1,99.0000030212403,10|6,3:2|3:0,0:0:0:0:
44,190,70996,1,8,0:0:0:0:
53,200,71127,2,0,L|147:195,1,49.5000015106202,10|8,3:2|0:0,0:0:0:0:
210,42,71390,1,6,3:0:0:0:
176,6,71522,1,8,0:3:0:0:
133,30,71653,6,0,B|107:72|107:72|176:200,1,99.0000030212403,14|8,3:2|0:3,0:0:0:0:
240,238,72048,1,4,0:3:0:0:
179,285,72180,2,0,L|186:123,1,99.0000030212403,10|12,0:0|0:3,0:0:0:0:
187,173,72574,2,0,P|263:113|232:90,1,99.0000030212403,2|0,0:0|0:0,0:0:0:0:
323,34,72969,1,2,0:3:0:0:
328,41,73101,1,4,0:3:0:0:
333,48,73232,2,0,L|329:145,1,49.5000015106202,8|0,0:0|0:0,0:0:0:0:
251,69,73496,1,10,0:3:0:0:
415,27,73759,6,0,L|408:189,1,99.0000030212403,10|4,0:0|0:3,0:0:0:0:
418,136,74153,1,4,0:3:0:0:
425,146,74285,2,0,P|471:191|466:199,1,49.5000015106202,8|0,0:0|0:0,0:0:0:0:
397,231,74548,6,0,B|425:226|425:226|394:262,1,49.5000015106202,6|4,0:3|0:3,0:0:0:0:
410,359,74811,2,0,P|373:279|429:285,1,99.0000030212403,10|4,0:0|0:3,0:0:0:0:
283,214,75206,1,10,0:0:0:0:
272,223,75338,2,0,B|279:232|279:232|359:227,1,49.5000015106202,8|8,0:0|0:0,0:0:0:0:
308,82,75601,1,6,0:3:0:0:
274,46,75733,1,8,0:3:0:0:
231,70,75864,6,0,B|205:112|205:112|274:240,1,99.0000030212403,14|10,0:0|0:3,0:0:0:0:
136,219,76259,1,4,0:3:0:0:
143,231,76390,2,0,L|237:226,1,49.5000015106202,10|0,0:0|0:0,0:0:0:0:
72,361,76653,1,4,0:3:0:0:
81,370,76785,2,0,P|84:279|77:281,1,99.0000030212403,2|0,0:0|0:0,0:0:0:0:
29,256,77180,1,6,3:3:0:0:
25,263,77311,1,4,0:3:0:0:
21,270,77443,2,0,L|115:265,1,49.5000015106202,8|0,3:2|0:0,0:0:0:0:
81,160,77706,2,0,B|63:148|63:148|74:204,1,49.5000015106202,8|4,3:0|0:3,0:0:0:0:
138,311,77969,5,8,3:2:0:0:
159,141,78232,2,0,P|232:204|187:225,1,99.0000030212403,6|8,0:3|0:0,0:0:0:0:
372,243,78627,2,0,P|298:181|344:159,1,99.0000030212403,6|0,0:3|0:0,0:0:0:0:
193,227,79022,2,0,L|338:218,1,99.0000030212403,10|4,3:2|0:3,0:0:0:0:
362,131,79417,1,10,0:3:0:0:
352,120,79549,2,0,B|340:142|340:142|363:191,1,49.5000015106202,8|4,0:0|0:3,0:0:0:0:
437,344,79811,1,10,0:3:0:0:
402,379,79942,1,4,0:3:0:0:
358,356,80074,6,0,L|365:194,1,99.0000030212403,14|8,3:2|0:3,0:0:0:0:
367,250,80469,1,4,0:3:0:0:
372,243,80601,2,0,P|438:270|438:275,1,49.5000015106202,8|0,3:2|0:0,0:0:0:0:
486,281,80864,1,4,0:3:0:0:
416,72,81127,1,8,3:2:0:0:
454,51,81259,1,0,0:0:0:0:
495,66,81391,1,4,0:3:0:0:
510,106,81522,1,4,0:3:0:0:
490,145,81653,2,0,L|396:150,1,49.5000015106202,8|0,0:0|0:0,0:0:0:0:
416,72,81917,1,6,0:3:0:0:
240,209,82180,6,0,P|308:142|319:167,2,99.0000030212403,10|4|8,3:2|0:3|3:2,0:0:0:0:
244,215,82838,2,0,L|389:206,1,99.0000030212403,0|4,3:0|0:3,0:0:0:0:
348,114,83232,6,0,B|330:102|330:102|341:158,1,49.5000015106202,10|0,3:2|0:0,0:0:0:0:
426,247,83496,2,0,P|430:247|418:239,1,49.5000015106202,4|10,0:3|0:0,0:0:0:0:
235,363,83759,5,8,0:0:0:0:
287,379,83890,1,8,0:0:0:0:
329,344,84022,1,10,0:0:0:0:
323,290,84153,2,0,L|229:295,1,49.5000015106202,8|0,3:2|0:0,0:0:0:0:
