osu file format v14

[General]
AudioFilename: audio.mp3
AudioLeadIn: 0
PreviewTime: 33759
Countdown: 0
SampleSet: Soft
StackLeniency: 0.7
Mode: 0
LetterboxInBreaks: 0
WidescreenStoryboard: 1

[Editor]
Bookmarks: 8496,16917,25338,33759,48232,48496,52180,67443,84285
DistanceSpacing: 1
BeatDivisor: 4
GridSize: 32
TimelineZoom: 1.4

[Metadata]
Title:Fire (TV Size)
TitleUnicode:Fire (TV Size)
Artist:Yamato(.S)
ArtistUnicode:Yamato(.S)
Creator:Chaoslitz
Version:Hard
Source:SCARLET NEXUS
Tags:ed1 ending anime japanese rock jrock j-rock YamatoS
BeatmapID:3350715
BeatmapSetID:1609800

[Difficulty]
HPDrainRate:4
CircleSize:4
OverallDifficulty:5
ApproachRate:7.5
SliderMultiplier:1.8
SliderTickRate:1

[Events]
//Background and Video events
0,0,"bg.jpg",0,0
Video,-120,"video.mp4"
//Break Periods
//Storyboard Layer 0 (Background)
//Storyboard Layer 1 (Fail)
//Storyboard Layer 2 (Pass)
//Storyboard Layer 3 (Foreground)
//Storyboard Layer 4 (Overlay)
//Storyboard Sound Samples

[TimingPoints]
75,526.315789473684,4,2,1,60,1,0
75,-111.111111111111,4,2,1,60,0,0
206,-111.111111111111,4,2,1,10,0,0
338,-111.111111111111,4,2,1,60,0,0
2311,-111.111111111111,4,2,1,10,0,0
2443,-111.111111111111,4,2,1,60,0,0
4417,-111.111111111111,4,2,1,10,0,0
4548,-111.111111111111,4,2,1,60,0,0
6522,-111.111111111111,4,2,1,10,0,0
6653,-111.111111111111,4,2,1,60,0,0
8496,-100,4,2,1,80,0,0
12180,-100,4,2,2,80,0,0
12311,-100,4,2,1,80,0,0
12706,-100,4,2,10,80,0,0
12969,-100,4,2,1,80,0,0
16127,-100,4,2,2,80,0,0
16259,-100,4,2,1,80,0,0
16390,-100,4,2,5,80,0,0
16522,-100,4,2,1,80,0,0
16917,-111.111111111111,4,2,1,60,0,0
20601,-111.111111111111,4,2,1,60,0,0
20864,-100,4,2,1,10,0,0
21127,-100,4,2,6,60,0,0
21259,-100,4,2,4,80,0,0
21522,-100,4,2,3,80,0,0
23101,-100,4,2,4,80,0,0
23232,-100,4,2,3,80,0,0
23364,-100,4,2,4,80,0,0
23627,-100,4,2,3,80,0,0
23890,-100,4,2,4,80,0,0
24022,-100,4,2,3,80,0,0
24153,-100,4,2,3,80,0,0
24548,-100,4,2,3,80,0,0
24680,-100,4,2,4,80,0,0
24811,-100,4,2,3,80,0,0
25338,-100,4,2,1,70,0,0
25469,-100,4,2,4,70,0,0
25732,-100,4,2,3,70,0,0
26259,-100,4,2,4,70,0,0
26522,-100,4,2,3,70,0,0
27574,-100,4,2,4,70,0,0
27838,-100,4,2,3,70,0,0
28101,-100,4,2,4,70,0,0
28232,-100,4,2,3,70,0,0
28627,-100,4,2,4,70,0,0
28759,-100,4,2,3,70,0,0
28890,-100,4,2,4,70,0,0
29153,-100,4,2,3,70,0,0
29548,-100,4,2,1,80,0,0
29680,-100,4,2,4,80,0,0
29943,-100,4,2,1,80,0,0
30074,-100,4,2,3,80,0,0
30338,-100,4,2,7,80,0,0
30601,-100,4,2,3,80,0,0
31653,-100,4,2,3,70,0,0
31785,-100,4,2,4,70,0,0
32048,-100,4,2,3,70,0,0
32311,-100,4,2,4,70,0,0
32443,-100,4,2,3,70,0,0
33759,-100,4,2,1,70,0,1
33890,-100,4,2,1,70,0,0
34285,-111.111111111111,4,2,1,70,0,0
35864,-90.9090909090909,4,2,7,90,0,0
35996,-90.9090909090909,4,2,1,90,0,0
36653,-90.9090909090909,4,2,3,90,0,0
37048,-90.9090909090909,4,2,1,90,0,0
37443,-90.9090909090909,4,2,7,90,0,0
37574,-90.9090909090909,4,2,7,90,0,0
37969,-90.9090909090909,4,2,1,90,0,0
38101,-90.9090909090909,4,2,1,90,0,0
38167,-90.9090909090909,4,2,1,10,0,0
38232,-90.9090909090909,4,2,1,90,0,0
38759,-90.9090909090909,4,2,7,90,0,0
38890,-90.9090909090909,4,2,7,90,0,0
39680,-90.9090909090909,4,2,1,90,0,0
39943,-90.9090909090909,4,2,3,90,0,0
40074,-90.9090909090909,4,2,1,90,0,0
40206,-90.9090909090909,4,2,3,90,0,0
40732,-90.9090909090909,4,2,1,90,0,0
40864,-90.9090909090909,4,2,3,90,0,0
41127,-90.9090909090909,4,2,1,90,0,0
41259,-90.9090909090909,4,2,7,90,0,0
41522,-90.9090909090909,4,2,7,90,0,0
41917,-90.9090909090909,4,2,3,90,0,0
42180,-90.9090909090909,4,2,3,90,0,0
42574,-90.9090909090909,4,2,3,90,0,0
43232,-90.9090909090909,4,2,1,90,0,0
43364,-90.9090909090909,4,2,7,90,0,0
44285,-90.9090909090909,4,2,1,90,0,0
44417,-90.9090909090909,4,2,4,90,0,0
44680,-90.9090909090909,4,2,3,90,0,0
45601,-90.9090909090909,4,2,7,90,0,0
45732,-90.9090909090909,4,2,1,90,0,0
46127,-90.9090909090909,4,2,3,90,0,0
46522,-90.9090909090909,4,2,7,90,0,0
46917,-90.9090909090909,4,2,1,90,0,0
47180,-90.9090909090909,4,2,7,90,0,0
47311,-90.9090909090909,4,2,1,90,0,0
47443,-90.9090909090909,4,2,1,95,0,0
47969,-90.9090909090909,4,2,5,100,0,0
48232,-100,4,2,1,100,0,0
48627,-100,4,2,1,10,0,0
48759,-100,4,2,1,60,0,0
49022,-111.111111111111,4,2,1,60,0,0
49548,-100,4,2,1,60,0,0
49811,-100,4,2,1,10,0,0
49943,-100,4,2,1,60,0,0
50206,-100,4,2,1,10,0,0
50338,-100,4,2,1,60,0,0
50469,-100,4,2,1,10,0,0
50601,-90.9090909090909,4,2,1,90,0,1
53496,-90.9090909090909,4,2,10,90,0,1
54285,-90.9090909090909,4,2,11,90,0,1
54417,-90.9090909090909,4,2,10,90,0,1
55074,-90.9090909090909,4,2,1,90,0,1
56917,-90.9090909090909,4,2,10,90,0,1
57180,-90.9090909090909,4,2,1,90,0,1
57969,-90.9090909090909,4,2,12,90,0,1
58101,-90.9090909090909,4,2,1,90,0,1
58496,-90.9090909090909,4,2,3,90,0,1
58627,-90.9090909090909,4,2,1,90,0,1
62706,-90.9090909090909,4,2,3,90,0,1
62838,-90.9090909090909,4,2,1,90,0,1
66917,-90.9090909090909,4,2,3,90,0,1
67311,-90.9090909090909,4,2,3,90,0,0
67443,-90.9090909090909,4,2,1,90,0,1
70338,-90.9090909090909,4,2,10,90,0,1
71127,-90.9090909090909,4,2,11,90,0,1
71259,-90.9090909090909,4,2,10,90,0,1
71916,-90.9090909090909,4,2,1,90,0,1
73759,-90.9090909090909,4,2,10,90,0,1
74022,-90.9090909090909,4,2,1,90,0,1
74811,-90.9090909090909,4,2,12,90,0,1
74943,-90.9090909090909,4,2,1,90,0,1
75338,-90.9090909090909,4,2,3,90,0,1
75469,-90.9090909090909,4,2,1,90,0,1
79548,-90.9090909090909,4,2,3,90,0,1
79680,-90.9090909090909,4,2,1,90,0,1
83627,-90.9090909090909,4,2,4,90,0,1
83759,-90.9090909090909,4,2,3,90,0,1
84153,-90.9090909090909,4,2,3,90,0,1
84285,-100,4,2,3,90,0,0

[Colours]
Combo1 : 157,233,249
Combo2 : 63,165,139
Combo3 : 58,147,175
Combo4 : 222,222,222
SliderBorder : 112,208,233
SliderTrackOverride : 222,222,222

[HitObjects]
13,286,75,5,0,3:0:0:0:
48,360,338,2,0,L|208:349,1,80.9999975280763,2|0,3:2|0:0,0:0:0:0:
165,372,732,2,0,P|175:294|167:293,1,80.9999975280763,2|0,3:2|0:0,0:0:0:0:
190,278,1127,2,0,P|147:212|175:206,2,121.499996292114,2|2|2,3:2|3:2|3:2,0:0:0:0:
225,207,2180,5,0,3:0:0:0:
181,142,2443,2,0,B|163:105|163:105|218:11,1,80.9999975280763,2|0,3:2|0:0,0:0:0:0:
198,33,2838,2,0,P|276:52|289:16,1,80.9999975280763,2|0,3:2|0:0,0:0:0:0:
287,27,3232,2,0,L|445:16,2,121.499996292114,2|2|2,3:2|3:2|3:2,0:0:0:0:
333,100,4285,5,0,3:0:0:0:
276,157,4548,2,0,P|348:202|333:234,1,80.9999975280763,2|0,3:2|3:0,0:0:0:0:
359,218,4943,2,0,P|378:306|395:305,1,80.9999975280763,2|0,3:2|0:0,0:0:0:0:
341,329,5338,2,0,P|427:282|416:261,2,121.499996292114,2|2|2,3:2|3:2|3:2,0:0:0:0:
264,303,6390,5,0,3:0:0:0:
206,361,6653,2,0,P|110:386|114:404,1,80.9999975280763,2|0,3:2|3:0,0:0:0:0:
105,366,7048,2,0,P|32:337|56:278,1,80.9999975280763,2|0,3:2|0:0,0:0:0:0:
25,306,7443,2,0,L|31:171,1,121.499996292114,2|0,3:2|0:0,0:0:0:0:
39,145,7969,2,0,P|-4:136|-6:145,2,40.4999987640381,2|2|2,3:2|3:2|3:2,0:0:0:0:
111,181,8496,5,12,3:2:0:0:
179,135,8759,2,0,P|198:84|210:84,2,45,10|4|8,3:0|0:3|0:2,0:0:0:0:
209,163,9153,2,0,P|222:256|210:256,1,90,10|0,3:2|0:0,0:0:0:0:
249,257,9548,2,0,L|91:268,1,90,10|8,3:2|0:0,0:0:0:0:
154,258,9943,1,2,3:2:0:0:
149,253,10075,1,10,3:0:0:0:
69,269,10338,2,0,P|24:269|16:285,2,45,10|2|8,3:2|3:2|3:2,0:0:0:0:
63,349,10864,6,0,P|17:329|26:308,2,45,10|4|8,3:0|0:3|0:0,0:0:0:0:
103,343,11259,2,0,P|200:326|187:293,1,90,10|0,3:2|0:0,0:0:0:0:
201,336,11653,2,0,L|359:325,1,90,10|8,3:2|0:0,0:0:0:0:
296,325,12048,1,10,3:2:0:0:
302,320,12180,1,10,3:2:0:0:
374,353,12443,2,0,B|393:366|393:366|436:342,1,45,10|10,3:2|3:2,0:0:0:0:
442,328,12706,5,6,3:2:0:0:
420,250,12969,2,0,P|368:244|361:251,2,45,10|4|8,3:0|0:3|0:0,0:0:0:0:
461,248,13364,2,0,P|441:153|426:158,1,90,10|0,3:2|0:0,0:0:0:0:
469,141,13759,2,0,B|461:150|461:150|314:160,1,90,10|8,3:2|0:0,0:0:0:0:
378,151,14153,1,2,3:2:0:0:
373,146,14285,1,6,3:0:0:0:
309,197,14548,2,0,P|262:174|271:151,2,45,10|2|8,3:2|3:2|3:2,0:0:0:0:
380,238,15074,6,0,L|464:232,2,45,10|4|8,3:0|0:3|0:0,0:0:0:0:
352,264,15469,2,0,B|329:303|329:303|391:421,1,90,10|0,3:2|0:0,0:0:0:0:
328,377,15864,2,0,P|251:350|227:386,1,90,10|2,3:2|0:3,0:0:0:0:
220,326,16259,1,10,3:2:0:0:
215,331,16390,2,0,L|131:337,3,45,10|10|10|10,1:2|3:2|3:2|3:2,0:0:0:0:
147,368,16917,5,6,3:2:0:0:
183,254,17311,1,2,0:0:0:0:
67,280,17706,2,0,P|48:201|57:201,2,121.499996292114,2|2|2,0:0|0:0|3:2,0:0:0:0:
113,213,18759,1,0,0:0:0:0:
183,254,19022,6,0,B|218:252|218:252|240:298|240:298|313:294,1,121.499996292114
378,362,19811,2,0,P|436:261|376:277,1,161.999995056153,2|2,0:0|0:0,0:0:0:0:
419,238,20601,2,0,L|259:249,1,80.9999975280763,2|0,3:2|0:0,0:0:0:0:
259,259,21127,6,0,B|250:238|250:238|282:182,2,45,14|10|10,3:1|3:2|3:2,0:0:0:0:
275,296,21522,1,10,3:0:0:0:
228,362,21785,2,0,B|219:353|219:353|72:363,1,90,2|10,3:1|3:0,0:0:0:0:
108,336,22180,1,2,3:0:0:0:
102,331,22311,2,0,B|81:291|81:291|127:215,1,90,2|2,3:0|3:0,0:0:0:0:
128,219,22706,2,0,L|212:213,2,45,10|10|2,3:2|3:0|3:0,0:0:0:0:
53,189,23232,6,0,B|34:202|34:202|-13:176,2,45,10|10|10,3:0|3:2|3:2,0:0:0:0:
78,157,23627,1,10,3:0:0:0:
35,88,23890,1,10,3:2:0:0:
84,24,24153,2,2,P|152:94|125:112,1,90,2|0,3:1|0:0,0:0:0:0:
158,87,24548,2,0,L|316:76,1,90,2|2,3:0|3:0,0:0:0:0:
253,86,24943,1,8,3:0:0:0:
258,91,25074,1,10,3:2:0:0:
332,56,25338,6,0,P|344:11|369:18,2,45,14|8|8,0:0|0:0|0:0,0:0:0:0:
339,96,25732,2,0,P|400:174|372:189,1,90,10|0,0:3|0:0,0:0:0:0:
401,165,26127,1,10,0:0:0:0:
395,169,26259,2,0,B|372:208|372:208|431:318,1,90,8|0,0:0|0:0,0:0:0:0:
424,273,26653,1,10,0:3:0:0:
368,333,26917,1,10,0:0:0:0:
371,339,27048,2,0,P|273:331|279:282,1,90,8|2,0:3|0:0,0:0:0:0:
274,321,27443,5,8,0:3:0:0:
207,363,27706,1,10,0:0:0:0:
201,358,27837,2,0,B|180:318|180:318|226:242,1,90,8|8,0:3|0:0,0:0:0:0:
232,251,28232,1,10,0:3:0:0:
227,246,28364,1,8,0:3:0:0:
222,241,28496,2,0,L|226:153,2,45,10|8|10,0:0|0:0|0:3,0:0:0:0:
301,217,29022,1,2,0:0:0:0:
281,140,29285,2,2,B|271:120|271:120|305:64,1,45,2|0,3:1|0:0,0:0:0:0:
277,60,29548,6,0,P|361:125|344:146,1,90,14|10,3:1|3:1,0:0:0:0:
374,108,29943,1,10,3:1:0:0:
379,113,30074,2,0,L|375:201,1,45,2|2,3:1|3:1,0:0:0:0:
459,117,30338,2,0,L|455:205,1,45,10|10,3:1|3:1,0:0:0:0:
479,210,30601,1,2,0:0:0:0:
472,210,30732,2,0,B|449:249|449:249|508:359,1,90,2|2,3:1|3:1,0:0:0:0:
489,325,31127,2,0,P|412:347|412:273,1,90,10|2,3:2|0:0,0:0:0:0:
374,279,31653,6,0,P|383:225|395:223,2,45,2|8|8,3:0|0:0|3:2,0:0:0:0:
345,308,32048,2,0,L|187:319,1,90,10|8,0:3|0:0,0:0:0:0:
226,343,32443,1,10,3:0:0:0:
147,328,32706,1,10,3:2:0:0:
143,334,32838,2,0,B|103:356|103:356|26:304,1,90,2|2,3:0|3:1,0:0:0:0:
48,295,33232,2,0,L|52:207,3,45,10|2|8|8,0:0|3:0|0:3|0:3,0:0:0:0:
73,216,33759,6,0,B|92:224|92:224|123:179|123:179|223:168,1,135,12|8,3:2|3:2,0:0:0:0:
219,191,34285,2,2,P|165:250|152:225,1,121.499996292114,2|2,3:1|3:1,0:0:0:0:
107,142,35074,2,2,B|79:88|79:88|127:6,1,121.499996292114,2|2,3:1|3:1,0:0:0:0:
225,7,35864,6,2,P|272:31|255:56,1,49.5000015106202,14|0,3:1|0:0,0:0:0:0:
233,85,36127,1,0,0:0:0:0:
237,91,36259,2,2,P|318:69|333:157,1,99.0000030212403,14|0,3:1|0:0,0:0:0:0:
369,137,36653,2,0,P|365:156|376:166,2,24.7500007553101,8|0|8,0:0|3:0|0:0,0:0:0:0:
394,106,36917,1,8,0:0:0:0:
401,102,37048,2,0,P|454:170|431:185,1,99.0000030212403,12|8,0:0|0:0,0:0:0:0:
426,223,37443,1,10,3:1:0:0:
420,219,37574,2,0,B|408:241|408:241|431:288,1,49.5000015106202,6|4,3:0|3:0,0:0:0:0:
439,298,37838,6,0,P|366:372|395:387,1,99.0000030212403,6|2,3:0|3:1,0:0:0:0:
354,354,38232,1,2,3:1:0:0:
262,336,38496,2,0,P|267:365|281:366,2,24.7500007553101,2|2|2,3:1|3:1|3:1,0:0:0:0:
238,305,38759,1,10,3:1:0:0:
232,309,38890,2,2,L|72:320,1,99.0000030212403,10|0,3:1|0:0,0:0:0:0:
110,348,39285,2,2,P|35:314|99:280,1,99.0000030212403,10|10,3:1|3:1,0:0:0:0:
45,285,39680,1,10,3:1:0:0:
117,225,39943,1,10,3:1:0:0:
123,230,40074,6,0,P|123:174|101:170,1,49.5000015106202,12|8,0:1|3:1,0:0:0:0:
121,149,40338,2,2,P|191:121|121:75,1,99.0000030212403,10|10,3:1|3:1,0:0:0:0:
190,104,40732,1,10,3:1:0:0:
188,97,40864,1,8,0:0:0:0:
270,52,41127,1,10,3:1:0:0:
274,57,41259,2,0,L|358:51,1,49.5000015106202,10|10,3:1|3:1,0:0:0:0:
357,75,41522,2,0,P|428:9|447:54,2,99.0000030212403,10|6|8,3:0|3:0|3:0,0:0:0:0:
306,135,42180,6,0,P|356:150|371:129,1,49.5000015106202,14|10,3:1|3:1,0:0:0:0:
387,149,42443,1,10,3:1:0:0:
392,155,42574,2,0,B|367:198|367:198|418:293,1,99.0000030212403,8|0,0:0|3:0,0:0:0:0:
422,266,42969,1,8,0:0:0:0:
359,333,43232,1,10,3:1:0:0:
354,327,43364,2,0,P|300:355|301:369,1,49.5000015106202,10|10,3:1|3:1,0:0:0:0:
281,364,43627,2,8,P|186:326|179:359,1,99.0000030212403,10|10,3:1|3:0,0:0:0:0:
158,257,44022,1,8,0:1:0:0:
154,264,44153,1,8,0:1:0:0:
150,271,44285,6,0,L|66:277,2,49.5000015106202,14|8|8,3:1|0:0|0:0,0:0:0:0:
224,301,44680,2,0,B|200:258|200:258|245:185,1,99.0000030212403,8|8,0:0|0:1,0:0:0:0:
223,137,45074,1,8,0:0:0:0:
219,131,45206,2,0,L|265:127,2,24.7500007553101,8|8|8,0:0|0:0|0:0,0:0:0:0:
157,178,45469,1,8,0:3:0:0:
153,172,45601,2,0,B|155:133|155:133|151:128|151:128|159:129|159:129|155:123|155:123|160:37,1,99.0000030212403,10|4,3:1|0:3,0:0:0:0:
141,49,45996,2,2,P|120:38|125:122,1,99.0000030212403,10|0,0:1|0:0,0:0:0:0:
76,157,46390,5,6,3:1:0:0:
70,162,46522,2,0,L|24:166,2,24.7500007553101,8|8|10,0:1|0:1|3:1,0:0:0:0:
101,236,46785,1,10,3:1:0:0:
105,242,46917,2,0,L|101:330,1,49.5000015106202,10|10,3:1|3:1,0:0:0:0:
185,245,47180,2,0,L|181:333,1,49.5000015106202,10|10,3:0|3:1,0:0:0:0:
226,361,47443,5,2,3:1:0:0:
273,376,47574,1,2,3:1:0:0:
317,353,47706,1,10,3:1:0:0:
332,305,47838,1,10,3:1:0:0:
309,262,47969,1,8,0:0:0:0:
303,141,48232,6,2,B|311:129|328:127|328:127|294:92|204:133|243:220|286:216,1,180,14|2,3:1|0:0,3:3:0:0:
309,262,49022,2,0,L|442:253,1,80.9999975280763,2|2,0:0|0:0,0:0:0:0:
444,317,49548,2,0,P|503:376|484:391,1,90,2|0,0:0|0:0,0:0:0:0:
502,368,49943,2,0,L|508:233,1,135,2|2,0:0|0:0,0:0:0:0:
481,83,50601,6,0,P|428:151|451:166,1,99.0000030212403,12|10,0:0|0:3,0:0:0:0:
439,168,50996,1,4,0:3:0:0:
443,174,51127,2,0,L|282:184,1,99.0000030212403,8|8,0:0|0:0,0:0:0:0:
265,129,51653,1,8,0:0:0:0:
261,223,51917,1,6,0:3:0:0:
266,229,52048,1,4,0:3:0:0:
271,235,52180,2,0,B|246:278|246:278|297:373,1,99.0000030212403,10|4,0:0|0:3,0:0:0:0:
300,346,52574,2,0,B|240:334|265:414|174:360,1,99.0000030212403,2|0,0:0|0:0,0:0:0:0:
176,358,52969,2,0,P|120:298|171:287,1,99.0000030212403,6|8,0:3|0:0,0:0:0:0:
116,308,53364,1,4,0:3:0:0:
121,301,53496,1,2,3:2:0:0:
182,231,53759,6,0,B|189:217|189:217|176:188|176:188|187:41,1,99.0000030212403,10|6,3:2|3:0,0:0:0:0:
161,102,54153,1,8,0:0:0:0:
156,96,54285,2,0,L|72:102,1,49.5000015106202,10|8,3:2|0:0,0:0:0:0:
158,16,54548,2,0,L|74:22,1,49.5000015106202,6|8,3:0|0:3,0:0:0:0:
226,58,54811,6,0,P|311:126|289:148,1,99.0000030212403,14|8,3:2|0:3,0:0:0:0:
332,107,55206,1,4,0:3:0:0:
330,114,55338,1,10,0:0:0:0:
261,177,55601,1,12,0:3:0:0:
254,181,55732,2,0,B|229:224|229:224|280:319,1,99.0000030212403,2|0,0:0|0:0,0:0:0:0:
282,294,56127,1,2,0:3:0:0:
346,363,56390,2,0,P|412:337|346:278,1,99.0000030212403,10|10,0:0|0:3,0:0:0:0:
396,283,56785,1,4,0:3:0:0:
391,277,56917,6,0,L|240:284,1,99.0000030212403,10|4,0:0|0:3,0:0:0:0:
287,288,57311,1,4,0:3:0:0:
282,294,57443,1,8,0:0:0:0:
226,369,57706,1,6,0:3:0:0:
162,300,57969,2,0,B|102:288|127:368|36:314,1,99.0000030212403,10|6,0:0|0:3,0:0:0:0:
44,306,58364,1,8,0:0:0:0:
39,300,58496,2,0,B|28:278|28:278|55:232,1,49.5000015106202,8|8,0:0|0:0,0:0:0:0:
72,184,58759,1,6,0:3:0:0:
78,189,58891,1,8,0:3:0:0:
84,194,59023,6,0,P|122:112|84:102,1,99.0000030212403,14|10,0:0|0:3,0:0:0:0:
119,95,59417,1,4,0:3:0:0:
124,101,59548,2,0,B|133:110|133:110|267:101,1,99.0000030212403,10|4,0:0|0:3,0:0:0:0:
252,127,59943,2,0,B|312:115|287:195|378:141,1,99.0000030212403,2|0,0:0|0:0,0:0:0:0:
372,135,60338,1,6,3:3:0:0:
377,141,60469,1,4,0:3:0:0:
382,147,60601,1,8,3:2:0:0:
462,198,60864,1,8,3:0:0:0:
378,241,61127,6,0,P|385:296|405:296,1,49.5000015106202,8|0,3:2|0:0,0:0:0:0:
386,321,61390,2,0,P|305:349|305:269,1,99.0000030212403,6|8,0:3|0:0,0:0:0:0:
291,314,61785,1,6,0:3:0:0:
219,255,62048,1,0,0:0:0:0:
213,260,62180,2,0,L|206:411,1,99.0000030212403,10|4,3:2|0:3,0:0:0:0:
175,380,62574,1,10,0:3:0:0:
173,373,62706,2,0,P|120:358|114:380,1,49.5000015106202,8|4,0:0|0:3,0:0:0:0:
62,324,62969,1,10,0:3:0:0:
55,327,63101,1,4,0:3:0:0:
48,330,63232,6,0,B|24:287|24:287|69:214,1,99.0000030212403,14|8,3:2|0:3,0:0:0:0:
42,206,63627,1,4,0:3:0:0:
45,213,63759,2,0,P|120:175|68:119,1,99.0000030212403,8|4,3:2|0:3,0:0:0:0:
156,88,64285,2,0,L|160:0,2,49.5000015106202,8|0|4,3:2|0:0|0:3,0:0:0:0:
180,120,64680,1,4,0:3:0:0:
186,125,64811,2,0,B|246:113|221:193|312:139,1,99.0000030212403,8|6,0:0|0:3,0:0:0:0:
324,78,65338,6,0,P|239:49|236:83,2,99.0000030212403,10|4|8,3:2|0:3|3:2,0:0:0:0:
341,114,65996,2,0,B|316:157|316:157|367:252,1,99.0000030212403,0|4,3:0|0:3,0:0:0:0:
324,237,66390,2,0,L|475:230,1,99.0000030212403,10|4,3:2|0:3,0:0:0:0:
431,235,66785,1,10,0:0:0:0:
439,237,66917,1,8,0:0:0:0:
508,315,67180,1,10,0:0:0:0:
512,323,67311,1,8,0:0:0:0:
511,332,67443,6,0,P|426:299|454:278,1,99.0000030212403,12|10,0:0|0:3,0:0:0:0:
422,318,67838,1,4,0:3:0:0:
419,311,67969,2,0,L|268:318,1,99.0000030212403,8|8,0:0|0:0,0:0:0:0:
242,369,68496,1,8,0:0:0:0:
188,290,68759,1,6,0:3:0:0:
190,283,68890,1,4,0:3:0:0:
192,276,69022,2,0,P|116:293|171:359,1,99.0000030212403,10|4,0:0|0:3,0:0:0:0:
126,339,69417,2,0,B|66:327|91:407|0:353,1,99.0000030212403,2|0,0:0|0:0,0:0:0:0:
11,341,69811,1,6,0:3:0:0:
47,254,70074,1,10,0:0:0:0:
44,247,70206,1,4,0:3:0:0:
41,240,70338,1,2,3:2:0:0:
23,148,70601,6,0,B|37:142|37:142|64:163|64:163|207:155,1,99.0000030212403,10|6,3:2|3:0,0:0:0:0:
146,138,70996,1,8,0:0:0:0:
152,133,71127,2,0,L|148:45,1,49.5000015106202,10|8,3:2|0:0,0:0:0:0:
232,129,71390,2,0,L|228:41,1,49.5000015106202,6|8,3:0|0:3,0:0:0:0:
195,200,71653,6,0,B|170:243|170:243|221:338,1,99.0000030212403,14|8,3:2|0:3,0:0:0:0:
181,327,72048,1,4,0:3:0:0:
185,331,72180,2,0,P|288:360|284:379,1,99.0000030212403,10|12,0:0|0:3,0:0:0:0:
288,353,72574,2,0,L|439:346,1,99.0000030212403,2|0,0:0|0:0,0:0:0:0:
422,367,72969,1,2,0:3:0:0:
428,362,73101,1,4,0:3:0:0:
434,357,73232,1,8,0:0:0:0:
498,287,73496,1,10,0:3:0:0:
406,267,73759,6,0,B|382:224|382:224|427:151,1,99.0000030212403,10|4,0:0|0:3,0:0:0:0:
416,178,74153,1,4,0:3:0:0:
424,175,74285,1,8,0:0:0:0:
507,132,74548,1,6,0:3:0:0:
429,81,74811,2,0,L|278:88,1,99.0000030212403,10|4,0:0|0:3,0:0:0:0:
306,117,75206,1,10,0:0:0:0:
310,123,75338,2,0,P|249:123|244:101,1,49.5000015106202,8|8,0:0|0:0,0:0:0:0:
220,75,75601,1,6,0:3:0:0:
214,80,75732,1,8,0:3:0:0:
208,85,75864,6,0,L|201:236,1,99.0000030212403,14|10,0:0|0:3,0:0:0:0:
225,217,76259,1,4,0:3:0:0:
220,211,76390,2,0,P|160:271|226:293,1,99.0000030212403,10|4,0:0|0:3,0:0:0:0:
166,301,76785,2,0,B|226:289|201:369|292:315,1,99.0000030212403,2|0,0:0|0:0,0:0:0:0:
284,306,77180,1,6,3:3:0:0:
289,312,77311,1,4,0:3:0:0:
294,318,77443,1,8,3:2:0:0:
375,366,77706,1,8,3:0:0:0:
445,303,77969,6,0,P|451:253|414:244,1,49.5000015106202,8|0,3:2|0:0,0:0:0:0:
437,223,78232,2,0,B|395:250|395:250|330:203,1,99.0000030212403,6|8,0:3|0:0,0:0:0:0:
340,185,78627,1,6,0:3:0:0:
262,237,78890,1,0,0:0:0:0:
258,230,79022,2,0,L|265:79,1,99.0000030212403,10|4,3:2|0:3,0:0:0:0:
242,97,79417,1,10,0:3:0:0:
239,102,79548,2,0,P|182:102|172:72,1,49.5000015106202,8|4,0:0|0:3,0:0:0:0:
129,64,79811,1,10,0:3:0:0:
131,57,79942,1,4,0:3:0:0:
133,50,80074,6,0,P|57:67|112:133,1,99.0000030212403,14|8,3:2|0:3,0:0:0:0:
14,73,80469,1,4,0:3:0:0:
8,77,80601,2,0,P|17:151|83:111,1,99.0000030212403,8|4,3:2|0:3,0:0:0:0:
114,192,81127,2,0,L|198:186,2,49.5000015106202,8|0|4,3:2|0:0|0:3,0:0:0:0:
91,225,81522,1,4,0:3:0:0:
94,232,81653,2,0,P|151:315|112:333,1,99.0000030212403,8|6,0:0|0:3,0:0:0:0:
242,334,82180,6,0,L|249:183,2,99.0000030212403,10|4|8,3:2|0:3|3:2,0:0:0:0:
266,366,82838,2,0,P|336:336|281:282,1,99.0000030212403,0|4,3:0|0:3,0:0:0:0:
324,289,83232,1,10,3:2:0:0:
413,259,83496,2,0,L|417:171,1,49.5000015106202,4|10,0:3|0:0,0:0:0:0:
394,133,83759,5,8,0:0:0:0:
353,160,83890,1,8,0:0:0:0:
304,151,84022,1,10,0:0:0:0:
276,110,84153,2,0,P|295:60|321:66,1,49.5000015106202,8|0,3:2|0:0,0:0:0:0:
