osu file format v14

[General]
AudioFilename: Yamato KasaiMiliInhibition [Re -Master].mp3
AudioLeadIn: 0
PreviewTime: 281173
Countdown: 0
SampleSet: None
StackLeniency: 0.5
Mode: 0
LetterboxInBreaks: 1
WidescreenStoryboard: 0

[Editor]
Bookmarks: 42232,44547,55916,379278
DistanceSpacing: 1.2
BeatDivisor: 6
GridSize: 4
TimelineZoom: 1.999999

[Metadata]
Title:Inhibition [Re -Master]
TitleUnicode:Inhibition [Re -Master]
Artist:Yamato Kasai/Mili
ArtistUnicode:Yamato Kasai/Mili
Creator:[-naniwa-]
Version:PaRaDogi's Symphonie
Source:
Tags:Inhibition
BeatmapID:1724094
BeatmapSetID:698221

[Difficulty]
HPDrainRate:5
CircleSize:3.4
OverallDifficulty:8
ApproachRate:9.3
SliderMultiplier:1.6
SliderTickRate:1

[Events]
//Background and Video events
0,0,"Konachan-228.jpg",0,0
//Break Periods
2,241847,246093
2,344320,345461
//Storyboard Layer 0 (Background)
//Storyboard Layer 1 (Fail)
//Storyboard Layer 2 (Pass)
//Storyboard Layer 3 (Foreground)
//Storyboard Sound Samples

[TimingPoints]
969,631.578947368421,3,2,1,60,1,0
16232,-333.333333333333,4,2,1,60,0,0
21916,-333.333333333333,4,2,1,60,0,0
25639,-333.333333333333,4,2,1,60,0,0
27600,-333.333333333333,4,2,1,60,0,0
29495,-333.333333333333,4,2,1,60,0,0
31284,-333.333333333333,4,2,1,60,0,0
32653,-200,4,2,1,60,0,0
41495,-500,4,2,1,60,0,0
47705,-200,4,2,1,60,0,0
51811,-200,4,2,1,5,0,0
52126,-200,4,2,1,50,0,0
53705,-200,4,2,1,5,0,0
54021,-200,4,2,1,50,0,0
55705,-200,4,2,1,5,0,0
55916,421.052631578947,3,2,1,60,1,0
55916,-133.333333333333,4,2,1,60,0,0
61389,-100,4,2,1,60,0,0
61600,-83.3333333333333,4,2,1,60,0,0
61810,-66.6666666666667,4,2,1,60,0,0
62021,-133.333333333333,4,2,1,60,0,0
66021,421.052631578947,4,2,1,60,1,0
66021,-100,4,2,1,60,0,0
77810,421.052631578947,3,2,1,80,1,1
82652,-83.3333333333333,4,2,1,80,0,1
84967,-50,4,2,1,80,0,1
85704,-83.3333333333333,4,2,1,80,0,1
86652,-50,4,2,1,80,0,1
88336,-83.3333333333333,4,2,1,80,0,1
89178,-50,4,2,1,80,0,1
89599,-83.3333333333333,4,2,1,80,0,1
90020,-50,4,2,1,80,0,1
90441,-83.3333333333333,4,2,1,80,0,1
91704,-50,4,2,1,80,0,1
91915,-83.3333333333333,4,2,1,80,0,1
94231,-50,4,2,1,80,0,1
94441,-83.3333333333333,4,2,1,80,0,1
95073,-50,4,2,1,80,0,1
95809,-83.3333333333333,4,2,1,80,0,1
96757,-50,4,2,1,80,0,1
96967,-83.3333333333333,4,2,1,80,0,1
97388,-50,4,2,1,80,0,1
98862,-83.3333333333333,4,2,1,80,0,1
99283,-50,4,2,1,80,0,1
99494,-83.3333333333333,4,2,1,80,0,1
100125,-50,4,2,1,80,0,1
102862,-333.333333333333,4,2,1,60,0,0
103915,631.578947368421,3,2,1,60,1,0
103915,-333.333333333333,4,2,1,60,0,0
108020,-200,4,2,1,60,0,0
119072,631.578947368421,4,2,1,60,1,0
119072,-1000,4,2,1,5,0,0
126019,-133.333333333333,4,2,1,5,0,0
128545,-83.3333333333333,4,2,1,30,0,0
129177,-83.3333333333333,4,2,1,50,0,0
141808,421.052631578947,4,2,1,80,1,1
141808,-50,4,2,1,80,0,1
150229,-50,4,2,1,80,0,1
155281,-83.3333333333333,4,2,1,80,0,1
156965,421.052631578947,3,2,1,60,1,0
156965,-50,4,2,1,60,0,0
177175,631.578947368421,4,2,1,60,1,0
177175,-133.333333333333,4,2,1,60,0,0
179701,-83.3333333333333,4,2,1,60,0,0
180332,-200,4,2,1,60,0,0
182227,-83.3333333333333,4,2,1,60,0,0
199911,-200,4,2,1,60,0,0
201175,-83.3333333333333,4,2,1,60,0,0
215069,421.052631578947,3,2,1,80,1,1
225174,-100,4,2,1,5,0,0
226016,-100,4,2,1,50,0,0
226437,-100,4,2,1,5,0,0
227279,-100,4,2,1,50,0,0
227700,-100,4,2,1,5,0,0
228542,-100,4,2,1,50,0,0
230226,-100,4,2,1,5,0,0
231069,-100,4,2,1,50,0,0
231490,-100,4,2,1,5,0,0
232332,-100,4,2,1,50,0,0
232753,-100,4,2,1,5,0,0
233595,-100,4,2,1,50,0,0
246647,-200,4,2,1,5,0,0
266858,421.052631578947,4,2,1,60,1,0
266858,-83.3333333333333,4,2,1,80,0,1
274436,-66.6666666666667,4,2,1,80,0,1
277805,-66.6666666666667,4,2,1,5,0,1
277910,-66.6666666666667,4,2,1,80,0,1
278647,421.052631578947,3,2,1,80,1,1
278647,-83.3333333333333,4,2,1,80,0,1
283910,-83.3333333333333,4,2,1,5,0,1
284015,-83.3333333333333,4,2,1,80,0,1
285804,-50,4,2,1,80,0,1
286225,-83.3333333333333,4,2,1,80,0,1
288541,-50,4,2,1,80,0,1
288752,-83.3333333333333,4,2,1,80,0,1
290857,-50,4,2,1,80,0,1
291594,-83.3333333333333,4,2,1,80,0,1
292541,-50,4,2,1,80,0,1
294225,-83.3333333333333,4,2,1,80,0,1
295910,-50,4,2,1,80,0,1
296647,-83.3333333333333,4,2,1,80,0,1
300962,-50,4,2,1,80,0,1
303910,-200,4,2,1,60,0,0
307278,-83.3333333333333,4,2,1,60,0,0
346015,421.052631578947,4,2,1,10,1,0
346015,-133.333333333333,4,2,1,50,0,0
346646,-133.333333333333,4,2,1,5,0,0
346857,-133.333333333333,4,2,1,50,0,0
347488,-133.333333333333,4,2,1,5,0,0
347699,-133.333333333333,4,2,1,50,0,0
348330,-133.333333333333,4,2,1,5,0,0
348541,-133.333333333333,4,2,1,50,0,0
349067,-133.333333333333,4,2,1,5,0,0
349383,-133.333333333333,4,2,1,50,0,0
350015,-133.333333333333,4,2,1,5,0,0
350225,-133.333333333333,4,2,1,50,0,0
350857,-133.333333333333,4,2,1,5,0,0
351067,-133.333333333333,4,2,1,50,0,0
351488,-133.333333333333,4,2,1,5,0,0
352330,-133.333333333333,4,2,1,50,0,0
352541,-133.333333333333,4,2,1,5,0,0
352751,-133.333333333333,4,2,1,50,0,0
353383,-133.333333333333,4,2,1,5,0,0
353593,-133.333333333333,4,2,1,50,0,0
353804,-133.333333333333,4,2,1,5,0,0
354015,-133.333333333333,4,2,1,50,0,0
354225,-133.333333333333,4,2,1,5,0,0
354436,-133.333333333333,4,2,1,50,0,0
355067,-133.333333333333,4,2,1,5,0,0
355278,-133.333333333333,4,2,1,50,0,0
355488,-133.333333333333,4,2,1,5,0,0
355699,-133.333333333333,4,2,1,50,0,0
355909,-133.333333333333,4,2,1,5,0,0
356120,-133.333333333333,4,2,1,50,0,0
356751,-133.333333333333,4,2,1,5,0,0
356962,-133.333333333333,4,2,1,50,0,0
357172,-133.333333333333,4,2,1,5,0,0
357383,-133.333333333333,4,2,1,50,0,0
357593,-133.333333333333,4,2,1,5,0,0
357804,-133.333333333333,4,2,1,50,0,0
358436,-133.333333333333,4,2,1,5,0,0
358646,-133.333333333333,4,2,1,50,0,0
358857,-133.333333333333,4,2,1,5,0,0
359067,-133.333333333333,4,2,1,50,0,0
359278,-133.333333333333,4,2,1,5,0,0
362857,-133.333333333333,4,2,1,50,0,0
364541,-83.3333333333333,4,2,1,60,0,0
368015,-83.3333333333333,4,2,1,5,0,0
368120,-83.3333333333333,4,2,1,60,0,0
369594,631.578947368421,4,2,1,60,1,0
405804,631.578947368421,4,2,1,5,1,0
408330,315.789473684211,4,2,1,80,1,1
408330,-100,4,2,1,60,0,1
413382,-40,4,2,1,60,0,1
413540,-40,4,2,1,5,0,1
413698,-40,4,2,1,60,0,1
415908,-83.3333333333333,4,2,1,50,0,1
417803,-66.6666666666667,4,2,1,50,0,1
418119,-83.3333333333333,4,2,1,50,0,1
418435,-100,4,2,1,60,0,1
429803,-133.333333333333,4,2,1,30,0,1
430119,-100,4,2,1,50,0,1
430435,-83.3333333333333,4,2,1,80,0,1
430751,-66.6666666666667,4,2,1,100,0,1
431066,-100,4,2,1,60,0,1
434856,-333.333333333333,4,2,1,5,0,0
436119,-666.666666666667,4,2,1,5,0,0

[HitObjects]
148,64,16232,6,0,L|140:116,2,47.9999985351563
216,196,18126,6,0,L|236:152,2,47.9999985351563
292,264,20021,6,0,L|340:252,2,47.9999985351563
360,312,21916,5,0,0:0:0:0:
336,332,22547,5,0,0:0:0:0:
308,344,23179,5,0,0:0:0:0:
260,332,23705,6,0,L|236:288,2,47.9999985351563
156,232,25600,6,0,L|204:216,2,47.9999985351563
264,112,27495,6,0,L|212:120,2,47.9999985351563
320,44,29495,6,0,L|356:80,2,47.9999985351563
428,52,31284,6,0,L|440:108,1,55.9999982910157
420,184,32337,1,0,0:0:0:0:
464,256,32653,6,0,L|384:300,1,80
320,268,33600,1,0,0:0:0:0:
256,216,33916,2,0,L|168:236,1,80
112,188,34758,1,0,0:0:0:0:
48,136,35179,6,0,L|82:52,1,80
164,40,36126,1,0,0:0:0:0:
240,8,36442,2,0,L|260:92,1,80
328,116,37284,1,0,0:0:0:0:
360,192,37705,2,0,L|280:220,1,80
212,184,38653,1,0,0:0:0:0:
152,240,38969,6,0,L|160:320,1,80
236,332,39916,1,0,0:0:0:0:
308,288,40232,2,0,L|396:300,1,80
416,224,41179,1,0,0:0:0:0:
344,84,41495,2,0,L|320:104,1,32
244,88,42232,5,0,0:0:0:0:
224,112,42337,1,0,0:0:0:0:
216,144,42442,1,0,0:0:0:0:
220,176,42547,1,0,0:0:0:0:
232,204,42653,6,0,P|244:220|308:232,1,85.3333333333333
344,160,44547,2,0,P|364:172|384:232,1,85.3333333333333
448,280,46442,2,0,P|436:296|416:300,1,37.3333333333333
380,316,47495,5,0,0:0:0:0:
440,248,47705,2,0,L|452:184,1,53.3333333333333
432,88,48337,6,0,B|336:136|336:64|232:96,1,200,4|0,0:0|0:0,0:0:0:0:
136,32,50232,2,4,P|112:104|152:236,1,200
104,320,52126,2,4,B|155:330|155:330|255:303|255:303|312:316,1,200
380,364,54021,2,4,B|404:332|404:332|408:224|336:232|360:160,1,213.333333333333
436,108,55916,5,0,0:0:0:0:
360,44,56126,1,0,0:0:0:0:
280,128,56337,5,0,0:0:0:0:
272,28,56547,1,0,0:0:0:0:
152,124,56758,5,0,0:0:0:0:
188,36,56968,1,0,0:0:0:0:
80,36,57179,6,0,L|60:64,1,30.0000011444092
52,144,57389,1,0,0:0:0:0:
88,228,57600,1,0,0:0:0:0:
64,312,57810,1,0,0:0:0:0:
144,288,58021,2,0,P|180:284|192:288,1,30.0000011444092
248,224,58231,2,0,P|280:256|284:268,1,30.0000011444092
272,328,58442,5,0,0:0:0:0:
368,348,58652,1,0,0:0:0:0:
352,252,58863,5,0,0:0:0:0:
440,292,59073,1,0,0:0:0:0:
436,192,59284,5,0,0:0:0:0:
352,252,59494,1,0,0:0:0:0:
348,160,59705,5,0,0:0:0:0:
400,80,59916,1,0,0:0:0:0:
304,80,60126,2,0,P|268:84|260:88,1,30.0000011444092
208,28,60337,2,0,P|192:56|192:68,1,30.0000011444092
200,136,60547,5,0,0:0:0:0:
280,188,60758,1,0,0:0:0:0:
196,232,60968,5,0,0:0:0:0:
112,280,61179,1,0,0:0:0:0:
120,192,61389,2,0,P|112:140|116:124,1,40
180,100,61600,2,0,P|220:64|236:56,1,47.9999985351563
292,100,61810,2,0,P|352:104|380:116,1,60.0000022888184
368,188,62021,5,0,0:0:0:0:
384,276,62231,2,0,P|376:312|368:328,1,30.0000011444092
296,332,62442,5,0,0:0:0:0:
216,280,62652,2,0,P|200:236|200:228,1,30.0000011444092
132,212,62863,2,0,P|152:180|160:172,1,30.0000011444092
112,112,63073,2,0,L|156:96,1,30.0000011444092
156,24,63284,2,0,P|192:24|208:28,1,30.0000011444092
228,96,63494,5,0,0:0:0:0:
256,84,63600,1,0,0:0:0:0:
296,108,63705,5,0,0:0:0:0:
324,116,63810,1,0,0:0:0:0:
364,88,63915,5,0,0:0:0:0:
404,68,64021,1,0,0:0:0:0:
448,96,64126,5,0,0:0:0:0:
480,124,64231,1,0,0:0:0:0:
472,176,64337,6,0,P|472:212|480:228,1,30.0000011444092
424,288,64547,1,0,0:0:0:0:
440,312,64652,1,0,0:0:0:0:
408,352,64758,5,0,0:0:0:0:
368,344,64863,1,0,0:0:0:0:
328,312,64968,5,0,0:0:0:0:
300,324,65073,1,0,0:0:0:0:
256,304,65179,5,0,0:0:0:0:
228,288,65284,1,0,0:0:0:0:
180,312,65389,5,0,0:0:0:0:
136,328,65494,1,0,0:0:0:0:
96,308,65600,5,0,0:0:0:0:
72,284,65705,1,0,0:0:0:0:
28,276,65810,5,0,0:0:0:0:
40,240,65915,1,0,0:0:0:0:
64,212,66021,2,4,P|108:192|116:192,1,40
128,104,66231,5,0,0:0:0:0:
128,104,66336,1,0,0:0:0:0:
128,104,66442,2,0,P|168:88|180:88,1,40
208,16,66652,5,0,0:0:0:0:
208,16,66757,1,0,0:0:0:0:
208,16,66863,2,0,P|244:40|252:56,1,40
240,120,67073,5,0,0:0:0:0:
268,116,67178,1,0,0:0:0:0:
304,144,67284,5,0,0:0:0:0:
336,132,67389,1,0,0:0:0:0:
380,148,67494,5,0,0:0:0:0:
388,176,67599,1,0,0:0:0:0:
428,200,67705,5,0,0:0:0:0:
448,224,67810,1,0,0:0:0:0:
448,264,67915,5,0,0:0:0:0:
464,296,68021,1,0,0:0:0:0:
440,332,68126,5,0,0:0:0:0:
408,324,68231,1,0,0:0:0:0:
372,336,68336,5,0,0:0:0:0:
348,356,68442,1,0,0:0:0:0:
312,344,68547,5,0,0:0:0:0:
284,328,68652,1,0,0:0:0:0:
248,340,68757,5,0,0:0:0:0:
212,356,68863,1,0,0:0:0:0:
176,332,68968,5,0,0:0:0:0:
156,296,69073,1,0,0:0:0:0:
112,300,69178,5,0,0:0:0:0:
92,264,69284,1,0,0:0:0:0:
100,220,69389,2,4,P|140:192|164:184,1,40
208,224,69599,5,0,0:0:0:0:
232,204,69705,1,0,0:0:0:0:
248,160,69810,5,0,0:0:0:0:
244,128,69915,1,0,0:0:0:0:
280,92,70021,5,0,0:0:0:0:
316,96,70126,1,0,0:0:0:0:
352,68,70231,5,0,0:0:0:0:
348,28,70336,1,0,0:0:0:0:
308,8,70442,5,0,0:0:0:0:
264,20,70547,1,0,0:0:0:0:
220,12,70652,5,0,0:0:0:0:
184,0,70757,1,0,0:0:0:0:
144,12,70863,5,0,0:0:0:0:
120,40,70968,1,0,0:0:0:0:
80,44,71073,5,0,0:0:0:0:
48,24,71178,1,0,0:0:0:0:
16,48,71284,5,0,0:0:0:0:
20,88,71389,1,0,0:0:0:0:
16,136,71494,6,0,L|0:172,1,40
12,204,71705,2,0,L|24:252,1,40
20,280,71915,2,0,L|8:320,1,40
108,272,72126,6,0,L|128:228,1,40
232,164,72336,2,0,L|228:224,1,40
132,124,72547,2,0,L|152:72,1,40
256,12,72757,6,4,P|260:72|256:88,1,40
232,164,72968,5,0,0:0:0:0:
260,184,73073,1,0,0:0:0:0:
268,232,73178,5,0,0:0:0:0:
252,276,73284,1,0,0:0:0:0:
284,316,73389,5,0,0:0:0:0:
324,308,73494,1,0,0:0:0:0:
360,332,73599,5,0,0:0:0:0:
392,352,73705,1,0,0:0:0:0:
424,328,73810,5,0,0:0:0:0:
424,288,73915,1,0,0:0:0:0:
452,256,74021,5,0,0:0:0:0:
448,216,74126,1,0,0:0:0:0:
408,184,74231,5,0,0:0:0:0:
408,184,74336,1,0,0:0:0:0:
408,184,74442,2,0,P|396:136|400:128,1,40
324,104,74652,5,0,0:0:0:0:
324,104,74757,1,0,0:0:0:0:
324,104,74863,2,0,P|356:68|368:68,1,40
420,12,75073,5,0,0:0:0:0:
420,12,75178,1,0,0:0:0:0:
420,12,75284,2,0,P|436:52|436:68,1,40
416,136,75494,5,0,0:0:0:0:
416,136,75599,1,0,0:0:0:0:
416,136,75705,2,0,P|424:184|432:196,1,40
404,256,75915,5,0,0:0:0:0:
368,344,76020,1,0,0:0:0:0:
292,292,76126,6,4,P|248:296|232:304,1,40
136,348,76336,2,0,P|184:360|196:360,1,40
104,248,76547,2,0,P|52:252|32:260,1,40
12,168,76757,6,4,P|52:152|64:152,1,40
116,88,76968,5,0,0:0:0:0:
144,112,77073,1,0,0:0:0:0:
188,96,77178,5,0,0:0:0:0:
228,100,77284,1,0,0:0:0:0:
264,132,77389,5,0,0:0:0:0:
332,108,77494,1,0,0:0:0:0:
372,48,77599,1,0,0:0:0:0:
444,40,77705,1,0,0:0:0:0:
444,40,77810,6,4,P|460:84|460:104,1,40
420,160,78020,1,0,0:0:0:0:
444,248,78125,1,0,0:0:0:0:
400,328,78231,2,0,P|360:340|336:344,1,40
208,308,78441,6,0,P|252:280|272:272,1,40
328,152,78652,2,0,P|272:144|260:144,1,40
152,56,78862,2,0,P|208:44|228:44,1,40
136,160,79073,6,4,P|92:172|48:164,1,80
16,84,79388,1,0,0:0:0:0:
16,84,79494,2,0,P|-28:96|-40:104,1,40
58,167,79704,2,0,P|50:215|64:260,1,80
148,280,80020,5,0,0:0:0:0:
148,280,80125,2,0,P|192:300|204:300,1,40
256,240,80336,2,0,P|292:216|308:180,1,80
296,80,80652,5,0,0:0:0:0:
296,80,80757,2,0,P|340:80|360:92,1,40
436,60,80967,2,0,P|440:112|432:152,1,80
368,216,81283,5,0,0:0:0:0:
368,216,81388,2,0,P|344:172|340:160,1,40
256,56,81599,2,0,P|240:96|244:120,1,40
264,248,81810,2,0,P|224:236|200:224,1,40
136,100,82020,2,0,P|116:144|112:160,1,40
128,264,82231,6,0,P|88:256|68:248,1,40
12,204,82441,1,0,0:0:0:0:
40,112,82546,1,0,0:0:0:0:
112,52,82652,2,4,P|164:44|176:48,1,47.9999985351563
252,8,82862,2,4,P|272:56|272:112,1,95.9999970703126
188,160,83178,5,0,0:0:0:0:
188,160,83283,2,0,P|236:192|252:192,1,47.9999985351563
292,268,83494,2,0,P|320:228|324:208,1,47.9999985351563
400,172,83704,2,0,P|356:136|336:136,1,47.9999985351563
312,52,83915,2,0,P|272:104|268:120,1,47.9999985351563
184,132,84125,6,0,P|216:172|232:180,1,47.9999985351563
188,272,84336,2,0,P|240:268|260:256,1,47.9999985351563
304,344,84546,2,0,P|336:300|336:284,1,47.9999985351563
436,304,84757,2,0,P|416:256|396:236,1,47.9999985351563
436,168,84967,6,2,B|476:160|474:188|520:168,1,80
280,164,85178,2,2,B|240:156|241:184|196:164,1,80
112,36,85388,2,0,B|85:113|132:112|108:212,1,160
32,240,85704,5,0,0:0:0:0:
32,240,85810,2,0,P|64:288|80:300,1,47.9999985351563
128,360,86020,2,0,P|180:344|196:328,1,47.9999985351563
288,236,86231,2,0,P|236:232|212:236,1,47.9999985351563
176,120,86441,2,0,P|144:160|132:184,1,47.9999985351563
48,172,86652,2,0,P|80:256|96:272,1,80
92,352,86862,6,0,L|188:336,1,80
288,288,87073,2,0,L|392:320,1,80
480,264,87283,2,0,B|497:227|497:227|456:140|480:100,1,160
488,20,87599,5,0,0:0:0:0:
488,20,87704,2,0,P|400:32|380:44,1,80
308,16,87915,2,0,B|268:92|340:92|308:192,1,160
248,248,88231,5,0,0:0:0:0:
248,248,88336,2,0,P|208:208|204:196,1,47.9999985351563
112,232,88546,2,0,P|116:176|128:160,1,47.9999985351563
28,124,88757,2,0,P|72:92|92:88,1,47.9999985351563
64,4,88967,2,0,P|116:8|132:16,1,47.9999985351563
216,8,89178,6,0,L|216:120,1,80
296,164,89388,2,0,L|296:76,1,80
372,12,89599,6,0,P|396:64|392:80,1,47.9999985351563
488,96,89809,2,0,P|460:140|444:152,1,47.9999985351563
456,232,90020,6,2,B|494:214|496:248|544:232,1,80
236,232,90231,2,2,B|197:214|196:248|148:232,1,80
84,160,90441,6,0,P|136:128|156:124,1,47.9999985351563
148,40,90652,1,0,0:0:0:0:
184,68,90757,1,0,0:0:0:0:
232,48,90862,5,0,0:0:0:0:
268,24,90967,1,0,0:0:0:0:
312,44,91073,6,0,P|348:88|352:104,1,47.9999985351563
440,92,91283,1,0,0:0:0:0:
440,92,91388,1,0,0:0:0:0:
440,92,91494,2,0,P|448:152|440:168,1,47.9999985351563
504,216,91704,2,0,P|416:244|392:244,1,80
280,200,91915,6,0,P|332:176|344:176,1,47.9999985351563
252,324,92125,2,0,P|204:332|176:328,1,47.9999985351563
72,248,92336,2,0,P|120:232|188:240,1,95.9999970703126
208,216,92617,2,0,P|228:184|296:160,1,95.9999970703126
296,136,92967,6,0,B|292:76|292:76|308:28,1,95.9999970703126
400,12,93283,1,0,0:0:0:0:
400,12,93388,2,0,P|420:68|420:80,1,47.9999985351563
504,104,93599,2,0,P|468:148|440:156,1,47.9999985351563
464,244,93809,2,0,P|416:236|396:228,1,47.9999985351563
348,312,94020,2,0,P|312:256|312:240,1,47.9999985351563
224,252,94231,2,0,P|264:176|284:160,1,80
376,120,94441,6,0,P|368:176|360:188,1,47.9999985351563
264,92,94652,2,0,P|264:40|272:20,1,47.9999985351563
376,0,94862,2,0,P|384:56|376:72,1,47.9999985351563
420,96,95073,6,2,B|460:88|458:116|504:96,1,80
264,92,95284,2,2,B|224:84|225:112|180:92,1,80
88,16,95494,2,0,B|108:96|58:100|84:192,1,160
172,176,95809,5,0,0:0:0:0:
172,176,95915,2,0,P|152:224|136:240,1,47.9999985351563
176,320,96125,2,0,P|112:328|88:328,1,47.9999985351563
308,248,96336,2,0,P|256:240|240:244,1,47.9999985351563
396,336,96546,2,0,P|336:348|320:348,1,47.9999985351563
476,248,96757,2,0,P|392:236|380:240,1,80
360,144,96967,6,0,P|308:176|296:200,1,47.9999985351563
240,104,97178,2,0,P|220:168|224:188,1,47.9999985351563
120,128,97388,2,0,B|97:168|97:168|144:296|88:324|88:324|96:384,1,240
192,360,97809,6,2,B|232:368|231:345|288:360,1,80
304,360,98020,1,0,0:0:0:0:
360,144,98336,5,0,0:0:0:0:
336,56,98441,1,0,0:0:0:0:
280,216,98652,1,0,0:0:0:0:
192,16,98862,2,0,P|152:72|144:92,1,47.9999985351563
40,96,99073,2,0,P|72:144|88:152,1,47.9999985351563
28,260,99283,2,0,P|120:272|136:268,1,80
280,216,99494,6,0,P|224:212|192:224,1,47.9999985351563
312,344,99704,2,0,P|364:344|396:328,1,47.9999985351563
468,232,99915,2,0,P|412:228|396:232,1,47.9999985351563
356,160,100125,6,2,B|372:120|336:119|356:72,1,80
363,267,100336,2,2,B|379:307|343:307|363:355,1,80
272,236,100546,2,0,B|192:212|193:261|92:236,1,160
52,168,100862,5,0,0:0:0:0:
72,144,100967,1,0,0:0:0:0:
108,144,101073,1,0,0:0:0:0:
140,164,101178,2,0,P|228:176|244:172,1,80
368,104,101388,2,0,P|280:88|264:92,1,80
396,208,101599,2,0,P|484:216|504:212,1,80
312,172,101809,6,0,P|232:216|220:244,1,80
452,136,102020,2,0,P|520:84|528:72,1,80
328,256,102231,2,0,P|328:340|336:368,1,80
372,84,102441,6,0,P|368:0|364:-12,1,80
248,156,102652,2,0,P|240:64|248:40,1,80
160,16,102862,6,0,P|144:36|136:112,1,95.9999970703126
100,72,103915,6,0,L|128:88,1,23.9999992675781
140,180,104546,2,0,L|168:168,1,23.9999992675781
252,188,105178,2,0,L|264:160,1,23.9999992675781
352,136,105809,2,0,L|336:108,1,23.9999992675781
376,24,106441,2,0,L|348:24,1,23.9999992675781
264,0,107072,2,0,L|256:24,1,23.9999992675781
168,56,107704,1,0,0:0:0:0:
248,112,108020,6,0,L|200:136,1,40
220,228,108651,2,0,L|168:220,1,40
120,296,109283,2,0,L|88:256,1,40
4,244,109915,2,0,L|28:200,1,40
24,108,110546,2,0,L|68:104,1,40
128,28,111178,6,0,L|144:68,3,40
232,92,112441,1,0,0:0:0:0:
156,148,112757,1,0,0:0:0:0:
248,176,113072,1,0,0:0:0:0:
168,236,113388,2,0,L|136:268,1,40
256,272,114020,6,0,L|280:240,1,40
372,276,114651,2,0,L|416:256,1,40
504,236,115283,2,0,L|476:192,1,40
460,108,115915,2,0,L|416:112,1,40
368,32,116546,2,0,L|340:60,1,40
252,20,117178,2,0,L|248:60,1,40
168,104,117809,2,0,L|188:148,1,40
136,224,118441,2,0,L|176:236,1,40
256,296,119072,6,0,B|268:264|268:264|248:204|248:204|260:176,1,128
256,192,124282,12,0,125861,0:0:0:0:
256,192,126019,12,0,127756,0:0:0:0:
64,24,127914,6,0,P|60:64|80:120,1,90.0000034332277
12,224,128545,2,4,P|64:240|168:212,1,143.999995605469
212,112,129177,2,4,P|156:104|116:116,1,95.9999970703126
36,172,129650,1,4,0:0:0:0:
36,172,129808,2,0,P|80:200|128:208,1,95.9999970703126
200,144,130282,5,4,0:0:0:0:
200,144,130440,2,0,P|232:196|232:252,1,95.9999970703126
336,244,130914,1,4,0:0:0:0:
336,244,131072,2,0,P|304:296|256:320,1,95.9999970703126
116,304,131545,5,0,0:0:0:0:
116,304,131703,2,0,P|156:260|184:256,3,47.9999985351563
116,172,132335,2,0,P|164:160|176:160,3,47.9999985351563
208,72,132966,2,0,P|248:112|256:128,3,47.9999985351563
344,104,133598,2,0,P|332:160|324:180,3,47.9999985351563
404,224,134229,6,0,P|348:260|328:264,3,47.9999985351563
332,344,134861,2,0,P|288:320|276:304,3,47.9999985351563
196,340,135493,2,0,P|200:280|208:264,3,47.9999985351563
108,248,136124,2,0,P|144:216|168:208,3,47.9999985351563
164,120,136756,6,0,P|236:136|272:168,1,95.9999970703126
264,248,137229,1,0,0:0:0:0:
264,248,137387,2,0,P|312:224|340:180,1,95.9999970703126
368,100,137861,1,0,0:0:0:0:
304,32,138019,5,0,0:0:0:0:
264,36,138124,1,0,0:0:0:0:
232,60,138229,1,0,0:0:0:0:
224,96,138335,1,0,0:0:0:0:
240,128,138440,1,0,0:0:0:0:
272,144,138545,1,0,0:0:0:0:
288,172,138650,1,0,0:0:0:0:
280,208,138756,1,0,0:0:0:0:
252,228,138861,1,0,0:0:0:0:
216,220,138966,1,0,0:0:0:0:
184,232,139072,1,0,0:0:0:0:
168,264,139177,1,0,0:0:0:0:
176,300,139282,2,4,P|208:324|220:328,1,31.9999990234375
292,300,139493,5,0,0:0:0:0:
324,280,139598,1,0,0:0:0:0:
360,276,139703,1,0,0:0:0:0:
400,280,139808,1,0,0:0:0:0:
440,284,139914,1,0,0:0:0:0:
476,268,140019,1,0,0:0:0:0:
488,232,140124,1,0,0:0:0:0:
480,196,140229,1,0,0:0:0:0:
452,168,140335,1,0,0:0:0:0:
416,156,140440,1,0,0:0:0:0:
376,156,140545,1,0,0:0:0:0:
340,172,140650,1,0,0:0:0:0:
308,196,140756,1,0,0:0:0:0:
272,208,140861,1,0,0:0:0:0:
232,208,140966,1,0,0:0:0:0:
196,196,141072,1,0,0:0:0:0:
168,172,141177,1,0,0:0:0:0:
152,136,141282,1,0,0:0:0:0:
156,96,141387,1,0,0:0:0:0:
168,60,141493,1,0,0:0:0:0:
200,40,141598,1,0,0:0:0:0:
236,36,141703,1,0,0:0:0:0:
272,52,141808,6,0,B|246:135|304:128|272:260,1,160
412,352,142229,2,0,B|388:268|436:268|408:168,1,160
356,44,142650,2,0,P|316:96|316:120,1,53.3333333333333
200,136,142860,2,0,P|232:184|260:204,1,53.3333333333333
232,308,143071,2,0,P|300:296|312:284,1,53.3333333333333
372,212,143281,5,0,0:0:0:0:
120,276,143492,1,0,0:0:0:0:
184,64,143702,2,0,P|248:80|272:96,1,53.3333333333333
352,32,143913,2,0,P|376:84|380:104,1,53.3333333333333
484,152,144123,2,0,P|452:200|416:220,1,53.3333333333333
316,276,144334,5,0,0:0:0:0:
172,148,144544,2,0,P|240:132|256:136,1,53.3333333333333
280,20,144755,2,0,P|224:16|192:32,1,53.3333333333333
172,148,144965,2,0,P|160:204|168:220,1,53.3333333333333
44,264,145176,2,0,P|80:316|96:324,1,53.3333333333333
296,288,145386,5,0,0:0:0:0:
172,148,145597,2,0,P|96:140|80:152,1,53.3333333333333
44,264,145808,1,0,0:0:0:0:
352,180,146018,2,0,P|372:120|372:96,1,53.3333333333333
328,8,146229,5,0,0:0:0:0:
300,24,146299,1,0,0:0:0:0:
288,52,146369,1,0,0:0:0:0:
288,84,146439,2,0,P|256:136|228:152,1,53.3333333333333
300,248,146650,2,0,P|236:264|216:264,1,53.3333333333333
164,360,146860,2,0,P|124:312|120:296,1,53.3333333333333
8,284,147071,6,0,P|52:208|68:196,1,80
8,92,147281,2,0,P|88:80|120:88,1,80
224,0,147492,2,0,P|256:80|256:100,1,80
404,128,147702,2,0,P|344:200|312:216,1,80
396,348,147913,2,0,P|308:328|284:308,1,80
160,368,148123,2,0,P|180:272|200:248,1,80
80,160,148334,2,0,P|164:128|188:132,1,80
272,24,148544,6,0,B|247:98|304:128|268:200,1,160
432,348,148965,2,0,B|452:272|400:260|428:164,1,160
488,120,149386,2,0,P|404:88|380:92,1,80
312,20,149597,2,0,P|264:92|264:120,1,80
136,100,149808,2,0,P|160:180|184:208,1,80
116,296,150018,2,0,P|216:320|236:312,1,80
336,244,150229,5,8,0:0:0:0:
136,100,150439,1,0,0:0:0:0:
332,336,150650,5,8,0:0:0:0:
204,8,150860,1,0,0:0:0:0:
120,260,151071,5,8,0:0:0:0:
340,40,151282,1,0,0:0:0:0:
196,360,151492,5,8,0:0:0:0:
96,28,151702,1,0,0:0:0:0:
436,208,151913,5,8,0:0:0:0:
64,296,152123,1,0,0:0:0:0:
476,312,152334,5,8,0:0:0:0:
176,56,152544,1,0,0:0:0:0:
464,156,152755,5,8,0:0:0:0:
52,216,152965,2,2,L|136:236,2,80
104,196,153386,1,0,0:0:0:0:
196,32,153597,5,8,0:0:0:0:
320,184,153808,1,8,0:0:0:0:
104,196,154018,1,8,0:0:0:0:
284,40,154229,5,4,0:0:0:0:
272,304,154439,1,4,0:0:0:0:
64,100,154650,1,4,0:0:0:0:
284,40,154860,6,4,P|300:128|296:144,1,80
192,196,155071,2,4,P|200:280|208:300,1,80
304,348,155281,5,0,0:0:0:0:
344,304,155386,1,0,0:0:0:0:
364,248,155492,1,0,0:0:0:0:
368,192,155597,1,0,0:0:0:0:
356,136,155702,1,0,0:0:0:0:
320,92,155808,1,0,0:0:0:0:
264,84,155913,1,0,0:0:0:0:
212,104,156018,1,0,0:0:0:0:
172,144,156123,1,0,0:0:0:0:
124,180,156229,1,0,0:0:0:0:
68,164,156334,1,0,0:0:0:0:
44,112,156439,1,0,0:0:0:0:
80,68,156544,1,0,0:0:0:0:
136,56,156650,1,0,0:0:0:0:
192,76,156755,1,0,0:0:0:0:
224,124,156860,1,0,0:0:0:0:
224,176,156965,6,4,B|156:240|96:248|64:240|32:208|24:164|64:104|112:96|180:156|212:244|264:292|336:296|392:200|332:80,1,640
268,36,158017,5,4,0:0:0:0:
268,36,158228,2,4,P|352:8|268:272,1,640
288,180,159280,5,4,0:0:0:0:
288,180,159491,2,4,B|208:168|140:232|148:320|116:344|48:324|4:280|-12:232|8:180|32:144|52:124|112:108|152:100|200:112|192:252,1,640
212,324,160543,5,4,0:0:0:0:
212,324,160754,2,4,B|312:336|376:288|380:224|356:176|304:124|260:124|220:96|208:68|220:36|244:16|332:8|376:16|408:32|432:68|436:92|380:128,1,640
444,200,161807,5,4,0:0:0:0:
444,200,162017,2,4,B|372:240|272:216|236:180|216:128|212:88|176:72|120:80|48:104|28:136|16:184|24:224|32:256|60:280|108:292|180:260,1,640
200,352,163070,5,4,0:0:0:0:
200,352,163280,2,4,B|264:296|272:232|252:192|208:164|176:152|152:136|128:96|124:88|140:52|208:28|272:32|312:48|332:64|348:104|352:128|348:148|340:164|328:180|244:200,1,640
332,256,164333,5,4,0:0:0:0:
332,256,164543,2,4,B|408:232|424:160|396:112|328:80|276:80|240:100|208:152|184:172|144:192|112:184|72:164|52:128|36:92|36:60|56:32|104:16|168:16|180:64,1,640
256,16,165596,5,4,0:0:0:0:
256,16,165807,2,4,B|344:16|416:72|432:120|424:156|400:196|352:220|312:228|264:216|240:184|192:168|136:196|112:228|96:272|108:300|132:324|180:352|248:348,1,640
272,300,166859,5,4,0:0:0:0:
272,300,167070,2,4,B|228:216|156:216|108:240|88:272|56:264|44:228|24:200|24:160|40:124|80:84|116:76|188:88|216:108|228:136|240:168|264:188|292:192|328:188|364:144,1,640
292,84,168122,5,4,0:0:0:0:
292,84,168333,2,4,B|392:64|436:92|472:140|468:176|456:208|432:236|380:248|340:248|308:248|284:240|248:212|192:240|164:280|124:312|128:352|160:384|244:352,1,640
304,328,169386,5,4,0:0:0:0:
304,328,169596,2,4,B|252:264|168:252|116:280|100:304|72:288|40:264|20:236|20:204|28:172|64:128|108:112|164:104|208:120|252:152|260:168|236:256,1,640
332,240,170649,5,4,0:0:0:0:
332,240,170859,2,4,B|328:136|260:92|192:104|136:144|112:192|68:200|20:184|0:144|8:104|28:52|64:24|128:12|192:12|244:48,1,640
320,64,171912,5,4,0:0:0:0:
320,64,172122,2,4,B|312:148|256:200|212:196|152:200|100:236|84:272|112:316|152:336|220:344|272:340|312:320|356:284|372:256|384:152,1,640
400,84,173175,5,4,0:0:0:0:
400,84,173386,2,4,B|468:140|472:172|472:228|444:264|380:272|332:248|272:212|220:192|128:188|88:200|44:240|36:276|88:352,1,640
172,320,174438,5,4,0:0:0:0:
172,320,174649,2,4,B|128:240|120:160|172:124|236:120|268:136|304:176|308:224|332:248|368:264|412:256|460:232|472:200|464:140|444:96|364:40,1,640
296,88,175701,5,4,0:0:0:0:
296,88,175912,2,4,B|332:8|408:-4|448:16|472:28|484:72|488:112|472:164|392:204|344:212|288:208|232:184|208:172|172:184|144:208|112:280,1,640
184,332,176964,5,4,0:0:0:0:
184,332,177175,2,0,P|236:328|256:204,1,180.000006866455
244,124,178438,6,0,L|280:136,3,30.0000011444092
192,40,179069,2,0,L|240:28,3,30.0000011444092
120,120,179701,6,0,L|172:144,3,47.9999985351563
72,36,180332,2,0,L|104:32,3,20
44,120,180964,2,0,L|40:144,3,20
100,216,181596,2,0,L|104:240,3,20
36,304,182227,6,0,L|24:364,3,47.9999985351563
124,340,182859,2,0,L|184:324,3,47.9999985351563
268,360,183490,2,0,L|324:372,3,47.9999985351563
376,300,184122,2,0,L|432:288,3,47.9999985351563
492,184,184753,6,0,L|432:176,7,47.9999985351563
336,56,186017,2,0,L|412:68,7,47.9999985351563
340,104,187280,5,0,0:0:0:0:
168,16,187596,1,0,0:0:0:0:
148,236,187911,1,0,0:0:0:0:
168,16,188227,5,0,0:0:0:0:
160,40,188385,1,0,0:0:0:0:
160,68,188543,2,0,P|168:120|176:136,3,47.9999985351563
256,216,189175,6,0,P|264:164|260:148,1,47.9999985351563
244,76,189490,1,0,0:0:0:0:
328,32,189648,1,0,0:0:0:0:
416,72,189806,6,0,L|428:148,3,47.9999985351563
356,196,190438,2,0,L|348:252,3,47.9999985351563
412,320,191069,6,0,L|368:344,3,47.9999985351563
280,300,191701,1,4,0:0:0:0:
192,324,191859,1,0,0:0:0:0:
108,284,192017,1,0,0:0:0:0:
68,200,192175,1,0,0:0:0:0:
108,284,192332,5,4,0:0:0:0:
168,208,192490,1,0,0:0:0:0:
256,168,192648,1,0,0:0:0:0:
352,164,192806,1,0,0:0:0:0:
440,200,192964,1,4,0:0:0:0:
352,164,193122,5,0,0:0:0:0:
296,248,193280,1,0,0:0:0:0:
212,300,193438,1,0,0:0:0:0:
116,316,193596,1,4,0:0:0:0:
24,296,193753,1,0,0:0:0:0:
116,316,193911,5,0,0:0:0:0:
160,232,194069,1,0,0:0:0:0:
160,136,194227,1,4,0:0:0:0:
104,60,194385,1,0,0:0:0:0:
12,40,194543,1,0,0:0:0:0:
104,60,194701,5,0,0:0:0:0:
192,28,194859,1,4,0:0:0:0:
280,56,195017,1,0,0:0:0:0:
328,136,195175,1,0,0:0:0:0:
336,232,195332,1,0,0:0:0:0:
328,136,195490,5,4,0:0:0:0:
424,124,195648,1,0,0:0:0:0:
492,192,195806,1,0,0:0:0:0:
488,284,195964,1,0,0:0:0:0:
424,352,196122,1,4,0:0:0:0:
488,284,196280,5,0,0:0:0:0:
408,240,196438,1,0,0:0:0:0:
320,256,196596,1,0,0:0:0:0:
236,224,196753,1,4,0:0:0:0:
148,256,196911,1,0,0:0:0:0:
84,188,197069,2,0,P|40:240|36:264,1,47.9999985351563
192,148,197385,6,0,P|224:104|228:92,1,47.9999985351563
184,24,197701,1,0,0:0:0:0:
284,32,197859,1,0,0:0:0:0:
340,112,198017,2,0,P|348:164|348:192,1,47.9999985351563
428,224,198332,6,0,P|388:252|344:264,1,47.9999985351563
392,352,198648,2,0,P|336:344|312:328,1,47.9999985351563
256,376,198964,2,0,P|248:324|252:312,1,47.9999985351563
156,296,199280,2,0,P|184:252|200:240,1,47.9999985351563
136,168,199596,2,0,P|192:152|212:152,1,47.9999985351563
264,48,199911,6,0,B|278:68|278:68|248:136|272:144|272:188,1,140
336,252,201175,2,0,P|360:208|360:196,1,47.9999985351563
344,112,201490,1,0,0:0:0:0:
408,40,201648,2,0,L|428:72,2,23.9999992675781
456,136,201964,5,0,0:0:0:0:
472,232,202122,2,0,P|448:288|440:304,1,47.9999985351563
368,328,202438,6,0,P|320:316|232:348,1,143.999995605469
264,188,203069,2,0,P|204:208|148:288,1,143.999995605469
120,136,203701,2,0,P|80:180|84:372,1,239.999992675781
168,324,204648,5,0,0:0:0:0:
176,232,204806,1,0,0:0:0:0:
236,160,204964,2,0,P|296:140|312:140,1,47.9999985351563
308,44,205280,2,0,P|352:72|360:84,1,47.9999985351563
364,148,205596,5,0,0:0:0:0:
340,280,205911,1,0,0:0:0:0:
444,204,206227,5,0,0:0:0:0:
252,192,206543,1,0,0:0:0:0:
444,108,206859,5,4,0:0:0:0:
276,300,207175,1,0,0:0:0:0:
312,84,207490,6,0,P|348:136|352:176,1,95.9999970703126
344,292,208122,1,0,0:0:0:0:
272,224,208438,5,0,0:0:0:0:
184,264,208596,1,0,0:0:0:0:
100,224,208753,2,0,P|72:176|72:160,1,47.9999985351563
140,108,209069,2,0,P|140:56|148:40,1,47.9999985351563
236,40,209385,2,0,P|272:8|288:4,1,47.9999985351563
368,44,209701,2,0,P|424:32|456:36,1,47.9999985351563
492,100,210017,6,0,B|512:168|468:168|496:248,1,143.999995605469
480,344,210648,2,0,P|428:320|408:300,1,47.9999985351563
336,328,210964,2,0,P|320:268|328:244,1,47.9999985351563
232,248,211280,6,0,B|203:135|264:132|232:0,1,239.999992675781
136,0,212227,2,0,P|140:48|148:64,1,47.9999985351563
68,128,212543,2,0,B|186:150|188:96|336:128,1,239.999992675781
388,60,213490,2,0,P|416:128|416:148,1,47.9999985351563
476,212,213806,2,0,B|364:248|364:180|200:212,1,239.999992675781
184,120,214753,2,0,P|140:172|132:188,1,47.9999985351563
128,252,215069,5,4,0:0:0:0:
312,320,215279,1,0,0:0:0:0:
320,128,215490,1,0,0:0:0:0:
128,252,215700,2,0,P|132:320|144:348,1,80
260,316,216121,2,0,P|300:336|320:336,1,40
400,348,216332,2,0,P|384:288|360:264,1,80
200,188,216753,5,0,0:0:0:0:
116,364,216963,1,0,0:0:0:0:
400,348,217174,1,0,0:0:0:0:
200,188,217384,2,0,P|200:240|208:260,1,40
260,344,217595,5,0,0:0:0:0:
332,136,217805,1,0,0:0:0:0:
112,84,218016,1,0,0:0:0:0:
260,344,218226,2,0,P|304:312|324:284,1,80
344,168,218647,2,0,P|304:176|292:188,1,40
208,172,218858,2,0,P|212:228|232:268,1,80
308,352,219279,5,0,0:0:0:0:
368,72,219490,1,0,0:0:0:0:
132,124,219700,1,0,0:0:0:0:
308,352,219911,1,0,0:0:0:0:
436,248,220121,6,4,P|392:236|376:240,1,40
360,116,220332,2,0,P|320:132|308:148,1,40
260,248,220542,1,0,0:0:0:0:
436,248,220753,1,0,0:0:0:0:
360,116,220963,2,0,P|320:76|308:72,1,40
248,128,221174,2,0,P|204:124|180:128,1,40
148,200,221384,2,0,P|92:216|76:228,1,40
32,280,221595,5,0,0:0:0:0:
72,24,221805,1,0,0:0:0:0:
248,128,222016,1,0,0:0:0:0:
16,184,222226,5,0,0:0:0:0:
252,8,222437,1,0,0:0:0:0:
332,224,222647,2,0,P|332:296|320:324,1,80
180,352,223069,5,0,0:0:0:0:
344,80,223279,1,0,0:0:0:0:
476,344,223490,1,0,0:0:0:0:
200,120,223700,5,0,0:0:0:0:
508,192,223911,2,0,P|484:228|468:244,1,40
248,324,224121,1,0,0:0:0:0:
352,16,224332,5,0,0:0:0:0:
380,244,224542,1,0,0:0:0:0:
132,104,224753,2,0,P|140:60|156:40,1,40
232,160,224963,2,0,P|232:216|228:232,1,40
160,308,225174,5,0,0:0:0:0:
196,304,225384,1,0,0:0:0:0:
232,300,225595,1,0,0:0:0:0:
264,296,225805,1,0,0:0:0:0:
332,228,226016,6,2,P|288:208|276:208,1,40
228,144,226226,2,2,P|272:120|292:116,1,40
336,60,226437,5,0,0:0:0:0:
300,40,226647,1,0,0:0:0:0:
260,40,226858,1,0,0:0:0:0:
224,56,227069,1,0,0:0:0:0:
136,24,227279,6,2,P|132:72|144:96,1,40
88,160,227490,2,2,P|56:116|48:96,1,40
32,36,227700,5,0,0:0:0:0:
72,40,227911,1,0,0:0:0:0:
108,68,228121,1,0,0:0:0:0:
120,112,228332,1,0,0:0:0:0:
92,204,228542,6,2,P|60:176|52:160,1,40
192,164,228753,2,2,P|228:188|248:208,1,40
232,288,228963,6,2,P|240:340|236:360,1,40
152,224,229174,2,2,P|144:276|152:296,1,40
232,168,229384,2,2,P|252:216|256:228,1,40
152,108,229595,2,2,P|148:152|160:172,1,40
228,44,229805,2,2,P|252:100|252:112,1,40
140,8,230016,2,2,P|148:56|160:80,1,40
228,44,230226,5,0,0:0:0:0:
272,36,230437,1,0,0:0:0:0:
316,48,230647,1,0,0:0:0:0:
348,80,230858,1,0,0:0:0:0:
436,96,231069,6,2,P|432:136|424:152,1,40
376,224,231279,2,2,P|356:180|352:164,1,40
352,104,231490,5,0,0:0:0:0:
316,104,231700,1,0,0:0:0:0:
284,124,231911,1,0,0:0:0:0:
264,156,232121,1,0,0:0:0:0:
284,248,232332,6,2,P|244:264|224:264,1,40
356,188,232542,2,2,P|400:188|408:192,1,40
460,264,232753,5,0,0:0:0:0:
436,300,232963,1,0,0:0:0:0:
400,328,233174,1,0,0:0:0:0:
356,340,233384,1,0,0:0:0:0:
280,288,233595,6,2,P|320:264|336:264,1,40
236,368,233805,2,2,P|184:368|164:356,1,40
148,284,234016,6,2,P|112:260|100:240,1,40
140,168,234226,2,2,P|132:124|136:100,1,40
200,12,234437,2,2,P|216:56|216:72,1,40
140,168,234647,5,2,0:0:0:0:
200,12,234858,2,2,P|244:28|256:40,1,40
252,124,235068,2,2,P|272:160|276:188,1,40
212,240,235279,2,2,P|204:284|196:300,1,40
108,304,235490,2,2,P|64:320|44:320,1,40
96,188,235700,6,2,P|136:164|160:160,1,40
316,104,235911,2,2,P|280:140|256:152,1,40
240,248,236121,2,2,P|216:208|224:112,1,120
256,52,236542,6,0,P|288:84|296:108,1,40
344,160,236753,1,0,0:0:0:0:
116,196,236963,1,0,0:0:0:0:
256,52,237174,5,0,0:0:0:0:
276,220,237384,2,0,P|276:268|268:320,1,80
244,320,237805,5,0,0:0:0:0:
116,100,238016,1,0,0:0:0:0:
372,120,238226,5,0,0:0:0:0:
140,244,238437,1,0,0:0:0:0:
196,28,238647,2,0,P|232:52|260:96,1,80
116,100,239068,5,0,0:0:0:0:
244,320,239279,1,0,0:0:0:0:
372,120,239490,5,0,0:0:0:0:
140,244,239701,1,0,0:0:0:0:
196,28,239911,2,0,P|232:52|260:96,1,80
140,244,240332,5,0,0:0:0:0:
280,168,240542,1,0,0:0:0:0:
140,244,240753,5,0,0:0:0:0:
360,284,240963,1,0,0:0:0:0:
140,244,241174,5,0,0:0:0:0:
412,364,241384,1,0,0:0:0:0:
140,244,241595,6,4,L|168:236,1,20
112,56,246647,6,0,B|152:152|84:152|104:264,1,200
36,336,247911,2,0,P|68:352|200:272,1,200
224,160,249174,6,0,P|252:176|296:292,1,160
208,256,250121,2,0,P|180:264|168:272,1,40
84,336,250437,6,0,B|61:228|120:228|92:128,1,200
12,52,251700,2,0,P|32:28|180:52,1,200
160,128,252858,1,0,0:0:0:0:
184,148,252963,2,0,P|216:144|268:68,1,120
368,16,253805,6,0,P|376:44|364:104,1,80
452,160,254437,2,0,P|436:184|416:200,1,40
400,296,254858,2,0,P|368:296|348:280,1,40
248,320,255279,1,0,0:0:0:0:
248,320,255490,6,0,B|216:208|280:208|256:108,1,200
192,24,256753,2,0,P|164:44|180:168,1,160
256,120,257805,1,0,0:0:0:0:
344,156,258016,2,0,P|328:196|208:232,1,160
144,104,259068,5,0,0:0:0:0:
80,180,259279,2,0,P|88:216|100:232,1,40
64,352,259700,2,0,P|100:352|116:348,1,40
236,344,260121,2,0,P|240:312|240:292,1,40
324,208,260542,6,0,P|304:192|132:208,1,200
132,296,261805,2,0,P|96:292|48:184,1,160
108,120,262858,1,0,0:0:0:0:
152,204,263068,2,0,B|256:232|256:172|360:204,1,200
392,288,264332,6,0,P|416:276|432:152,1,160
320,108,265384,1,0,0:0:0:0:
264,32,265595,2,0,P|232:56|264:192,1,200
324,112,266858,6,0,P|352:156|356:188,1,47.9999985351563
444,200,267068,2,0,P|412:244|396:252,1,47.9999985351563
428,340,267279,2,0,P|364:328|344:316,1,47.9999985351563
276,332,267489,5,0,0:0:0:0:
276,332,267594,1,0,0:0:0:0:
276,332,267700,2,0,P|256:280|256:264,1,47.9999985351563
168,232,267910,2,0,P|196:192|216:180,1,47.9999985351563
200,84,268121,2,0,P|260:76|284:84,1,47.9999985351563
336,20,268331,5,0,0:0:0:0:
336,20,268436,1,0,0:0:0:0:
336,20,268542,2,0,P|376:72|380:88,1,47.9999985351563
452,120,268752,5,0,0:0:0:0:
452,120,268858,1,0,0:0:0:0:
452,120,268963,2,0,P|416:168|396:188,1,47.9999985351563
304,200,269173,5,0,0:0:0:0:
304,200,269279,1,0,0:0:0:0:
304,200,269384,2,0,P|320:148|336:128,1,47.9999985351563
368,68,269594,5,0,0:0:0:0:
368,68,269700,1,0,0:0:0:0:
368,68,269805,2,0,P|304:56|280:64,1,47.9999985351563
236,8,270015,2,0,P|208:48|200:72,1,47.9999985351563
112,84,270226,6,4,P|132:128|160:152,1,47.9999985351563
116,228,270436,2,0,P|172:240|184:240,1,47.9999985351563
208,332,270647,2,0,P|252:292|260:276,1,47.9999985351563
352,308,270858,5,0,0:0:0:0:
352,308,270963,1,0,0:0:0:0:
352,308,271068,2,0,P|356:248|352:232,1,47.9999985351563
332,136,271279,5,0,0:0:0:0:
332,136,271384,1,0,0:0:0:0:
332,136,271489,2,0,P|292:176|284:192,1,47.9999985351563
196,156,271700,5,0,0:0:0:0:
196,156,271805,1,0,0:0:0:0:
196,156,271910,2,0,P|200:232|208:244,1,47.9999985351563
228,328,272121,5,0,0:0:0:0:
228,328,272226,1,0,0:0:0:0:
228,328,272331,2,0,P|248:272|248:252,1,47.9999985351563
336,236,272542,5,0,0:0:0:0:
336,236,272647,1,0,0:0:0:0:
336,236,272752,2,0,P|304:180|284:168,1,47.9999985351563
328,96,272963,6,0,P|272:84|244:88,1,47.9999985351563
196,28,273173,1,0,0:0:0:0:
196,28,273279,1,0,0:0:0:0:
196,28,273384,2,0,P|152:56|140:72,1,47.9999985351563
112,152,273594,6,4,P|160:144|188:128,1,47.9999985351563
248,204,273805,2,0,P|268:160|272:144,1,47.9999985351563
364,120,274015,2,0,P|340:68|328:56,1,47.9999985351563
288,4,274226,2,0,P|236:20|224:32,1,47.9999985351563
148,32,274436,6,0,P|160:104|176:120,1,60.0000022888184
64,156,274647,2,0,P|112:200|140:208,1,60.0000022888184
104,300,274858,2,0,P|168:300|192:284,1,60.0000022888184
256,256,275068,5,0,0:0:0:0:
256,256,275173,1,0,0:0:0:0:
256,256,275279,2,0,P|200:224|184:224,1,60.0000022888184
200,124,275489,5,0,0:0:0:0:
200,124,275594,1,0,0:0:0:0:
200,124,275700,2,0,P|128:140|120:148,1,60.0000022888184
72,60,275910,5,0,0:0:0:0:
72,60,276015,1,0,0:0:0:0:
72,60,276121,2,0,P|48:124|52:156,1,60.0000022888184
0,196,276331,5,0,0:0:0:0:
0,196,276436,1,0,0:0:0:0:
0,196,276542,2,0,P|56:236|76:240,1,60.0000022888184
148,216,276752,5,0,0:0:0:0:
188,240,276858,1,0,0:0:0:0:
236,248,276963,2,4,P|304:232|320:220,1,60.0000022888184
396,264,277173,6,0,P|408:204|408:176,1,60.0000022888184
368,84,277384,1,0,0:0:0:0:
256,16,277594,2,4,P|216:72|208:136,1,120.000004577637
136,200,277910,5,0,0:0:0:0:
184,256,278015,1,0,0:0:0:0:
256,272,278121,1,0,0:0:0:0:
320,244,278226,1,0,0:0:0:0:
384,208,278331,1,0,0:0:0:0:
456,216,278436,1,0,0:0:0:0:
500,272,278542,1,0,0:0:0:0:
488,328,278647,6,4,P|420:364|380:360,1,95.9999970703126
208,328,279068,2,0,P|272:296|308:296,1,95.9999970703126
488,328,279489,1,0,0:0:0:0:
368,176,279699,1,0,0:0:0:0:
176,212,279910,2,0,P|148:252|136:304,1,95.9999970703126
196,360,280225,5,0,0:0:0:0:
196,360,280331,2,0,P|268:336|312:344,1,95.9999970703126
416,364,280752,1,0,0:0:0:0:
312,164,280962,1,0,0:0:0:0:
476,268,281173,6,0,P|416:256|376:260,1,95.9999970703126
312,164,281489,1,0,0:0:0:0:
312,164,281594,2,0,P|272:200|252:256,1,95.9999970703126
268,340,282015,5,0,0:0:0:0:
208,120,282225,1,0,0:0:0:0:
432,148,282436,5,0,0:0:0:0:
124,224,282647,1,0,0:0:0:0:
252,28,282857,5,0,0:0:0:0:
288,252,283068,2,0,P|304:332|316:360,1,95.9999970703126
400,136,283489,5,4,0:0:0:0:
252,64,283699,2,4,P|192:64|152:80,1,95.9999970703126
68,28,284015,5,0,0:0:0:0:
68,28,284120,2,0,P|48:72|48:100,1,47.9999985351563
76,172,284331,1,0,0:0:0:0:
260,112,284541,1,0,0:0:0:0:
68,28,284752,5,0,0:0:0:0:
232,236,284962,1,0,0:0:0:0:
272,16,285173,1,0,0:0:0:0:
40,120,285383,1,0,0:0:0:0:
352,176,285594,1,0,0:0:0:0:
192,340,285804,6,2,B|232:323|232:352|288:340,1,80
136,276,286015,2,2,B|95:259|96:288|40:276,1,80
88,184,286225,6,0,P|92:136|80:88,1,95.9999970703126
8,16,286541,1,0,0:0:0:0:
8,16,286647,2,0,P|84:-4|96:-4,1,47.9999985351563
160,28,286857,1,0,0:0:0:0:
88,184,287068,1,0,0:0:0:0:
264,88,287278,1,0,0:0:0:0:
140,312,287489,1,0,0:0:0:0:
412,216,287699,5,0,0:0:0:0:
264,88,287910,1,0,0:0:0:0:
140,312,288120,2,0,P|184:332|240:324,1,95.9999970703126
328,248,288436,1,0,0:0:0:0:
328,248,288541,6,0,B|336:208|309:207|328:156,1,80
316,64,288752,1,0,0:0:0:0:
200,216,288962,1,0,0:0:0:0:
128,112,289068,5,0,0:0:0:0:
128,112,289173,2,0,P|176:88|200:88,1,47.9999985351563
240,20,289383,2,0,P|284:48|296:64,1,47.9999985351563
328,144,289594,1,0,0:0:0:0:
200,216,289804,1,0,0:0:0:0:
240,20,290015,5,0,0:0:0:0:
380,236,290225,1,0,0:0:0:0:
100,176,290436,1,0,0:0:0:0:
372,56,290647,1,0,0:0:0:0:
240,288,290857,6,2,B|200:304|197:263|144:288,1,80
296,220,291068,2,2,B|336:236|338:195|392:220,1,80
464,180,291278,2,0,B|480:96|437:96|464:12,1,160
372,0,291594,2,0,P|344:44|352:100,1,95.9999970703126
252,104,291910,2,0,P|272:156|300:180,1,47.9999985351563
360,192,292120,5,0,0:0:0:0:
360,244,292225,1,0,0:0:0:0:
332,288,292331,2,0,P|284:304|244:304,1,47.9999985351563
192,292,292541,6,0,P|256:224|272:220,1,80
240,120,292752,2,0,P|320:128|344:144,1,80
400,56,292962,2,0,P|432:144|428:164,1,80
320,128,293173,6,0,P|296:216|304:244,1,80
208,264,293383,2,0,P|280:320|304:324,1,80
344,372,293594,2,0,P|420:336|440:312,1,80
508,296,293804,2,0,P|476:208|400:172,1,160
324,208,294120,5,0,0:0:0:0:
324,208,294225,2,0,P|316:144|320:128,1,47.9999985351563
260,80,294436,2,0,P|316:48|332:44,1,47.9999985351563
424,56,294647,1,0,0:0:0:0:
324,208,294857,5,0,0:0:0:0:
260,80,295068,2,0,P|220:116|208:152,1,47.9999985351563
196,212,295278,1,0,0:0:0:0:
352,332,295489,1,0,0:0:0:0:
376,132,295699,1,0,0:0:0:0:
196,212,295910,6,2,B|152:200|151:235|100:212,1,80
240,288,296120,2,2,B|284:276|284:311|336:288,1,80
376,216,296331,6,0,B|351:135|396:136|376:48,1,160
296,8,296647,1,0,0:0:0:0:
296,8,296752,2,0,P|256:56|256:80,1,47.9999985351563
172,88,296962,2,0,P|204:144|220:152,1,47.9999985351563
284,192,297173,5,0,0:0:0:0:
296,8,297383,1,0,0:0:0:0:
172,88,297594,2,0,P|120:120|112:128,1,47.9999985351563
72,200,297804,5,0,0:0:0:0:
240,348,298015,1,0,0:0:0:0:
300,136,298225,2,0,P|280:80|252:48,1,95.9999970703126
160,16,298647,2,0,P|164:72|184:104,1,47.9999985351563
88,136,298857,6,0,P|132:168|176:180,1,95.9999970703126
260,124,299173,1,0,0:0:0:0:
260,124,299278,2,0,P|280:168|280:192,1,47.9999985351563
348,236,299489,2,0,P|312:276|292:284,1,47.9999985351563
212,260,299699,5,0,0:0:0:0:
340,68,299910,1,0,0:0:0:0:
448,272,300120,2,0,P|464:320|468:344,1,47.9999985351563
380,364,300331,5,2,0:0:0:0:
216,160,300541,1,0,0:0:0:0:
448,132,300752,1,0,0:0:0:0:
380,364,300962,6,0,B|340:368|336:344|288:364,1,80,0|2,0:0|0:0,0:0:0:0:
408,288,301173,2,2,B|448:292|452:268|500:288,1,80
344,216,301383,6,0,B|328:175|352:176|344:120,1,80
332,96,301594,1,0,0:0:0:0:
300,84,301699,1,0,0:0:0:0:
264,56,301804,5,0,0:0:0:0:
248,28,301910,1,0,0:0:0:0:
212,16,302015,6,0,P|132:40|112:56,1,80
120,72,302225,1,0,0:0:0:0:
148,112,302331,5,0,0:0:0:0:
156,160,302436,1,0,0:0:0:0:
124,200,302541,5,0,0:0:0:0:
136,248,302647,2,0,P|180:316|200:328,1,80
256,312,302857,5,0,0:0:0:0:
328,96,303068,1,0,0:0:0:0:
448,264,303278,2,0,P|456:344|448:360,1,80
368,372,303489,5,0,0:0:0:0:
216,136,303699,1,0,0:0:0:0:
432,72,303910,6,0,L|416:116,3,40
320,132,304752,6,0,L|328:180,3,40
252,240,305594,6,0,L|284:276,3,40
160,200,306436,6,0,L|136:244,1,40
112,112,306857,2,0,L|148:80,1,40
196,8,307278,2,0,P|240:32|252:48,1,47.9999985351563
264,80,307489,5,0,0:0:0:0:
296,128,307594,1,0,0:0:0:0:
344,156,307699,1,0,0:0:0:0:
400,168,307804,1,0,0:0:0:0:
452,196,307910,1,0,0:0:0:0:
480,244,308015,1,0,0:0:0:0:
492,300,308120,5,4,0:0:0:0:
444,264,308225,1,0,0:0:0:0:
388,256,308331,1,0,0:0:0:0:
336,276,308436,1,0,0:0:0:0:
292,312,308541,1,0,0:0:0:0:
236,328,308647,1,0,0:0:0:0:
180,320,308752,1,0,0:0:0:0:
132,288,308857,1,0,0:0:0:0:
112,236,308962,5,4,0:0:0:0:
168,248,309068,1,0,0:0:0:0:
224,248,309173,1,0,0:0:0:0:
280,232,309278,1,0,0:0:0:0:
324,196,309383,1,0,0:0:0:0:
360,148,309489,1,0,0:0:0:0:
360,92,309594,1,0,0:0:0:0:
340,40,309699,1,0,0:0:0:0:
288,20,309804,5,4,0:0:0:0:
308,76,309910,1,0,0:0:0:0:
308,132,310015,1,0,0:0:0:0:
284,184,310120,1,0,0:0:0:0:
240,220,310225,1,0,0:0:0:0:
184,232,310331,1,0,0:0:0:0:
128,232,310436,1,0,0:0:0:0:
72,216,310541,1,0,0:0:0:0:
36,168,310647,6,4,L|24:252,1,47.9999985351563
64,260,310857,2,0,L|128:312,1,47.9999985351563
156,304,311068,2,4,L|236:272,1,47.9999985351563
260,288,311278,2,0,L|332:320,1,47.9999985351563
356,280,311489,6,4,L|316:212,1,47.9999985351563
280,208,311699,2,0,L|200:212,1,47.9999985351563
180,184,311910,2,4,L|104:128,1,47.9999985351563
84,164,312120,2,0,L|16:176,1,47.9999985351563
16,120,312331,6,4,L|-16:64,1,47.9999985351563
20,28,312541,2,0,L|104:12,1,47.9999985351563
124,20,312752,2,4,L|184:44,1,47.9999985351563
224,36,312962,6,0,L|304:24,1,47.9999985351563
324,52,313173,2,4,L|400:80,1,47.9999985351563
424,56,313383,2,0,L|480:40,1,47.9999985351563
496,96,313594,2,4,L|524:172,1,47.9999985351563
492,192,313804,2,0,L|468:256,1,47.9999985351563
476,296,314015,5,4,0:0:0:0:
432,332,314120,1,0,0:0:0:0:
376,344,314225,1,0,0:0:0:0:
320,336,314331,1,0,0:0:0:0:
272,304,314436,1,0,0:0:0:0:
224,272,314541,1,0,0:0:0:0:
168,264,314647,1,0,0:0:0:0:
112,272,314752,1,0,0:0:0:0:
56,256,314857,5,4,0:0:0:0:
80,204,314962,1,0,0:0:0:0:
136,188,315068,1,0,0:0:0:0:
192,200,315173,1,0,0:0:0:0:
240,228,315278,1,0,0:0:0:0:
296,244,315383,1,0,0:0:0:0:
352,240,315489,1,0,0:0:0:0:
404,212,315594,1,0,0:0:0:0:
432,160,315699,5,4,0:0:0:0:
476,196,315804,1,0,0:0:0:0:
492,252,315910,1,0,0:0:0:0:
480,308,316015,1,0,0:0:0:0:
432,340,316120,1,0,0:0:0:0:
376,344,316225,1,0,0:0:0:0:
320,324,316331,1,0,0:0:0:0:
268,296,316436,1,0,0:0:0:0:
212,292,316541,1,0,0:0:0:0:
160,312,316646,1,0,0:0:0:0:
104,332,316752,1,0,0:0:0:0:
48,324,316857,1,0,0:0:0:0:
12,280,316962,1,0,0:0:0:0:
20,224,317068,1,0,0:0:0:0:
60,184,317173,1,0,0:0:0:0:
112,160,317278,1,0,0:0:0:0:
168,160,317383,6,4,L|184:272,1,95.9999970703126
328,88,317804,1,0,0:0:0:0:
292,8,318015,1,0,0:0:0:0:
181,255,318225,6,4,L|294:258,1,95.9999970703126
137,84,318646,1,0,0:0:0:0:
52,106,318857,1,0,0:0:0:0:
276,258,319068,6,4,L|299:147,1,95.9999970703126
99,271,319489,1,0,0:0:0:0:
106,359,319700,1,0,0:0:0:0:
295,164,319910,6,4,L|190:121,1,95.9999970703126
277,340,320331,1,0,0:0:0:0:
364,348,320542,1,0,0:0:0:0:
496,200,320752,6,4,L|472:96,1,95.9999970703126
388,32,321173,1,0,0:0:0:0:
348,72,321278,1,0,0:0:0:0:
340,128,321383,1,0,0:0:0:0:
360,184,321489,1,0,0:0:0:0:
360,240,321594,6,4,P|320:292|284:312,1,95.9999970703126
140,336,322015,1,0,0:0:0:0:
216,28,322225,1,0,0:0:0:0:
360,240,322436,5,0,0:0:0:0:
88,144,322646,1,0,0:0:0:0:
352,28,322857,5,0,0:0:0:0:
368,84,322962,1,0,0:0:0:0:
404,132,323068,1,0,0:0:0:0:
424,184,323173,1,0,0:0:0:0:
428,240,323278,6,4,P|416:316|400:352,1,95.9999970703126
212,360,323699,1,0,0:0:0:0:
264,104,323910,1,0,0:0:0:0:
420,232,324120,6,0,P|356:256|288:244,1,95.9999970703126
140,212,324541,2,0,P|200:180|240:172,1,95.9999970703126
372,40,324962,2,0,P|380:100|372:144,1,95.9999970703126
276,336,325383,2,0,P|256:276|260:232,1,95.9999970703126
296,88,325804,5,0,0:0:0:0:
452,208,326015,1,0,0:0:0:0:
256,244,326225,2,0,P|208:240|164:216,1,95.9999970703126
56,96,326646,5,0,0:0:0:0:
308,24,326857,1,0,0:0:0:0:
256,244,327068,1,0,0:0:0:0:
56,96,327278,6,0,P|120:84|156:92,1,95.9999970703126
264,20,327699,2,0,P|296:60|312:120,1,95.9999970703126
432,144,328120,2,0,P|412:196|372:232,1,95.9999970703126
360,348,328541,1,0,0:0:0:0:
120,264,328752,2,0,P|188:232|224:232,1,95.9999970703126
360,348,329173,5,0,0:0:0:0:
300,136,329383,1,0,0:0:0:0:
484,184,329594,2,0,P|504:232|504:248,1,47.9999985351563
492,328,329804,5,0,0:0:0:0:
152,236,330015,1,0,0:0:0:0:
328,52,330225,2,0,P|392:40|428:48,1,95.9999970703126
496,288,330646,5,0,0:0:0:0:
160,96,330857,1,0,0:0:0:0:
424,48,331068,2,0,P|420:104|408:124,1,47.9999985351563
496,172,331278,2,0,P|460:216|440:224,1,47.9999985351563
484,312,331489,2,0,P|432:320|400:312,1,47.9999985351563
356,368,331699,2,0,P|324:324|320:296,1,47.9999985351563
232,240,331910,6,0,P|216:284|216:308,1,47.9999985351563
136,176,332120,2,0,P|124:224|124:240,1,47.9999985351563
60,104,332331,2,0,P|24:148|16:164,1,47.9999985351563
56,16,332541,2,0,P|4:16|-16:28,1,47.9999985351563
176,48,332752,2,0,P|148:0|144:-4,1,47.9999985351563
264,44,332962,6,0,P|292:112|292:120,1,47.9999985351563
388,112,333173,2,0,P|368:164|352:184,1,47.9999985351563
424,248,333383,2,0,P|380:284|356:288,1,47.9999985351563
256,260,333594,1,0,0:0:0:0:
184,160,333804,6,0,P|236:128|256:128,1,47.9999985351563
228,24,334015,2,0,P|284:32|312:52,1,47.9999985351563
376,8,334225,2,0,P|396:52|404:80,1,47.9999985351563
480,116,334436,2,0,P|456:160|440:176,1,47.9999985351563
364,128,334646,6,0,P|356:192|360:204,1,47.9999985351563
260,216,334857,2,0,P|296:276|316:288,1,47.9999985351563
240,352,335068,2,0,P|300:360|320:352,1,47.9999985351563
380,316,335278,5,0,0:0:0:0:
368,272,335383,1,0,0:0:0:0:
384,232,335489,1,0,0:0:0:0:
380,196,335594,1,0,0:0:0:0:
388,156,335699,6,0,P|412:108|424:96,1,47.9999985351563
352,32,335910,2,0,P|424:16|432:16,1,47.9999985351563
496,16,336120,2,0,P|512:72|512:96,1,47.9999985351563
488,160,336331,6,0,P|460:120|452:104,1,47.9999985351563
360,128,336541,2,0,P|376:68|388:56,1,47.9999985351563
280,32,336752,2,0,P|324:0|340:-8,1,47.9999985351563
192,8,336962,6,0,P|172:56|176:76,1,47.9999985351563
72,76,337173,2,0,P|92:136|104:152,1,47.9999985351563
72,228,337383,2,0,P|140:256|152:256,1,47.9999985351563
160,340,337594,2,0,P|208:320|224:304,1,47.9999985351563
280,264,337804,5,0,0:0:0:0:
268,228,337910,1,0,0:0:0:0:
272,192,338015,2,0,P|304:136|316:128,1,47.9999985351563
288,48,338225,2,0,P|344:44|360:48,1,47.9999985351563
432,72,338436,5,0,0:0:0:0:
164,116,338646,1,0,0:0:0:0:
288,48,338857,2,0,P|304:120|296:164,1,95.9999970703126
240,260,339278,1,0,0:0:0:0:
216,240,339383,1,0,0:0:0:0:
208,212,339489,1,0,0:0:0:0:
200,20,339699,6,0,P|248:52|268:96,1,95.9999970703126
388,128,340120,2,0,P|368:192|308:224,1,95.9999970703126
384,332,340541,2,0,P|328:336|280:316,1,95.9999970703126
192,236,340962,1,0,0:0:0:0:
280,100,341173,5,0,0:0:0:0:
280,100,341278,1,0,0:0:0:0:
280,100,341383,2,0,P|332:92|356:104,1,47.9999985351563
480,128,341594,5,0,0:0:0:0:
488,168,341699,1,0,0:0:0:0:
480,212,341804,2,0,P|456:260|440:276,1,47.9999985351563
360,328,342015,5,0,0:0:0:0:
228,180,342225,1,0,0:0:0:0:
384,152,342436,1,0,0:0:0:0:
360,328,342646,5,0,0:0:0:0:
324,308,342752,1,0,0:0:0:0:
280,320,342857,1,0,0:0:0:0:
200,368,343068,5,8,0:0:0:0:
128,116,343278,1,0,0:0:0:0:
112,328,343489,5,8,0:0:0:0:
208,56,343699,1,0,0:0:0:0:
48,240,343910,5,8,0:0:0:0:
344,48,344120,1,0,0:0:0:0:
376,40,346015,6,4,B|348:120|400:120|376:224,1,180.000006866455
472,240,346857,2,4,P|448:284|320:296,1,180.000006866455
268,224,347699,2,4,P|181:219|125:285,1,180.000006866455
68,364,348541,6,4,P|40:332|32:208,1,150.000005722046
48,100,349383,2,4,B|88:89|88:89|183:114|183:114|240:108,1,180.000006866455
260,24,350225,2,4,P|288:40|292:176,1,180.000006866455
200,168,351067,6,4,P|208:220|264:272,2,120.000004577637
128,104,352330,2,4,P|160:88|196:80,1,60.0000022888184
264,4,352751,2,4,B|239:92|288:92|264:192,1,180.000006866455
176,224,353593,2,4,P|204:248|248:264,1,60.0000022888184
304,316,354015,2,4,P|332:296|352:264,1,60.0000022888184
440,252,354436,6,4,P|420:212|296:192,1,180.000006866455
208,160,355278,2,4,P|204:200|212:224,1,60.0000022888184
156,296,355699,2,4,P|192:312|216:312,1,60.0000022888184
300,360,356120,2,4,P|320:328|292:192,1,180.000006866455
224,140,356962,6,4,P|252:116|284:104,1,60.0000022888184
320,24,357383,2,4,P|352:48|364:76,1,60.0000022888184
456,64,357804,6,4,B|480:152|431:152|460:248,1,180.000006866455
504,332,358646,2,4,P|468:348|436:352,1,60.0000022888184
368,292,359067,2,4,P|344:272|328:236,1,60.0000022888184
256,192,359488,12,0,362646,0:0:0:0:
372,56,362857,5,4,0:0:0:0:
392,84,362962,1,0,0:0:0:0:
408,116,363067,1,0,0:0:0:0:
416,152,363172,1,0,0:0:0:0:
416,188,363278,1,0,0:0:0:0:
404,224,363383,1,0,0:0:0:0:
384,256,363488,1,0,0:0:0:0:
376,292,363593,1,0,0:0:0:0:
392,324,363699,5,4,0:0:0:0:
360,308,363804,1,0,0:0:0:0:
324,300,363909,1,0,0:0:0:0:
288,308,364015,1,0,0:0:0:0:
256,324,364120,1,0,0:0:0:0:
220,332,364225,1,0,0:0:0:0:
184,324,364330,1,0,0:0:0:0:
152,308,364436,1,0,0:0:0:0:
128,288,364541,6,0,P|80:280|56:284,1,47.9999985351563
40,296,364751,1,0,0:0:0:0:
24,264,364857,6,0,P|24:216|36:188,1,47.9999985351563
48,188,365067,1,0,0:0:0:0:
84,184,365172,6,0,P|144:192|164:188,1,47.9999985351563
168,172,365383,2,0,P|224:164|248:172,1,47.9999985351563
256,176,365593,1,0,0:0:0:0:
300,160,365699,6,0,P|332:124|336:108,1,47.9999985351563
336,84,365909,1,0,0:0:0:0:
312,48,366015,2,0,P|264:36|252:40,1,47.9999985351563
224,48,366225,1,0,0:0:0:0:
204,88,366330,1,0,0:0:0:0:
212,128,366436,2,0,P|240:168|260:184,1,47.9999985351563
280,188,366646,5,4,0:0:0:0:
336,172,366751,1,0,0:0:0:0:
392,172,366857,1,0,0:0:0:0:
444,192,366962,1,0,0:0:0:0:
492,160,367067,5,4,0:0:0:0:
452,120,367172,1,0,0:0:0:0:
400,96,367278,1,0,0:0:0:0:
344,88,367383,1,0,0:0:0:0:
292,68,367488,5,4,0:0:0:0:
336,28,367593,1,0,0:0:0:0:
392,24,367699,1,0,0:0:0:0:
448,40,367804,1,0,0:0:0:0:
480,88,367909,6,4,P|496:144|496:164,1,47.9999985351563
488,184,368120,1,0,0:0:0:0:
468,236,368225,1,0,0:0:0:0:
428,276,368330,5,4,0:0:0:0:
412,220,368436,1,0,0:0:0:0:
376,176,368541,1,0,0:0:0:0:
324,152,368646,1,0,0:0:0:0:
292,104,368751,5,4,0:0:0:0:
348,88,368857,1,0,0:0:0:0:
404,100,368962,1,0,0:0:0:0:
456,124,369067,1,0,0:0:0:0:
488,76,369172,5,4,0:0:0:0:
440,44,369278,1,0,0:0:0:0:
384,24,369383,1,0,0:0:0:0:
328,16,369488,1,0,0:0:0:0:
272,20,369594,6,0,L|236:36,7,26.6666666666667
152,40,370436,2,0,L|152:80,1,26.6666666666667
100,132,370646,2,0,L|128:156,1,26.6666666666667
128,228,370857,1,0,0:0:0:0:
252,136,371067,1,0,0:0:0:0:
376,180,371278,1,0,0:0:0:0:
288,280,371488,5,0,0:0:0:0:
252,136,371699,1,0,0:0:0:0:
376,180,371909,1,0,0:0:0:0:
288,280,372120,6,0,P|244:288|216:280,1,53.3333333333333
112,180,372541,1,0,0:0:0:0:
244,80,372751,1,0,0:0:0:0:
292,236,372962,1,0,0:0:0:0:
160,96,373172,5,0,0:0:0:0:
352,88,373383,1,0,0:0:0:0:
292,236,373594,1,0,0:0:0:0:
240,40,373804,5,0,0:0:0:0:
416,184,374015,1,0,0:0:0:0:
264,312,374225,1,0,0:0:0:0:
184,172,374436,1,0,0:0:0:0:
104,324,374646,1,0,0:0:0:0:
304,216,374857,5,0,0:0:0:0:
136,116,375067,1,0,0:0:0:0:
104,324,375278,1,0,0:0:0:0:
260,120,375488,5,0,0:0:0:0:
216,348,375699,1,0,0:0:0:0:
156,68,375909,5,0,0:0:0:0:
328,268,376120,1,0,0:0:0:0:
104,240,376330,5,0,0:0:0:0:
304,72,376541,1,0,0:0:0:0:
80,28,376751,1,0,0:0:0:0:
244,236,376962,1,0,0:0:0:0:
200,44,377172,5,0,0:0:0:0:
64,184,377383,1,0,0:0:0:0:
244,236,377594,1,0,0:0:0:0:
88,64,377804,1,0,0:0:0:0:
152,312,378015,1,0,0:0:0:0:
304,108,378225,1,0,0:0:0:0:
48,164,378436,5,0,0:0:0:0:
296,224,378646,1,0,0:0:0:0:
232,8,378857,2,0,P|204:24|184:56,1,53.3333333333333
180,144,379278,5,0,0:0:0:0:
200,160,379383,1,0,0:0:0:0:
232,168,379488,1,0,0:0:0:0:
256,192,379594,1,0,0:0:0:0:
272,220,379699,1,4,0:0:0:0:
368,244,379909,6,0,P|368:208|360:196,2,26.6666666666667
436,160,380330,1,4,0:0:0:0:
408,72,380541,2,0,P|372:80|368:84,2,26.6666666666667
316,16,380962,5,0,0:0:0:0:
256,132,381172,1,0,0:0:0:0:
384,148,381383,1,0,0:0:0:0:
228,24,381594,5,0,0:0:0:0:
296,216,381804,1,0,0:0:0:0:
368,40,382015,1,0,0:0:0:0:
184,124,382225,5,0,0:0:0:0:
160,220,382436,2,0,L|196:252,2,26.6666666666667
176,328,382857,1,0,0:0:0:0:
316,240,383067,1,0,0:0:0:0:
212,144,383278,5,0,0:0:0:0:
272,328,383488,1,0,0:0:0:0:
352,152,383699,1,0,0:0:0:0:
208,232,383909,5,0,0:0:0:0:
240,240,384015,1,0,0:0:0:0:
272,240,384120,1,0,0:0:0:0:
304,236,384225,1,0,0:0:0:0:
336,240,384330,1,0,0:0:0:0:
364,252,384436,1,0,0:0:0:0:
392,264,384541,1,0,0:0:0:0:
424,260,384646,1,0,0:0:0:0:
444,236,384751,6,0,L|468:200,1,26.6666666666667
408,140,384962,2,0,L|408:108,1,26.6666666666667
328,72,385172,2,0,L|312:44,1,26.6666666666667
408,140,385383,6,0,L|368:156,1,26.6666666666667
444,236,385594,2,0,L|400:236,1,26.6666666666667
400,328,385804,2,0,L|368:316,1,26.6666666666667
444,236,386015,6,0,L|448:272,1,26.6666666666667
348,236,386225,2,0,L|364:264,1,26.6666666666667
280,308,386436,2,0,L|312:336,1,26.6666666666667
348,236,386646,6,0,L|356:200,1,26.6666666666667
284,152,386857,2,0,L|316:132,1,26.6666666666667
284,52,387067,2,0,L|320:48,1,26.6666666666667
284,152,387278,6,0,L|260:184,1,26.6666666666667
192,120,387488,2,0,L|152:132,1,26.6666666666667
112,52,387699,2,0,L|72:32,1,26.6666666666667
192,120,387909,6,0,L|220:104,1,26.6666666666667
288,168,388120,2,0,L|320:168,1,26.6666666666667
360,252,388330,2,0,L|412:256,1,26.6666666666667
288,168,388541,6,0,L|248:176,1,26.6666666666667
260,272,388751,2,0,L|240:308,1,26.6666666666667
320,360,388962,2,0,L|328:392,1,26.6666666666667
260,272,389172,6,0,L|296:248,1,26.6666666666667
360,212,389383,1,0,0:0:0:0:
360,212,389488,2,0,L|372:248,1,26.6666666666667
444,284,389699,1,0,0:0:0:0:
444,284,389804,2,0,L|424:316,1,26.6666666666667
364,352,390015,5,0,0:0:0:0:
336,340,390120,1,0,0:0:0:0:
304,332,390225,1,0,0:0:0:0:
272,328,390330,1,0,0:0:0:0:
240,332,390436,5,0,0:0:0:0:
164,228,390646,1,0,0:0:0:0:
152,328,390857,5,0,0:0:0:0:
264,208,391067,1,0,0:0:0:0:
164,228,391278,5,0,0:0:0:0:
172,196,391383,1,0,0:0:0:0:
184,168,391488,1,0,0:0:0:0:
204,140,391594,1,0,0:0:0:0:
228,120,391699,5,0,0:0:0:0:
348,72,391909,1,0,0:0:0:0:
328,200,392120,1,0,0:0:0:0:
228,120,392330,5,0,0:0:0:0:
348,72,392541,1,0,0:0:0:0:
368,96,392646,1,0,0:0:0:0:
384,124,392751,1,0,0:0:0:0:
392,156,392857,1,0,0:0:0:0:
396,188,392962,5,0,0:0:0:0:
344,304,393172,1,0,0:0:0:0:
272,196,393383,1,0,0:0:0:0:
396,188,393594,5,0,0:0:0:0:
344,304,393804,1,0,0:0:0:0:
312,300,393909,1,0,0:0:0:0:
288,280,394015,1,0,0:0:0:0:
272,252,394120,1,0,0:0:0:0:
264,220,394225,5,0,0:0:0:0:
312,104,394436,1,0,0:0:0:0:
352,200,394646,5,0,0:0:0:0:
220,100,394857,1,0,0:0:0:0:
208,56,395488,5,0,0:0:0:0:
172,28,396120,5,0,0:0:0:0:
128,116,396330,1,0,0:0:0:0:
164,204,396541,1,0,0:0:0:0:
128,116,396751,5,0,0:0:0:0:
220,88,396962,1,0,0:0:0:0:
304,132,397172,1,0,0:0:0:0:
220,88,397383,6,0,P|204:120|200:152,1,53.3333333333333
232,240,397699,2,0,L|252:220,2,26.6666666666667
272,328,398015,5,0,0:0:0:0:
344,260,398225,1,0,0:0:0:0:
436,244,398436,1,0,0:0:0:0:
344,260,398646,6,0,P|332:224|332:200,1,53.3333333333333
376,120,398962,2,0,L|396:144,2,26.6666666666667
300,56,399278,5,0,0:0:0:0:
204,64,399488,1,0,0:0:0:0:
148,144,399699,1,0,0:0:0:0:
204,64,399909,6,0,P|240:108|248:144,1,80
236,236,400330,1,0,0:0:0:0:
236,236,400436,1,0,0:0:0:0:
236,236,400541,1,0,0:0:0:0:
140,144,400751,5,0,0:0:0:0:
336,136,400962,1,0,0:0:0:0:
256,320,401172,2,0,P|224:324|168:312,1,80
108,252,401594,5,0,0:0:0:0:
108,252,401699,1,0,0:0:0:0:
108,252,401804,1,0,0:0:0:0:
204,120,402015,5,0,0:0:0:0:
256,320,402225,1,0,0:0:0:0:
108,252,402436,2,0,P|84:224|88:172,1,80
124,96,402857,5,0,0:0:0:0:
264,176,403067,1,0,0:0:0:0:
116,260,403278,1,0,0:0:0:0:
116,260,403383,1,0,0:0:0:0:
116,260,403488,1,0,0:0:0:0:
196,56,403699,5,0,0:0:0:0:
296,256,403909,1,0,0:0:0:0:
104,144,404120,1,0,0:0:0:0:
144,136,404225,1,0,0:0:0:0:
188,152,404330,1,0,0:0:0:0:
296,256,404541,5,0,0:0:0:0:
320,216,404646,1,0,0:0:0:0:
328,168,404751,1,4,0:0:0:0:
176,40,405804,5,0,0:0:0:0:
184,72,406435,5,0,0:0:0:0:
192,108,407067,5,0,0:0:0:0:
200,144,407698,5,0,0:0:0:0:
212,192,408330,5,4,0:0:0:0:
244,228,408408,1,0,0:0:0:0:
288,248,408487,1,0,0:0:0:0:
336,252,408566,1,0,0:0:0:0:
384,260,408645,1,0,0:0:0:0:
428,284,408724,1,0,0:0:0:0:
476,292,408803,2,0,P|512:268|528:224,1,80
484,148,409119,6,0,P|456:188|452:208,1,40
452,224,409277,1,0,0:0:0:0:
436,268,409356,1,0,0:0:0:0:
388,280,409435,1,0,0:0:0:0:
344,264,409514,1,0,0:0:0:0:
332,216,409593,5,4,0:0:0:0:
296,184,409672,1,0,0:0:0:0:
248,172,409751,1,0,0:0:0:0:
200,180,409830,1,0,0:0:0:0:
160,204,409908,1,0,0:0:0:0:
112,216,409987,1,0,0:0:0:0:
64,204,410066,2,0,P|32:172|16:128,1,80
60,48,410382,6,0,P|104:76|112:80,1,40
112,104,410540,1,0,0:0:0:0:
152,128,410619,1,0,0:0:0:0:
200,132,410698,1,0,0:0:0:0:
244,112,410777,1,0,0:0:0:0:
292,124,410856,5,4,0:0:0:0:
332,152,410935,1,0,0:0:0:0:
380,152,411014,1,0,0:0:0:0:
424,136,411093,1,0,0:0:0:0:
456,100,411172,1,0,0:0:0:0:
464,52,411251,1,0,0:0:0:0:
440,8,411330,6,0,P|396:-4|328:0,1,80
264,0,411566,2,0,P|280:56|288:64,1,40
288,80,411724,1,0,0:0:0:0:
304,124,411803,1,0,0:0:0:0:
300,172,411882,1,0,0:0:0:0:
284,216,411961,1,0,0:0:0:0:
292,264,412040,1,0,0:0:0:0:
316,304,412119,5,4,0:0:0:0:
288,344,412198,1,0,0:0:0:0:
240,356,412277,1,0,0:0:0:0:
192,344,412356,1,0,0:0:0:0:
160,308,412435,1,0,0:0:0:0:
156,260,412514,1,0,0:0:0:0:
184,220,412593,6,0,P|264:168|296:168,1,120
368,120,412908,2,0,P|384:172|388:188,1,40
372,208,413066,1,0,0:0:0:0:
340,244,413145,1,0,0:0:0:0:
332,292,413224,1,0,0:0:0:0:
352,336,413303,1,0,0:0:0:0:
392,360,413382,6,4,P|464:292|440:128,1,200
444,92,413698,2,0,P|376:168|392:264,1,200
328,332,414014,2,0,P|292:224|304:124,1,200
444,92,414330,1,0,0:0:0:0:
260,28,414487,1,0,0:0:0:0:
260,28,414645,6,0,P|172:104|156:216,1,200
232,284,414961,2,0,P|112:276|64:204,1,200
52,116,415277,2,0,P|-16:212|20:308,1,200
152,360,415593,1,0,0:0:0:0:
332,228,415751,1,0,0:0:0:0:
192,88,415908,5,4,0:0:0:0:
168,140,415987,1,0,0:0:0:0:
176,196,416066,1,0,0:0:0:0:
212,244,416145,1,0,0:0:0:0:
216,300,416224,5,4,0:0:0:0:
160,292,416303,1,0,0:0:0:0:
112,264,416382,1,0,0:0:0:0:
72,220,416461,1,0,0:0:0:0:
64,164,416540,5,4,0:0:0:0:
32,212,416619,1,0,0:0:0:0:
36,268,416698,1,0,0:0:0:0:
68,316,416777,1,0,0:0:0:0:
120,344,416856,5,4,0:0:0:0:
160,292,416935,1,0,0:0:0:0:
212,272,417014,1,0,0:0:0:0:
268,276,417093,1,0,0:0:0:0:
308,236,417172,5,4,0:0:0:0:
276,188,417251,1,0,0:0:0:0:
228,160,417330,1,0,0:0:0:0:
172,148,417408,1,0,0:0:0:0:
136,100,417487,5,4,0:0:0:0:
188,76,417566,1,0,0:0:0:0:
244,72,417645,1,0,0:0:0:0:
300,80,417724,1,0,0:0:0:0:
364,48,417803,5,4,0:0:0:0:
384,116,417882,1,0,0:0:0:0:
404,184,417961,1,0,0:0:0:0:
424,252,418040,1,0,0:0:0:0:
432,316,418119,2,0,P|368:344|304:336,1,95.9999970703126
224,204,418435,5,4,0:0:0:0:
180,228,418514,1,0,0:0:0:0:
160,272,418593,1,0,0:0:0:0:
164,320,418672,1,0,0:0:0:0:
196,356,418751,5,4,0:0:0:0:
148,368,418830,1,0,0:0:0:0:
104,356,418908,1,0,0:0:0:0:
80,316,418987,1,0,0:0:0:0:
92,268,419066,5,4,0:0:0:0:
136,252,419145,1,0,0:0:0:0:
184,260,419224,1,0,0:0:0:0:
228,244,419303,1,0,0:0:0:0:
256,204,419382,5,4,0:0:0:0:
240,160,419461,1,0,0:0:0:0:
204,128,419540,1,0,0:0:0:0:
160,112,419619,1,0,0:0:0:0:
144,68,419698,5,4,0:0:0:0:
184,40,419777,1,0,0:0:0:0:
232,40,419856,1,0,0:0:0:0:
276,56,419935,1,0,0:0:0:0:
324,48,420014,5,4,0:0:0:0:
284,20,420093,1,0,0:0:0:0:
236,8,420172,1,0,0:0:0:0:
188,12,420251,1,0,0:0:0:0:
152,40,420330,5,4,0:0:0:0:
192,68,420408,1,0,0:0:0:0:
220,108,420487,1,0,0:0:0:0:
224,156,420566,1,0,0:0:0:0:
196,196,420645,5,4,0:0:0:0:
236,220,420724,1,0,0:0:0:0:
284,228,420803,1,0,0:0:0:0:
332,220,420882,1,0,0:0:0:0:
368,184,420961,2,0,P|380:136|360:80,1,80
316,24,421277,5,0,0:0:0:0:
288,48,421356,1,0,0:0:0:0:
288,84,421435,1,0,0:0:0:0:
272,120,421514,1,0,0:0:0:0:
248,144,421593,2,0,P|208:160|144:144,1,80
152,64,421908,2,0,P|104:32|84:12,1,80
16,92,422224,6,0,L|24:180,1,80
108,312,422540,1,0,0:0:0:0:
284,220,422698,2,0,P|236:204|224:204,1,40
184,120,422856,2,0,P|144:152|120:204,1,80
108,312,423172,5,0,0:0:0:0:
360,160,423330,1,0,0:0:0:0:
176,24,423487,2,0,P|120:36|88:60,1,80
0,56,423803,2,0,P|20:104|48:132,1,80
56,224,424119,2,0,P|104:200|128:168,1,80
176,28,424435,5,0,0:0:0:0:
344,128,424593,1,0,0:0:0:0:
244,296,424751,2,0,P|204:260|184:228,1,80
176,28,425066,5,0,0:0:0:0:
408,208,425224,1,0,0:0:0:0:
244,296,425382,1,0,0:0:0:0:
284,104,425540,1,0,0:0:0:0:
284,104,425619,1,0,0:0:0:0:
284,104,425698,2,0,P|352:88|392:88,1,80
480,136,426014,5,4,0:0:0:0:
488,184,426093,1,0,0:0:0:0:
484,232,426172,1,0,0:0:0:0:
460,276,426251,1,0,0:0:0:0:
416,292,426330,5,4,0:0:0:0:
388,256,426408,1,0,0:0:0:0:
380,208,426487,1,0,0:0:0:0:
392,160,426566,1,0,0:0:0:0:
400,112,426645,5,4,0:0:0:0:
364,80,426724,1,0,0:0:0:0:
316,76,426803,1,0,0:0:0:0:
268,88,426882,1,0,0:0:0:0:
280,136,426961,5,4,0:0:0:0:
264,180,427040,1,0,0:0:0:0:
228,212,427119,1,0,0:0:0:0:
180,220,427198,1,0,0:0:0:0:
140,196,427277,2,0,P|104:140|104:108,1,80
84,24,427593,5,0,0:0:0:0:
244,68,427751,1,0,0:0:0:0:
140,196,427908,2,0,P|96:224|56:236,1,80
8,152,428224,5,0,0:0:0:0:
264,172,428382,1,0,0:0:0:0:
152,332,428540,2,0,P|112:352|72:356,1,80
20,240,428856,2,0,P|-8:212|-28:168,1,80
72,84,429172,2,0,P|112:56|148:44,1,80
248,116,429487,2,0,P|288:124|336:156,1,80
416,232,429803,5,4,0:0:0:0:
408,268,429882,1,0,0:0:0:0:
384,296,429961,1,8,0:0:0:0:
352,312,430040,1,0,0:0:0:0:
312,288,430119,5,4,0:0:0:0:
264,280,430198,1,0,0:0:0:0:
216,288,430277,1,8,0:0:0:0:
172,304,430356,1,0,0:0:0:0:
116,288,430435,5,4,0:0:0:0:
92,236,430514,1,0,0:0:0:0:
96,180,430593,1,8,0:0:0:0:
128,132,430672,1,0,0:0:0:0:
188,92,430751,5,4,0:0:0:0:
140,36,430830,1,0,0:0:0:0:
68,44,430908,1,8,0:0:0:0:
28,104,430987,1,0,0:0:0:0:
52,172,431066,6,0,P|88:208|96:212,1,40
128,204,431224,2,0,L|196:208,1,40
216,220,431382,2,0,P|260:248|264:256,1,40
280,276,431540,2,0,P|300:328|300:340,1,40
332,344,431698,2,0,P|388:368|400:368,1,40
408,336,431856,2,0,P|448:288|452:280,1,40
436,260,432014,2,0,P|428:200|424:188,1,40
412,176,432172,5,0,0:0:0:0:
376,144,432251,1,0,0:0:0:0:
328,136,432330,1,0,0:0:0:0:
160,180,432487,5,0,0:0:0:0:
260,16,432645,1,2,0:0:0:0:
312,216,432803,1,0,0:0:0:0:
76,96,432961,1,2,0:0:0:0:
360,40,433119,1,0,0:0:0:0:
208,292,433277,5,2,0:0:0:0:
128,16,433435,1,0,0:0:0:0:
456,148,433593,1,2,0:0:0:0:
76,224,433751,1,0,0:0:0:0:
228,60,433908,5,2,0:0:0:0:
352,172,434066,1,0,0:0:0:0:
192,220,434224,1,2,0:0:0:0:
320,72,434382,1,0,0:0:0:0:
292,236,434540,1,2,0:0:0:0:
216,124,434698,1,2,0:0:0:0:
360,152,434856,6,0,P|376:188|364:296,1,143.999995605469
288,360,435961,1,0,0:0:0:0:
264,348,436040,1,0,0:0:0:0:
248,332,436119,2,0,B|276:220|212:220|248:116,1,215.999993408203
