osu file format v14

[General]
AudioFilename: audio.mp3
AudioLeadIn: 0
PreviewTime: 48121
Countdown: 0
SampleSet: None
StackLeniency: 0.9
Mode: 0
LetterboxInBreaks: 0
WidescreenStoryboard: 1

[Editor]
Bookmarks: 44429,45237,45352,46044
DistanceSpacing: 1
BeatDivisor: 4
GridSize: 8
TimelineZoom: 1.6

[Metadata]
Title:Effect
TitleUnicode:Effect
Artist:Yamato Kasai & Chiho
ArtistUnicode:Yamato Kasai & Chiho
Creator:Lune Arisa
Version:Insane ver.2
Source:
Tags:yamato kasai mili hamo effect
BeatmapID:4330650
BeatmapSetID:617099

[Difficulty]
HPDrainRate:5
CircleSize:3.8
OverallDifficulty:8
ApproachRate:8.3
SliderMultiplier:1.6
SliderTickRate:1

[Events]
//Background and Video events
0,0,"__kaname_madoka_and_ultimate_madoka_mahou_shoujo_madoka_magica_and_1_more_drawn_by_bai_qi_qsr__050312b3817b4a05a09fb98cfde59adf(1).jpg",0,0
//Break Periods
//Storyboard Layer 0 (Background)
//Storyboard Layer 1 (Fail)
//Storyboard Layer 2 (Pass)
//Storyboard Layer 3 (Foreground)
//Storyboard Layer 4 (Overlay)
//Storyboard Sound Samples

[TimingPoints]
1968,461.538461538462,4,1,0,80,1,0
16275,-71.4285714285714,4,1,0,80,0,0
16506,-142.857142857143,4,1,0,80,0,0
21352,-111.111111111111,4,1,0,80,0,0
23891,-100,4,1,0,80,0,0
44429,-333.333333333333,4,1,0,80,0,0
46275,-142.857142857143,4,1,0,80,0,0
48121,461.538461538462,4,1,0,80,1,1
48121,-86.9565217391304,4,1,0,80,0,1
62890,461.538461538462,4,1,0,80,1,0
68428,-142.857142857143,4,1,0,80,0,0

[HitObjects]
144,196,1968,5,0,0:0:0:0:
241,280,2198,2,0,P|284:288|335:273,1,80
330,176,2660,1,0,0:0:0:0:
267,53,2891,1,0,0:0:0:0:
398,122,3121,2,0,P|363:163|340:195,1,80
191,201,3583,1,0,0:0:0:0:
328,99,3814,5,0,0:0:0:0:
390,248,4044,1,0,0:0:0:0:
257,239,4275,2,0,P|208:233|144:233,1,80
102,113,4737,2,0,P|152:107|211:204,1,160
168,288,5429,1,0,0:0:0:0:
342,201,5660,5,0,0:0:0:0:
430,328,5891,1,0,0:0:0:0:
290,309,6121,1,0,0:0:0:0:
368,212,6352,2,0,P|394:160|403:126,1,80
272,116,7044,1,0,0:0:0:0:
144,204,7506,6,0,P|171:244|281:228,1,160
349,113,8429,2,0,P|366:162|363:291,1,160
216,236,9352,1,0,0:0:0:0:
54,169,9583,1,0,0:0:0:0:
89,328,9814,1,0,0:0:0:0:
230,230,10044,2,0,P|286:227|338:235,1,80
394,328,10506,1,0,0:0:0:0:
341,169,10737,1,0,0:0:0:0:
245,259,10968,1,0,0:0:0:0:
400,186,11198,5,0,0:0:0:0:
277,138,11429,2,0,P|226:138|200:245,1,160
254,300,12121,2,0,P|254:245|235:210,1,80
144,147,12583,1,0,0:0:0:0:
62,266,12814,1,0,0:0:0:0:
200,250,13044,6,0,P|243:247|280:131,1,160
191,113,13737,1,0,0:0:0:0:
191,113,13968,2,0,B|264:80|280:168|360:144,1,160
403,85,14660,1,0,0:0:0:0:
329,198,14891,2,0,P|284:219|188:164,1,160
257,140,15814,6,0,P|251:183|235:216,1,80
316,296,16275,2,0,P|316:221|342:168,1,111.999996582031
380,113,16737,5,0,0:0:0:0:
154,159,17198,2,0,P|182:199|186:225,1,55.9999982910157
359,295,17660,2,0,P|378:254|347:182,1,111.999996582031
183,190,18352,1,0,0:0:0:0:
214,189,18583,6,0,P|250:173|281:164,1,55.9999982910157
400,219,19044,1,0,0:0:0:0:
299,91,19352,1,0,0:0:0:0:
299,91,19429,1,0,0:0:0:0:
299,91,19506,1,0,0:0:0:0:
255,219,19737,1,0,0:0:0:0:
216,62,19968,5,0,0:0:0:0:
360,190,20198,1,0,0:0:0:0:
228,240,20429,2,0,P|185:219|172:158,1,111.999996582031
266,97,21121,1,0,0:0:0:0:
249,119,21352,2,0,P|242:157|225:203,1,71.9999978027344
141,291,21814,1,0,0:0:0:0:
297,308,22044,1,0,0:0:0:0:
297,308,22275,6,0,P|345:294|369:202,1,143.999995605469
253,118,22968,1,0,0:0:0:0:
187,243,23198,2,0,P|237:253|274:280,1,71.9999978027344
315,326,23660,2,0,L|343:251,1,71.9999978027344
204,157,24121,5,0,0:0:0:0:
236,295,24352,1,0,0:0:0:0:
338,210,24583,1,0,0:0:0:0:
174,178,24814,1,0,0:0:0:0:
190,181,24929,2,0,P|241:177|263:183,1,40
358,192,25506,1,0,0:0:0:0:
254,336,25814,1,0,0:0:0:0:
254,336,25891,1,0,0:0:0:0:
254,336,25968,1,0,0:0:0:0:
139,273,26198,6,0,P|118:227|118:191,1,80
274,114,26660,1,0,0:0:0:0:
97,207,26891,1,0,0:0:0:0:
268,221,27121,1,0,0:0:0:0:
70,147,27352,1,0,0:0:0:0:
154,291,27583,1,0,0:0:0:0:
154,291,27698,1,0,0:0:0:0:
154,291,27814,6,0,P|214:289|241:289,1,80
389,255,28275,2,0,P|384:199|297:162,1,160
235,274,28968,1,0,0:0:0:0:
180,195,29198,1,0,0:0:0:0:
162,100,29429,1,0,0:0:0:0:
261,162,29660,6,0,P|276:225|209:287,1,160
125,168,30583,2,0,P|184:209|280:208,1,160
344,117,31275,1,0,0:0:0:0:
362,211,31506,6,0,P|365:262|372:312,1,80
253,328,31968,2,0,P|181:311|171:311,1,80
260,222,32429,2,0,P|281:173|281:141,1,80
189,84,32891,1,0,0:0:0:0:
324,168,33121,1,0,0:0:0:0:
233,237,33352,6,0,P|205:249|157:277,1,80
302,313,33814,2,0,L|381:329,1,80
425,222,34275,2,0,P|446:165|375:94,1,160
257,181,35198,1,0,0:0:0:0:
189,335,35660,1,0,0:0:0:0:
363,277,35891,1,0,0:0:0:0:
347,253,36006,1,0,0:0:0:0:
334,228,36121,1,0,0:0:0:0:
286,99,36352,1,0,0:0:0:0:
157,182,36583,2,0,P|232:190|251:193,1,80
377,288,37044,6,0,P|372:198|308:160,1,160
167,252,37968,1,0,0:0:0:0:
309,104,38429,1,0,0:0:0:0:
388,258,38891,5,0,0:0:0:0:
217,347,39121,1,0,0:0:0:0:
223,179,39352,1,0,0:0:0:0:
373,292,39583,5,0,0:0:0:0:
441,130,39814,1,0,0:0:0:0:
261,131,40044,1,0,0:0:0:0:
306,270,40275,2,0,P|347:230|365:205,1,80
253,160,40737,6,0,P|203:160|154:267,1,160
354,321,41660,1,0,0:0:0:0:
408,131,42121,1,0,0:0:0:0:
335,303,42583,5,0,0:0:0:0:
246,78,42814,1,0,0:0:0:0:
175,306,43044,5,0,0:0:0:0:
277,105,43275,1,0,0:0:0:0:
164,137,43506,2,0,P|121:190|151:298,1,160
288,320,44198,1,0,0:0:0:0:
189,231,44429,6,0,P|219:187|231:157,1,83.9999974365235
267,113,45352,2,0,L|286:199,1,83.9999974365235
185,282,46275,5,0,0:0:0:0:
185,282,46429,1,0,0:0:0:0:
185,282,46583,2,0,P|207:264|232:253,1,37.3333321940105
276,133,46891,5,0,0:0:0:0:
276,133,47044,1,0,0:0:0:0:
276,133,47198,2,0,P|273:153|277:194,1,37.3333321940105
241,261,47506,2,0,P|206:269|171:279,1,37.3333321940105
100,175,47891,1,0,0:0:0:0:
304,85,48121,5,0,0:0:0:0:
385,285,48351,1,0,0:0:0:0:
174,228,48582,1,0,0:0:0:0:
348,59,48813,1,0,0:0:0:0:
424,190,49044,2,0,P|439:248|428:302,1,92.0000017547608
273,248,49505,1,0,0:0:0:0:
134,98,49736,1,0,0:0:0:0:
115,140,49967,6,0,P|107:195|107:238,1,92.0000017547608
241,323,50428,1,0,0:0:0:0:
443,139,50659,1,0,0:0:0:0:
214,96,50890,1,0,0:0:0:0:
330,316,51121,1,0,0:0:0:0:
312,148,51351,2,0,P|263:147|220:187,1,92.0000017547608
216,314,51813,5,0,0:0:0:0:
202,79,52044,1,0,0:0:0:0:
344,289,52274,1,0,0:0:0:0:
388,102,52505,1,0,0:0:0:0:
197,199,52736,1,0,0:0:0:0:
219,240,52967,2,0,L|324:292,1,92.0000017547608
426,183,53428,1,0,0:0:0:0:
282,73,53659,6,0,P|222:72|163:188,1,184.000003509522
284,251,54351,1,0,0:0:0:0:
146,82,54582,1,0,0:0:0:0:
86,301,54813,1,0,0:0:0:0:
278,206,55044,1,0,0:0:0:0:
73,173,55274,1,0,0:0:0:0:
177,298,55505,6,0,P|228:323|351:245,1,184.000003509522
303,110,56197,1,0,0:0:0:0:
268,263,56428,2,0,B|227:240|179:253|179:253|210:140,1,184.000003509522
303,80,57121,1,0,0:0:0:0:
445,241,57351,5,0,0:0:0:0:
243,343,57582,1,0,0:0:0:0:
203,103,57813,1,0,0:0:0:0:
445,184,58044,1,0,0:0:0:0:
301,263,58274,2,0,P|246:264|210:281,1,92.0000017547608
110,284,58736,2,0,L|154:173,1,92.0000017547608
307,95,59197,6,0,P|354:170|295:253,2,184.000003509522
138,119,60351,1,0,0:0:0:0:
343,89,60582,1,0,0:0:0:0:
121,218,60813,1,0,0:0:0:0:
241,345,61044,1,0,0:0:0:0:
359,171,61274,1,0,0:0:0:0:
172,263,61505,1,0,0:0:0:0:
250,156,61736,2,0,P|193:114|148:74,1,92.0000017547608
163,246,62197,2,0,P|174:307|196:343,1,92.0000017547608
336,310,62659,1,0,0:0:0:0:
274,189,62890,6,0,P|241:160|215:132,1,80
126,192,63351,1,0,0:0:0:0:
142,225,63505,1,0,0:0:0:0:
152,260,63659,1,0,0:0:0:0:
216,316,63813,2,0,P|251:320|281:324,2,53.3333333333333
176,227,64274,2,0,L|101:262,2,53.3333333333333
274,280,64736,6,0,P|332:284|377:172,1,160
289,109,65351,1,0,0:0:0:0:
289,109,65505,1,0,0:0:0:0:
289,109,65659,1,0,0:0:0:0:
174,191,65890,2,0,P|234:213|271:229,1,80
381,305,66351,1,0,0:0:0:0:
311,167,66582,6,0,P|264:117|233:107,1,80
194,209,67043,2,0,P|171:216|141:226,2,53.3333333333333
244,288,67505,2,0,P|276:298|307:306,2,53.3333333333333
141,233,67966,1,0,0:0:0:0:
164,210,68120,1,0,0:0:0:0:
185,186,68274,1,0,0:0:0:0:
298,107,68428,6,0,P|329:174|216:241,1,223.999993164063
143,184,69505,1,0,0:0:0:0:
152,201,69659,1,0,0:0:0:0:
162,218,69813,1,0,0:0:0:0:
171,234,69966,1,0,0:0:0:0:
181,251,70120,1,0,0:0:0:0:
256,192,70274,12,0,81351,0:0:0:0:
