osu file format v14

[General]
AudioFilename: audio.mp3
AudioLeadIn: 0
PreviewTime: 112700
Countdown: 0
SampleSet: Soft
StackLeniency: 0.3
Mode: 0
LetterboxInBreaks: 0
WidescreenStoryboard: 0

[Editor]
Bookmarks: 1122,21062,41001,72904,92843,112783,142692,166619,176589,208492,240395
DistanceSpacing: 1.3
BeatDivisor: 4
GridSize: 32
TimelineZoom: 1.1

[Metadata]
Title:RIDE ON TIME (Single Version)
TitleUnicode:RIDE ON TIME (シングル・ヴァージョン)
Artist:Yamashita Tatsuro
ArtistUnicode:山下達郎
Creator:Wanpachi
Version:BURNING HEART
Source:
Tags:cycopton hard 2002 remaster edition japanese pop j-pop jpop city
BeatmapID:2805930
BeatmapSetID:1355769

[Difficulty]
HPDrainRate:5
CircleSize:4
OverallDifficulty:6
ApproachRate:7.2
SliderMultiplier:1.5
SliderTickRate:1

[Events]
//Background and Video events
0,0,"horrible kids.jpg",0,0
//Break Periods
2,72655,83220
//Storyboard Layer 0 (Background)
//Storyboard Layer 1 (Fail)
//Storyboard Layer 2 (Pass)
//Storyboard Layer 3 (Foreground)
//Storyboard Layer 4 (Overlay)
//Storyboard Sound Samples

[TimingPoints]
-871,498.483778507041,4,2,1,50,1,0
375,-111.111111111111,4,2,1,50,0,0
1122,-111.111111111111,4,2,1,50,0,0
2618,-111.111111111111,4,2,2,50,0,0
2743,-111.111111111111,4,2,1,50,0,0
4612,-111.111111111111,4,2,2,50,0,0
4737,-111.111111111111,4,2,1,50,0,0
6606,-111.111111111111,4,2,2,50,0,0
6731,-111.111111111111,4,2,1,50,0,0
8600,-111.111111111111,4,2,2,50,0,0
8725,-111.111111111111,4,2,1,50,0,0
10594,-111.111111111111,4,2,2,50,0,0
10719,-111.111111111111,4,2,1,50,0,0
12588,-111.111111111111,4,2,2,50,0,0
12713,-111.111111111111,4,2,1,50,0,0
14581,-111.111111111111,4,2,2,50,0,0
14706,-111.111111111111,4,2,1,50,0,0
16575,-111.111111111111,4,2,2,50,0,0
16700,-111.111111111111,4,2,1,50,0,0
18569,-111.111111111111,4,2,2,50,0,0
18694,-111.111111111111,4,2,1,50,0,0
20563,-111.111111111111,4,2,2,50,0,0
20688,-111.111111111111,4,2,1,50,0,0
22557,-111.111111111111,4,2,2,50,0,0
22682,-111.111111111111,4,2,1,50,0,0
24551,-111.111111111111,4,2,2,50,0,0
24676,-111.111111111111,4,2,1,50,0,0
26545,-111.111111111111,4,2,2,50,0,0
26670,-111.111111111111,4,2,1,50,0,0
28539,-111.111111111111,4,2,2,50,0,0
28664,-111.111111111111,4,2,1,50,0,0
30533,-111.111111111111,4,2,2,50,0,0
30658,-111.111111111111,4,2,1,50,0,0
32527,-111.111111111111,4,2,2,50,0,0
32652,-111.111111111111,4,2,1,50,0,0
41001,-90.9090909090909,4,2,1,60,0,1
54709,-90.9090909090909,4,2,1,60,0,0
56953,-90.9090909090909,4,2,1,60,0,1
70910,-100,4,2,1,50,0,0
72904,-100,4,2,1,50,0,0
112783,-90.9090909090909,4,2,1,60,0,1
126491,-90.9090909090909,4,2,1,60,0,0
128734,-90.9090909090909,4,2,1,60,0,1
142443,-100,4,2,1,50,0,0
176589,-90.9090909090909,4,2,1,60,0,1
190297,-90.9090909090909,4,2,1,60,0,0
192540,-90.9090909090909,4,2,1,60,0,1
206498,-100,4,2,1,50,0,0
208492,-90.9090909090909,4,2,1,60,0,1
222200,-90.9090909090909,4,2,1,60,0,0
224443,-90.9090909090909,4,2,1,60,0,1
238401,-100,4,2,1,50,0,0
240395,-100,4,2,1,50,0,0
242389,-100,4,2,1,45,0,0
244383,-100,4,2,1,40,0,0
246376,-100,4,2,1,35,0,0
248370,-100,4,2,1,30,0,0

[Colours]
Combo1 : 224,152,86
Combo2 : 119,166,183
Combo3 : 213,113,113
Combo4 : 215,213,142

[HitObjects]
117,177,375,5,2,0:0:0:0:
38,214,624,1,2,0:0:0:0:
86,95,873,6,0,P|153:109|219:115,1,134.999995880127,2|0,0:0|0:0,0:0:0:0:
302,142,1621,1,0,0:0:0:0:
302,142,2119,1,0,0:0:0:0:
375,92,2369,2,0,P|371:59|368:25,1,67.4999979400635,0|4,0:0|0:3,0:0:0:0:
416,169,2867,6,0,B|420:256|392:209|394:302,1,134.999995880127,2|2,0:0|0:0,0:0:0:0:
318,344,3615,2,0,B|307:313|307:313|316:279,1,67.4999979400635,2|0,0:0|0:0,0:0:0:0:
249,222,4113,1,2,0:0:0:0:
176,271,4363,2,0,P|177:304|178:338,1,67.4999979400635,2|4,0:0|0:3,0:0:0:0:
110,213,4861,6,0,P|111:146|114:78,1,134.999995880127,2|0,0:0|0:0,0:0:0:0:
190,32,5609,1,0,0:0:0:0:
190,32,6107,1,0,0:0:0:0:
234,108,6357,2,0,B|266:117|266:117|301:107,1,67.4999979400635,2|6,0:0|0:3,0:0:0:0:
155,147,6855,6,0,B|67:143|115:171|21:169,1,134.999995880127,2|2,0:0|0:0,0:0:0:0:
78,237,7603,2,0,P|111:240|145:242,1,67.4999979400635,2|0,0:0|0:0,0:0:0:0:
207,304,8101,1,2,0:0:0:0:
276,250,8350,2,0,B|283:218|283:218|273:184,1,67.4999979400635,2|4,0:0|0:3,0:0:0:0:
327,320,8849,6,0,P|396:313|422:252,1,134.999995880127,2|0,0:0|0:0,0:0:0:0:
376,184,9597,1,0,0:0:0:0:
376,184,10095,1,0,0:0:0:0:
406,102,10344,2,0,P|439:100|473:96,1,67.4999979400635,2|6,0:0|0:3,0:0:0:0:
331,54,10843,6,0,B|266:34|266:34|202:53,1,134.999995880127,2|0,0:0|0:0,0:0:0:0:
133,109,11591,1,2,0:0:0:0:
198,167,11840,2,0,B|204:201|204:201|194:232,1,67.4999979400635,2|0,0:0|0:0,0:0:0:0:
133,296,12338,2,0,P|99:294|66:292,1,67.4999979400635,2|4,0:0|0:3,0:0:0:0:
199,353,12837,6,0,P|266:349|333:346,1,134.999995880127,2|0,0:0|0:0,0:0:0:0:
386,275,13585,1,0,0:0:0:0:
386,275,14083,1,2,0:0:0:0:
336,203,14332,2,0,B|304:195|304:195|270:203,1,67.4999979400635,2|4,0:0|0:3,0:0:0:0:
400,144,14831,6,0,P|377:83|313:72,1,134.999995880127,2|0,0:0|0:0,0:0:0:0:
242,122,15578,1,0,0:0:0:0:
242,122,16077,1,2,0:0:0:0:
162,86,16326,2,0,P|159:52|156:19,1,67.4999979400635,2|4,0:0|0:3,0:0:0:0:
94,142,16825,6,0,B|75:206|75:206|103:287,1,134.999995880127,2|0,0:0|0:0,0:0:0:0:
165,325,17572,1,0,0:0:0:0:
165,325,18071,1,2,0:0:0:0:
235,273,18320,2,0,P|268:277|302:281,1,67.4999979400635,2|4,0:0|0:3,0:0:0:0:
165,218,18819,6,0,P|83:183|74:76,1,202.499993820191,2|0,0:0|0:0,0:0:0:0:
149,37,19816,1,2,0:0:0:0:
226,76,20065,2,0,B|313:72|266:100|359:98,1,134.999995880127,2|4,0:0|0:3,0:0:0:0:
247,162,20813,6,0,P|180:173|114:188,1,134.999995880127,2|0,0:0|0:0,0:0:0:0:
84,270,21560,1,0,0:0:0:0:
84,270,22059,1,0,0:0:0:0:
154,321,22308,2,0,B|188:330|188:330|229:317,1,67.4999979400635,0|4,0:0|0:3,0:0:0:0:
84,270,22806,6,0,P|29:224|29:153,1,134.999995880127,2|2,0:0|0:0,0:0:0:0:
75,92,23554,2,0,P|108:94|142:95,1,67.4999979400635,2|0,0:0|0:0,0:0:0:0:
211,41,24053,1,2,0:0:0:0:
273,103,24302,2,0,B|281:136|281:136|273:168,1,67.4999979400635,2|4,0:0|0:3,0:0:0:0:
334,41,24800,6,0,B|421:37|374:65|467:63,1,134.999995880127,2|0,0:0|0:0,0:0:0:0:
440,146,25548,1,0,0:0:0:0:
440,146,26047,1,0,0:0:0:0:
475,224,26296,2,0,P|470:258|467:291,1,67.4999979400635,2|6,0:0|0:3,0:0:0:0:
440,146,26794,6,0,P|370:159|337:216,1,134.999995880127,2|2,0:0|0:0,0:0:0:0:
260,193,27542,2,0,P|263:226|266:260,1,67.4999979400635,2|2,0:0|0:0,0:0:0:0:
202,319,28041,1,2,0:0:0:0:
122,282,28290,2,0,B|111:313|111:313|118:347,1,67.4999979400635,2|4,0:0|0:3,0:0:0:0:
62,216,28788,6,0,P|68:149|75:81,1,134.999995880127,2|0,0:0|0:0,0:0:0:0:
142,26,29536,1,0,0:0:0:0:
142,26,30034,1,0,0:0:0:0:
213,77,30284,2,0,B|224:110|224:110|215:141,1,67.4999979400635,2|6,0:0|0:3,0:0:0:0:
290,35,30782,6,0,P|354:48|388:126,1,134.999995880127,2|0,0:0|0:0,0:0:0:0:
424,184,31530,1,2,0:0:0:0:
339,210,31779,2,0,P|335:243|329:277,1,67.4999979400635,2|0,0:0|0:0,0:0:0:0:
389,340,32278,2,0,P|422:335|456:330,1,67.4999979400635,2|4,0:0|0:3,0:0:0:0:
303,356,32776,6,0,B|239:337|239:337|174:356,1,134.999995880127,2|0,0:0|0:0,0:0:0:0:
129,281,33524,1,0,3:2:0:0:
129,281,34022,1,2,0:0:0:0:
177,207,34272,2,0,P|210:210|244:211,1,67.4999979400635,2|0,0:0|3:3,0:0:0:0:
89,205,34770,6,0,B|85:117|113:165|111:71,1,134.999995880127,2|0,0:0|0:0,0:0:0:0:
187,32,35518,1,0,3:2:0:0:
187,32,36016,1,2,0:0:0:0:
263,76,36266,2,0,B|272:109|272:109|265:141,1,67.4999979400635,2|0,0:0|3:3,0:0:0:0:
331,21,36764,6,0,P|398:27|465:31,1,134.999995880127,2|0,0:0|0:0,0:0:0:0:
436,114,37512,1,0,3:2:0:0:
436,114,38010,1,2,0:0:0:0:
474,193,38259,2,0,P|470:226|469:260,1,67.4999979400635,2|0,0:0|3:3,0:0:0:0:
436,114,38758,6,0,B|374:92|374:92|300:118,1,134.999995880127,2|8,0:0|0:0,0:0:0:0:
234,161,39506,2,0,P|230:127|228:94,1,67.4999979400635,0|10,3:2|0:0,0:0:0:0:
171,26,40004,1,10,0:0:0:0:
52,84,40378,1,8,0:0:0:0:
52,84,40503,1,0,3:2:0:0:
96,158,40752,1,10,0:0:0:0:
26,261,41001,6,0,B|127:259|74:282|189:277,1,165.000005035401,6|8,3:2|3:2,0:0:0:0:
275,340,41749,1,2,0:0:0:0:
346,261,41998,2,0,B|360:222|360:222|348:181,2,82.5000025177003,2|0|8,3:2|0:0|3:2,0:0:0:0:
336,74,42746,6,0,P|420:96|446:197,1,165.000005035401,2|2,0:0|0:0,0:0:0:0:
348,182,43494,2,0,P|306:178|265:174,1,82.5000025177003,10|0,3:2|0:0,0:0:0:0:
175,116,43992,1,2,3:2:0:0:
111,202,44241,2,0,B|96:239|96:239|107:280,1,82.5000025177003,2|8,0:0|3:2,0:0:0:0:
40,120,44740,6,0,P|52:38|136:4,1,165.000005035401,2|0,0:0|0:0,0:0:0:0:
223,29,45487,1,8,3:2:0:0:
326,0,45737,1,2,0:0:0:0:
427,35,45986,2,0,P|423:76|420:117,2,82.5000025177003,2|0|8,3:2|0:0|3:2,0:0:0:0:
504,184,46734,6,0,B|393:183|456:210|342:205,1,165.000005035401,2|2,0:0|0:0,0:0:0:0:
252,146,47481,1,10,3:2:0:0:
175,222,47731,1,2,0:0:0:0:
99,146,47980,1,2,3:2:0:0:
23,221,48229,2,0,P|27:263|30:304,1,82.5000025177003,2|8,0:0|3:2,0:0:0:0:
99,146,48728,6,0,B|178:122|178:122|256:146,1,165.000005035401,2|0,0:0|0:0,0:0:0:0:
358,178,49475,1,8,3:2:0:0:
449,120,49725,1,2,0:0:0:0:
503,213,49974,2,0,P|500:254|499:295,2,82.5000025177003,2|0|8,3:2|0:0|3:2,0:0:0:0:
403,343,50722,6,0,P|317:326|289:239,1,165.000005035401,2|0,0:0|0:0,0:0:0:0:
206,190,51469,2,0,B|193:149|193:149|207:113,1,82.5000025177003,10|2,3:2|0:0,0:0:0:0:
269,24,51968,1,2,3:2:0:0:
359,80,52217,2,0,P|400:79|441:76,1,82.5000025177003,2|8,0:0|3:2,0:0:0:0:
269,24,52716,6,0,P|186:22|104:17,1,165.000005035401,2|0,0:0|0:0,0:0:0:0:
12,73,53463,2,0,B|3:115|3:115|20:159,1,82.5000025177003,8|0,3:2|0:0,0:0:0:0:
99,221,53962,1,0,3:2:0:0:
41,313,54211,1,2,0:0:0:0:
41,313,54336,1,2,0:0:0:0:
41,313,54460,1,8,0:0:0:0:
187,370,54709,6,0,P|278:352|294:262,1,165.000005035401,6|10,3:2|0:0,0:0:0:0:
395,343,55457,1,8,0:0:0:0:
448,250,55706,2,0,B|475:172|475:172|450:85,1,165.000005035401,6|6,3:2|3:2,0:0:0:0:
399,0,56454,1,8,0:0:0:0:
280,100,56703,1,8,0:0:0:0:
280,100,56828,1,8,0:0:0:0:
280,100,56953,6,0,B|170:97|233:81|117:75,1,165.000005035401,6|8,3:2|3:2,0:0:0:0:
37,145,57700,1,2,0:0:0:0:
111,222,57950,2,0,B|124:262|124:262|112:300,2,82.5000025177003,2|0|8,3:2|0:0|3:2,0:0:0:0:
21,356,58697,6,0,P|104:361|188:368,1,165.000005035401,2|2,0:0|0:0,0:0:0:0:
261,291,59445,2,0,P|258:249|255:207,1,82.5000025177003,10|2,3:2|0:0,0:0:0:0:
349,156,59944,1,2,3:2:0:0:
436,217,60193,2,0,B|449:256|449:256|440:296,1,82.5000025177003,2|8,0:0|3:2,0:0:0:0:
510,141,60691,6,0,P|490:64|416:35,1,165.000005035401,2|0,0:0|0:0,0:0:0:0:
311,62,61439,1,8,3:2:0:0:
212,19,61688,1,2,0:0:0:0:
126,83,61937,2,0,B|116:123|116:123|125:163,2,82.5000025177003,2|0|8,3:2|0:0|3:2,0:0:0:0:
38,225,62685,6,0,B|150:229|86:247|200:248,1,165.000005035401,2|2,0:0|0:0,0:0:0:0:
301,286,63433,1,10,3:2:0:0:
328,182,63682,1,2,0:0:0:0:
235,101,63931,1,2,3:2:0:0:
319,34,64181,2,0,P|360:36|401:37,1,82.5000025177003,2|8,0:0|3:2,0:0:0:0:
235,101,64679,6,0,P|152:106|70:108,1,165.000005035401,2|0,0:0|0:0,0:0:0:0:
109,208,65427,1,8,3:2:0:0:
71,308,65676,1,2,0:0:0:0:
159,368,65925,2,0,B|198:378|198:378|238:367,2,82.5000025177003,2|0|8,3:2|0:0|3:2,0:0:0:0:
314,291,66673,6,0,P|302:210|217:167,1,165.000005035401,2|2,0:0|0:0,0:0:0:0:
131,141,67421,2,0,P|134:182|138:223,1,82.5000025177003,10|2,3:2|0:0,0:0:0:0:
211,301,67919,1,2,3:2:0:0:
124,364,68169,2,0,P|82:360|41:356,1,82.5000025177003,2|8,0:0|3:2,0:0:0:0:
211,301,68667,6,0,B|289:281|289:281|356:335,1,165.000005035401,2|2,0:0|0:0,0:0:0:0:
462,381,69415,1,8,3:2:0:0:
462,381,69539,1,2,0:0:0:0:
462,381,69664,1,2,0:0:0:0:
503,282,69913,1,0,3:2:0:0:
426,207,70162,1,0,0:0:0:0:
512,143,70412,2,0,P|506:103|501:62,1,82.5000025177003,8|0,3:2|0:0,0:0:0:0:
426,207,70910,5,6,3:2:0:0:
447,9,84120,5,10,0:0:0:0:
409,98,84369,1,8,0:0:0:0:
480,221,84618,6,0,P|407:237|370:312,1,150,6|2,3:2|0:0,0:0:0:0:
378,306,85242,1,2,0:0:0:0:
378,306,85366,2,0,P|340:308|303:310,1,75,8|0,3:2|0:0,0:0:0:0:
224,252,85865,1,2,3:2:0:0:
276,169,86114,2,0,B|288:133|288:133|274:83,1,75,2|8,0:0|3:2,0:0:0:0:
224,252,86612,6,0,P|149:248|74:242,1,150,2|2,0:0|0:0,0:0:0:0:
82,250,87236,1,2,0:0:0:0:
82,250,87360,2,0,B|95:285|95:285|82:328,1,75,8|0,3:2|0:0,0:0:0:0:
160,382,87859,1,2,3:2:0:0:
242,331,88108,2,0,P|280:329|317:326,1,75,2|8,0:0|3:2,0:0:0:0:
208,240,88606,6,0,B|203:145|228:193|225:90,1,150,2|2,0:0|0:0,0:0:0:0:
233,100,89229,1,2,0:0:0:0:
233,100,89354,2,0,P|270:103|307:105,1,75,8|0,3:2|0:0,0:0:0:0:
377,173,89853,1,2,3:2:0:0:
454,113,90102,2,0,P|450:75|448:38,1,75,2|8,0:0|3:2,0:0:0:0:
377,173,90600,6,0,B|270:214|270:214|164:184,1,225,2|8,0:0|3:2,0:0:0:0:
80,132,91597,1,2,0:0:0:0:
22,210,91846,2,0,L|30:298,1,75,2|2,3:2|0:0,0:0:0:0:
28,284,92220,1,2,0:0:0:0:
28,284,92345,1,8,3:2:0:0:
167,350,92594,6,0,L|180:200,1,150,2|0,0:0|0:0,0:0:0:0:
261,146,93342,1,8,3:2:0:0:
261,146,93840,1,0,3:2:0:0:
346,193,94090,2,0,B|356:230|356:230|347:265,1,75,0|8,0:0|3:2,0:0:0:0:
343,95,94588,6,0,B|449:96|394:116|490:115,1,150,2|0,0:0|0:0,0:0:0:0:
504,212,95336,2,0,P|468:212|424:213,1,75,10|2,3:2|0:0,0:0:0:0:
347,265,95834,1,2,3:2:0:0:
263,214,96084,2,0,B|254:178|254:178|264:141,1,75,2|8,0:0|3:2,0:0:0:0:
213,297,96582,6,0,P|138:285|110:204,1,150,2|0,0:0|0:0,0:0:0:0:
48,146,97330,1,8,3:2:0:0:
48,146,97828,1,0,3:2:0:0:
123,83,98078,2,0,P|117:46|114:9,1,75,2|10,0:0|3:2,0:0:0:0:
186,157,98576,6,0,B|255:131|255:131|328:152,1,150,2|2,0:0|0:0,0:0:0:0:
424,132,99324,2,0,P|418:169|415:206,1,75,10|2,3:2|0:0,0:0:0:0:
346,275,99822,1,2,3:2:0:0:
412,346,100071,2,0,B|447:358|447:358|484:351,1,75,2|8,0:0|3:2,0:0:0:0:
346,275,100570,6,0,P|271:286|197:292,1,150,2|0,0:0|0:0,0:0:0:0:
130,221,101318,1,8,3:2:0:0:
130,221,101816,1,0,3:2:0:0:
54,284,102065,2,0,P|49:321|46:358,1,75,2|10,0:0|3:2,0:0:0:0:
8,197,102564,6,0,B|2:104|26:151|22:48,1,150,2|0,0:0|0:0,0:0:0:0:
112,12,103312,1,10,3:2:0:0:
179,83,103561,2,0,P|179:120|181:157,1,75,2|0,0:0|3:2,0:0:0:0:
102,215,104059,2,0,P|101:252|99:289,1,75,2|8,0:0|3:2,0:0:0:0:
181,157,104558,6,0,P|255:160|330:162,1,150,2|2,0:0|0:0,0:0:0:0:
338,170,105181,1,2,0:0:0:0:
338,170,105306,2,0,B|350:205|350:205|339:247,1,75,8|0,3:2|0:0,0:0:0:0:
294,327,105804,1,2,3:2:0:0:
378,376,106053,2,0,P|415:373|452:371,1,75,2|8,0:0|3:2,0:0:0:0:
294,327,106552,6,0,P|218:320|143:316,1,150,2|2,0:0|0:0,0:0:0:0:
152,324,107175,1,2,0:0:0:0:
152,324,107299,2,0,B|136:289|136:289|148:247,1,75,8|0,3:2|0:0,0:0:0:0:
207,177,107798,1,2,3:2:0:0:
133,113,108047,2,0,P|95:117|58:120,1,75,2|8,0:0|3:2,0:0:0:0:
207,49,108546,6,0,P|287:65|332:135,1,150,2|2,0:0|0:0,0:0:0:0:
335,124,109169,1,2,0:0:0:0:
335,124,109293,2,0,P|376:121|432:117,1,75,8|0,3:2|0:0,0:0:0:0:
472,193,109792,1,2,3:2:0:0:
416,272,110041,2,0,P|418:310|420:347,1,75,2|8,0:0|3:2,0:0:0:0:
339,212,110540,6,0,B|270:187|270:187|188:217,1,150,2|0,0:0|0:0,0:0:0:0:
114,263,111287,2,0,P|111:300|109:337,1,75,8|2,3:2|0:0,0:0:0:0:
109,337,111661,1,8,0:0:0:0:
109,337,111786,1,2,3:2:0:0:
203,311,112035,1,8,0:0:0:0:
283,365,112284,2,0,P|320:367|357:369,1,75,8|4,0:3|0:3,0:0:0:0:
203,311,112783,6,0,P|115:286|78:222,1,165.000005035401,6|8,3:2|3:2,0:0:0:0:
26,132,113531,1,2,0:0:0:0:
104,58,113780,2,0,B|145:48|145:48|183:59,2,82.5000025177003,2|0|8,3:2|0:0|3:2,0:0:0:0:
275,4,114527,6,0,P|270:85|264:181,1,165.000005035401,2|2,0:0|0:0,0:0:0:0:
340,244,115275,2,0,B|380:259|380:259|437:238,1,82.5000025177003,10|2,3:2|0:0,0:0:0:0:
493,169,115774,1,2,3:2:0:0:
417,93,116023,2,0,P|376:95|328:98,1,82.5000025177003,2|8,0:0|3:2,0:0:0:0:
493,169,116521,6,0,B|498:274|465:217|472:332,1,165.000005035401,2|0,0:0|0:0,0:0:0:0:
372,371,117269,1,8,3:2:0:0:
281,313,117518,1,2,0:0:0:0:
187,365,117768,2,0,P|145:360|104:357,2,82.5000025177003,2|0|8,3:2|0:0|3:2,0:0:0:0:
36,275,118515,6,0,B|21:194|21:194|57:111,1,165.000005035401,2|2,0:0|0:0,0:0:0:0:
129,42,119263,1,10,3:2:0:0:
204,117,119512,1,2,0:0:0:0:
298,65,119762,1,2,3:2:0:0:
322,170,120011,2,0,P|363:173|404:177,1,82.5000025177003,2|8,0:0|3:2,0:0:0:0:
229,222,120509,6,0,P|150:245|112:323,1,165.000005035401,2|0,0:0|0:0,0:0:0:0:
205,367,121257,1,8,3:2:0:0:
296,311,121506,1,2,0:0:0:0:
383,371,121756,2,0,B|424:382|424:382|462:372,2,82.5000025177003,2|0|8,3:2|0:0|3:2,0:0:0:0:
508,275,122503,6,0,P|499:192|493:110,1,165.000005035401,2|2,0:0|0:0,0:0:0:0:
402,53,123251,2,0,P|398:94|394:135,1,82.5000025177003,10|2,3:2|0:0,0:0:0:0:
303,190,123749,1,2,3:2:0:0:
220,121,123999,2,0,B|179:109|179:109|141:121,1,82.5000025177003,2|8,0:0|3:2,0:0:0:0:
303,190,124497,6,0,B|385:214|385:214|460:188,1,165.000005035401,2|0,0:0|0:0,0:0:0:0:
511,94,125245,2,0,P|469:94|428:93,1,82.5000025177003,8|0,3:2|0:0,0:0:0:0:
331,47,125743,1,0,3:2:0:0:
249,114,125993,1,2,0:0:0:0:
249,114,126117,1,2,0:0:0:0:
249,114,126242,1,8,0:0:0:0:
110,41,126491,6,0,B|107:147|80:90|75:200,1,165.000005035401,6|10,3:2|0:0,0:0:0:0:
11,286,127239,1,8,0:0:0:0:
85,362,127488,2,0,P|170:346|203:267,1,165.000005035401,6|6,3:2|3:2,0:0:0:0:
287,214,128236,1,8,0:0:0:0:
433,295,128485,1,8,0:0:0:0:
433,295,128610,1,8,0:0:0:0:
433,295,128734,6,0,B|458:215|458:215|431:125,1,165.000005035401,6|8,3:2|3:2,0:0:0:0:
358,61,129482,1,2,0:0:0:0:
282,136,129731,2,0,P|284:177|285:218,2,82.5000025177003,2|0|8,3:2|0:0|3:2,0:0:0:0:
209,294,130479,6,0,P|129:277|100:196,1,165.000005035401,2|2,0:0|0:0,0:0:0:0:
166,122,131227,2,0,P|166:80|169:39,1,82.5000025177003,10|2,3:2|0:0,0:0:0:0:
269,1,131725,1,2,3:2:0:0:
365,48,131974,2,0,B|405:57|405:57|444:44,1,82.5000025177003,2|8,0:0|3:2,0:0:0:0:
274,106,132473,6,0,B|268:213|293:149|290:267,1,165.000005035401,2|0,0:0|0:0,0:0:0:0:
188,232,133221,1,8,3:2:0:0:
93,282,133470,1,2,0:0:0:0:
11,213,133719,2,0,P|15:171|17:130,2,82.5000025177003,2|0|8,3:2|0:0|3:2,0:0:0:0:
93,54,134467,6,0,B|172:29|172:29|259:67,1,165.000005035401,2|2,0:0|0:0,0:0:0:0:
323,137,135215,1,10,3:2:0:0:
235,199,135464,1,2,0:0:0:0:
322,287,135713,1,2,3:2:0:0:
246,362,135962,2,0,B|207:371|207:371|158:351,1,82.5000025177003,2|8,0:0|3:2,0:0:0:0:
322,287,136461,6,0,P|408:263|431:179,1,165.000005035401,2|0,0:0|0:0,0:0:0:0:
353,125,137209,1,8,3:2:0:0:
443,66,137458,1,2,0:0:0:0:
357,1,137707,2,0,P|317:5|275:7,2,82.5000025177003,2|0|8,3:2|0:0|3:2,0:0:0:0:
199,83,138455,6,0,B|100:76|154:100|31:94,1,165.000005035401,2|2,0:0|0:0,0:0:0:0:
17,199,139202,2,0,B|4:241|4:241|17:285,1,82.5000025177003,10|2,3:2|0:0,0:0:0:0:
103,338,139701,1,2,3:2:0:0:
200,291,139950,2,0,P|241:287|282:283,1,82.5000025177003,2|8,0:0|3:2,0:0:0:0:
103,338,140449,6,0,P|111:255|118:173,1,165.000005035401,2|0,0:0|0:0,0:0:0:0:
189,95,141196,1,8,3:2:0:0:
189,95,141321,1,2,0:0:0:0:
189,95,141446,1,2,0:0:0:0:
288,135,141695,1,0,3:2:0:0:
367,63,141944,1,2,0:0:0:0:
367,63,142069,1,2,0:0:0:0:
367,63,142193,1,8,3:2:0:0:
476,156,142443,6,0,B|472:258|451:202|449:301,1,150,6|0,3:2|0:0,0:0:0:0:
365,352,143190,1,8,3:2:0:0:
365,352,143689,1,0,3:2:0:0:
365,352,144187,1,10,3:2:0:0:
284,296,144437,6,0,P|204:310|162:373,1,150,2|0,0:0|0:0,0:0:0:0:
69,380,145184,1,8,3:2:0:0:
69,380,145683,2,0,B|64:310|81:342|82:262,1,112.5,0|0,3:2|0:0,0:0:0:0:
82,269,146181,1,8,3:2:0:0:
30,186,146430,6,0,B|9:115|9:115|38:29,1,150,2|0,0:0|0:0,0:0:0:0:
126,14,147178,1,8,3:2:0:0:
126,14,147677,1,0,3:2:0:0:
126,14,148175,1,10,3:2:0:0:
214,52,148424,6,0,P|292:47|374:42,1,150,2|8,3:2|0:0,0:0:0:0:
452,84,149172,1,8,0:0:0:0:
429,177,149421,2,0,P|426:215|424:252,1,75,10|6,0:3|0:3,0:0:0:0:
346,127,149920,1,2,3:2:0:0:
346,127,150418,6,0,P|308:191|235:208,1,150,6|0,3:2|0:0,0:0:0:0:
144,185,151166,2,0,P|150:222|155:260,1,75,8|0,3:2|0:0,0:0:0:0:
102,342,151665,1,0,3:2:0:0:
40,266,151914,2,0,B|32:229|32:229|43:193,2,75,2|10|0,0:0|3:2|0:0,0:0:0:0:
85,105,152662,6,0,P|47:99|10:95,1,75,2|2,3:2|0:0,0:0:0:0:
18,103,153035,1,2,0:0:0:0:
18,103,153160,2,0,B|5:67|5:67|17:32,1,75,8|0,3:2|0:0,0:0:0:0:
112,14,153658,1,0,3:2:0:0:
181,82,153908,2,0,P|219:87|256:91,1,75,0|8,0:0|3:2,0:0:0:0:
85,105,154406,6,0,P|97:181|105:255,1,150
95,350,155154,2,0,B|166:325|166:325|245:363,1,150,10|0,3:2|3:2,0:0:0:0:
307,293,155902,1,0,0:0:0:0:
377,360,156151,2,0,P|414:354|451:350,1,75,8|0,3:2|0:0,0:0:0:0:
307,293,156649,6,0,P|244:268|226:203,1,112.5,2|2,3:2|0:0,0:0:0:0:
229,234,157148,2,0,P|235:196|239:159,1,75,8|0,3:2|0:0,0:0:0:0:
332,185,157646,2,0,B|340:148|340:148|327:113,1,75,0|0,3:2|0:0,0:0:0:0:
377,29,158145,1,10,3:2:0:0:
237,60,158394,6,0,B|146:61|195:78|88:77,1,150,2|0,0:0|0:0,0:0:0:0:
13,139,159142,2,0,P|17:176|22:213,1,75,10|0,3:2|0:0,0:0:0:0:
115,239,159640,1,0,3:2:0:0:
44,306,159890,2,0,B|31:341|31:341|45:381,1,75,0|8,0:0|3:2,0:0:0:0:
115,239,160388,6,0,P|152:243|189:248,1,75,0|0,0:0|3:2,0:0:0:0:
189,248,160762,1,2,0:0:0:0:
268,191,161011,2,0,B|349:191|304:202|388:200,1,112.5,2|2,0:0|0:0,0:0:0:0:
459,250,161634,2,0,B|469:196|469:196|455:140,1,112.5,2|2,3:2|0:0,0:0:0:0:
459,144,162133,2,0,P|467:107|477:71,1,75,8|2,3:2|0:0,0:0:0:0:
379,200,162631,6,0,B|342:212|342:212|303:194,1,75,0|0,3:2|0:0,0:0:0:0:
219,158,163130,2,0,B|215:248|234:202|229:306,1,150,8|2,3:2|3:2,0:0:0:0:
140,267,163877,2,0,P|136:230|133:193,1,75,0|8,0:0|3:2,0:0:0:0:
149,365,164376,6,0,B|220:342|220:342|298:360,1,150,2|0,0:0|0:0,0:0:0:0:
391,360,165124,1,10,3:2:0:0:
443,278,165373,2,0,P|446:240|449:203,1,75,2|0,0:0|3:2,0:0:0:0:
379,135,165871,2,0,P|375:97|372:60,1,75,2|8,0:0|3:2,0:0:0:0:
305,199,166370,6,0,B|207:191|263:175|159:164,1,150,2|0,0:0|0:0,0:0:0:0:
77,217,167118,1,8,3:2:0:0:
77,217,167616,1,2,3:2:0:0:
19,138,167865,2,0,B|5:103|5:103|12:66,1,75,2|8,0:0|3:2,0:0:0:0:
77,217,168364,6,0,P|147:236|183:300,1,150,2|0,0:0|0:0,0:0:0:0:
263,355,169111,1,8,3:2:0:0:
263,355,169610,1,2,3:2:0:0:
350,314,169859,2,0,P|387:320|424:327,1,75,2|8,0:0|3:2,0:0:0:0:
269,260,170358,6,0,P|255:186|242:112,1,150,2|0,0:0|0:0,0:0:0:0:
291,27,171105,1,8,3:2:0:0:
291,27,171604,1,2,3:2:0:0:
368,86,171853,2,0,P|404:92|441:99,1,75,2|8,0:0|3:2,0:0:0:0:
291,27,172352,6,0,B|219:7|219:7|143:32,1,150,2|0,0:0|0:0,0:0:0:0:
55,15,173099,2,0,P|62:52|69:89,1,75,8|0,3:2|0:0,0:0:0:0:
138,158,173598,2,0,P|131:194|124:231,1,75,0|0,3:2|0:0,0:0:0:0:
61,305,174096,1,10,3:2:0:0:
201,281,174346,6,0,B|290:282|246:306|349:306,1,150,2|0,0:0|0:0,0:0:0:0:
428,253,175093,1,8,3:2:0:0:
363,127,175467,1,8,0:0:0:0:
363,127,175592,1,0,3:2:0:0:
406,40,175841,1,8,0:0:0:0:
312,8,176090,2,0,P|276:15|239:21,1,75,0|8,3:2|0:0,0:0:0:0:
406,39,176589,6,0,P|482:64|511:138,1,165.000005035401,6|8,3:2|3:2,0:0:0:0:
428,206,177336,1,2,0:0:0:0:
493,291,177586,2,0,P|490:332|489:373,2,82.5000025177003,2|0|8,3:2|0:0|3:2,0:0:0:0:
382,378,178333,6,0,B|280:375|331:356|218:354,1,165.000005035401,2|2,0:0|0:0,0:0:0:0:
128,296,179081,2,0,B|112:258|112:258|125:218,1,82.5000025177003,10|2,3:2|0:0,0:0:0:0:
205,147,179580,1,2,3:2:0:0:
123,75,179829,2,0,P|82:78|41:80,1,82.5000025177003,2|8,0:0|3:2,0:0:0:0:
223,29,180327,6,0,B|305:12|305:12|383:53,1,165.000005035401,2|0,0:0|0:0,0:0:0:0:
442,135,181075,1,8,3:2:0:0:
378,221,181324,1,2,0:0:0:0:
430,314,181574,2,0,P|389:316|348:320,2,82.5000025177003,2|0|8,3:2|0:0|3:2,0:0:0:0:
249,361,182321,6,0,P|255:278|263:196,1,165.000005035401,2|2,0:0|0:0,0:0:0:0:
335,117,183069,1,10,3:2:0:0:
229,98,183318,1,2,0:0:0:0:
158,178,183567,1,2,3:2:0:0:
53,153,183817,2,0,P|57:194|60:235,1,82.5000025177003,2|8,0:0|3:2,0:0:0:0:
131,79,184315,6,0,P|194:15|279:17,1,165.000005035401,2|0,0:0|0:0,0:0:0:0:
339,89,185063,1,8,3:2:0:0:
431,37,185312,1,2,0:0:0:0:
472,135,185561,2,0,B|482:177|482:177|469:214,2,82.5000025177003,2|0|8,3:2|0:0|3:2,0:0:0:0:
508,314,186309,6,0,B|402:307|461:331|344:329,1,165.000005035401,2|2,0:0|0:0,0:0:0:0:
251,276,187057,2,0,P|195:284|138:294,1,82.5000025177003,10|2,3:2|0:0,0:0:0:0:
62,276,187555,1,2,3:2:0:0:
126,189,187805,2,0,B|164:176|164:176|205:185,1,82.5000025177003,2|8,0:0|3:2,0:0:0:0:
19,175,188303,6,0,B|18:74|34:127|37:5,1,165.000005035401,2|0,0:0|0:0,0:0:0:0:
143,28,189051,2,0,P|190:26|235:24,1,82.5000025177003,8|0,3:2|0:0,0:0:0:0:
330,43,189549,1,0,3:2:0:0:
269,133,189799,1,2,0:0:0:0:
269,133,189923,1,2,0:0:0:0:
269,133,190048,1,8,0:0:0:0:
354,265,190297,6,0,B|436:243|436:243|522:270,1,165.000005035401,6|10,3:2|0:0,0:0:0:0:
436,343,191045,1,8,0:0:0:0:
331,365,191294,2,0,P|246:339|236:244,1,165.000005035401,6|6,3:2|3:2,0:0:0:0:
198,168,192042,1,8,0:0:0:0:
54,217,192291,1,8,0:0:0:0:
54,217,192416,1,8,0:0:0:0:
54,217,192540,6,0,P|66:126|72:40,1,165.000005035401,6|8,3:2|3:2,0:0:0:0:
175,25,193288,1,2,0:0:0:0:
260,89,193537,2,0,P|263:130|268:170,2,82.5000025177003,2|0|8,3:2|0:0|3:2,0:0:0:0:
190,245,194285,6,0,B|266:213|266:213|369:248,1,165.000005035401,2|2,0:0|0:0,0:0:0:0:
439,295,195033,2,0,P|442:254|448:214,1,82.5000025177003,10|2,3:2|0:0,0:0:0:0:
367,143,195531,1,2,3:2:0:0:
423,51,195780,2,0,B|463:42|463:42|502:55,1,82.5000025177003,2|8,0:0|3:2,0:0:0:0:
367,143,196279,6,0,B|261:135|320:117|201:110,1,165.000005035401,2|0,0:0|0:0,0:0:0:0:
235,214,197027,1,8,3:2:0:0:
154,284,197276,1,2,0:0:0:0:
207,376,197525,2,0,P|248:372|289:369,2,82.5000025177003,2|0|8,3:2|0:0|3:2,0:0:0:0:
343,276,198273,6,0,P|425:290|472:378,1,165.000005035401,2|2,0:0|0:0,0:0:0:0:
510,254,199020,1,10,3:2:0:0:
471,153,199270,1,2,0:0:0:0:
353,193,199519,1,2,3:2:0:0:
259,140,199768,2,0,P|257:99|256:58,1,82.5000025177003,2|8,0:0|3:2,0:0:0:0:
353,193,200267,6,0,P|349:275|347:357,1,165.000005035401,2|0,0:0|0:0,0:0:0:0:
256,301,201014,1,8,3:2:0:0:
159,348,201264,1,2,0:0:0:0:
86,269,201513,2,0,B|76:230|76:230|87:190,2,82.5000025177003,2|0|8,3:2|0:0|3:2,0:0:0:0:
68,83,202261,6,0,B|167:83|114:104|235:104,1,165.000005035401,2|2,0:0|0:0,0:0:0:0:
333,73,203008,2,0,P|328:113|325:155,1,82.5000025177003,10|2,3:2|0:0,0:0:0:0:
228,202,203507,1,2,3:2:0:0:
317,260,203756,2,0,P|357:254|399:251,1,82.5000025177003,2|8,0:0|3:2,0:0:0:0:
220,307,204255,6,0,B|144:278|144:278|67:319,1,165.000005035401,2|2,0:0|0:0,0:0:0:0:
17,235,205002,1,8,3:2:0:0:
17,235,205127,1,2,0:0:0:0:
17,235,205252,1,2,0:0:0:0:
70,142,205501,1,0,3:2:0:0:
11,52,205750,1,0,0:0:0:0:
117,43,205999,2,0,P|157:38|198:31,1,82.5000025177003,8|0,3:2|0:0,0:0:0:0:
70,142,206498,5,6,3:2:0:0:
59,131,206996,1,2,3:2:0:0:
85,138,207495,1,2,3:2:0:0:
66,157,207993,1,2,3:2:0:0:
323,337,208492,6,0,P|406:322|427:230,1,165.000005035401,6|8,3:2|3:2,0:0:0:0:
452,148,209239,1,2,0:0:0:0:
367,81,209489,2,0,P|325:79|284:76,2,82.5000025177003,2|0|8,3:2|0:0|3:2,0:0:0:0:
188,28,210236,6,0,B|121:75|121:75|26:50,1,165.000005035401,2|2,0:0|0:0,0:0:0:0:
52,160,210984,2,0,P|56:202|60:243,1,82.5000025177003,10|0,3:2|0:0,0:0:0:0:
130,322,211483,1,2,3:2:0:0:
229,281,211732,2,0,B|266:266|266:266|307:277,1,82.5000025177003,2|8,0:0|3:2,0:0:0:0:
130,322,212230,6,0,B|127:212|151:265|148:160,1,165.000005035401,2|0,0:0|0:0,0:0:0:0:
206,68,212978,1,8,3:2:0:0:
309,94,213227,1,2,0:0:0:0:
411,61,213477,2,0,B|422:101|422:101|410:140,2,82.5000025177003,2|0|8,3:2|0:0|3:2,0:0:0:0:
481,221,214224,6,0,P|394:229|358:308,1,165.000005035401,2|2,0:0|0:0,0:0:0:0:
256,255,214972,1,10,3:2:0:0:
182,332,215221,1,2,0:0:0:0:
124,241,215470,1,2,3:2:0:0:
34,300,215720,2,0,P|30:341|27:382,1,82.5000025177003,2|8,0:0|3:2,0:0:0:0:
124,241,216218,6,0,P|116:158|110:76,1,165.000005035401,2|0,0:0|0:0,0:0:0:0:
205,25,216966,1,8,3:2:0:0:
258,117,217215,1,2,0:0:0:0:
350,62,217464,2,0,B|389:52|389:52|429:63,2,82.5000025177003,2|0|8,3:2|0:0|3:2,0:0:0:0:
505,139,218212,6,0,B|508:247|475:192|480:310,1,165.000005035401,2|0,0:0|0:0,0:0:0:0:
380,340,218960,2,0,B|370:301|370:301|381:260,1,82.5000025177003,10|2,3:2|0:0,0:0:0:0:
306,183,219458,1,2,3:2:0:0:
212,235,219708,2,0,P|171:236|130:239,1,82.5000025177003,2|8,0:0|3:2,0:0:0:0:
306,183,220206,6,0,P|385:160|406:73,1,165.000005035401,2|0,0:0|0:0,0:0:0:0:
319,28,220954,2,0,B|277:37|277:37|233:20,1,82.5000025177003,8|0,3:2|0:0,0:0:0:0:
142,67,221452,1,0,3:2:0:0:
196,171,221702,1,2,0:0:0:0:
196,171,221826,1,2,0:0:0:0:
196,171,221951,1,8,0:0:0:0:
83,281,222200,6,0,P|168:287|260:299,1,165.000005035401,6|10,3:2|0:0,0:0:0:0:
339,352,222948,1,8,0:0:0:0:
435,304,223197,2,0,B|436:196|406:259|411:144,1,165.000005035401,6|6,3:2|3:2,0:0:0:0:
432,37,223945,1,8,0:0:0:0:
312,135,224194,1,8,0:0:0:0:
312,135,224319,1,8,0:0:0:0:
312,135,224443,6,0,P|241:104|220:20,1,165.000005035401,6|8,3:2|3:2,0:0:0:0:
113,3,225191,1,2,0:0:0:0:
11,38,225440,2,0,B|6:78|7:120,2,82.5000025177003,2|0|8,3:2|0:0|3:2,0:0:0:0:
56,216,226188,6,0,B|134:185|134:185|224:220,1,165.000005035401,2|2,0:0|0:0,0:0:0:0:
310,178,226936,2,0,B|315:218|313:260,1,82.5000025177003,10|2,3:2|0:0,0:0:0:0:
374,348,227434,1,2,3:2:0:0:
414,248,227683,2,0,B|454:239|454:239|493:252,1,82.5000025177003,2|8,0:0|3:2,0:0:0:0:
374,348,228182,6,0,B|294:338|209:341,1,165.000005035401,2|0,0:0|0:0,0:0:0:0:
143,255,228930,1,8,3:2:0:0:
199,164,229179,1,2,0:0:0:0:
144,71,229428,1,2,3:2:0:0:
246,40,229677,5,0,0:0:0:0:
257,51,229926,1,8,0:0:0:0:
306,147,230176,6,0,B|418:143|354:125|468:124,1,165.000005035401,2|2,0:0|0:0,0:0:0:0:
437,226,230923,1,10,3:2:0:0:
492,318,231173,1,2,0:0:0:0:
372,347,231422,1,2,3:2:0:0:
278,294,231671,2,0,P|237:296|196:297,1,82.5000025177003,2|8,0:0|3:2,0:0:0:0:
372,347,232170,6,0,P|461:325|492:236,1,165.000005035401,2|0,0:0|0:0,0:0:0:0:
427,179,232917,1,8,3:2:0:0:
452,75,233167,1,2,0:0:0:0:
360,18,233416,2,0,P|318:15|277:14,2,82.5000025177003,2|0|8,3:2|0:0|3:2,0:0:0:0:
201,91,234164,6,0,P|118:92|36:97,1,165.000005035401,2|2,0:0|0:0,0:0:0:0:
112,171,234911,2,0,B|130:208|130:208|119:253,1,82.5000025177003,10|2,3:2|0:0,0:0:0:0:
83,349,235410,1,2,3:2:0:0:
187,373,235659,2,0,P|228:368|269:365,1,82.5000025177003,2|8,0:0|3:2,0:0:0:0:
83,349,236158,6,0,P|91:266|98:184,1,165.000005035401,2|0,0:0|0:0,0:0:0:0:
64,93,236905,1,8,3:2:0:0:
64,93,237030,1,2,0:0:0:0:
64,93,237155,1,2,0:0:0:0:
156,38,237404,1,0,3:2:0:0:
239,104,237653,1,0,0:0:0:0:
343,78,237902,2,0,B|355:39|355:39|339:-6,1,82.5000025177003,8|0,3:2|0:0,0:0:0:0:
239,104,238401,5,6,3:2:0:0:
239,104,238899,1,0,3:2:0:0:
239,104,239398,1,0,3:2:0:0:
239,104,239896,1,0,3:2:0:0:
392,345,240395,5,6,3:2:0:0:
256,192,240519,12,0,248370,0:0:0:0:
