osu file format v14

[General]
AudioFilename: audio.mp3
AudioLeadIn: 0
PreviewTime: -1
Countdown: 1
SampleSet: None
StackLeniency: 0.7
Mode: 0
LetterboxInBreaks: 0
WidescreenStoryboard: 0

[Editor]
DistanceSpacing: 0.6
BeatDivisor: 4
GridSize: 32
TimelineZoom: 1

[Metadata]
Title:Yamanoted Heaven
TitleUnicode:Yamanoted Heaven
Artist:Yamanote-sen
ArtistUnicode:山手線
Creator:Zoel
Version:Insane
Source:
Tags:train japanese
BeatmapID:2106463
BeatmapSetID:1006518

[Difficulty]
HPDrainRate:5
CircleSize:4
OverallDifficulty:7
ApproachRate:9
SliderMultiplier:1.99999990463257
SliderTickRate:1

[Events]
//Background and Video events
0,0,"2019_01.jpg",0,0
//Break Periods
//Storyboard Layer 0 (Background)
//Storyboard Layer 1 (Fail)
//Storyboard Layer 2 (Pass)
//Storyboard Layer 3 (Foreground)
//Storyboard Sound Samples

[TimingPoints]
77,402.684563758389,4,1,0,100,1,0
6400,-50,4,1,0,100,0,0

[HitObjects]
256,192,177,12,0,1486,0:3:0:0:
165,54,1687,5,2,0:3:0:0:
218,76,1788,1,0,0:3:0:0:
272,102,1888,1,0,0:3:0:0:
379,98,1989,1,2,0:0:0:0:
351,152,2090,1,0,0:0:0:0:
323,208,2190,1,0,0:0:0:0:
336,302,2291,1,2,0:0:0:0:
277,283,2392,1,0,0:0:0:0:
217,265,2492,1,0,0:0:0:0:
120,276,2593,1,2,0:0:0:0:
139,217,2694,1,0,0:0:0:0:
157,157,2794,1,0,0:0:0:0:
184,87,2895,6,0,P|166:41|139:-6,1,99.9999952316285
264,82,3197,2,0,P|248:4|226:-27,1,99.9999952316285
356,95,3499,2,0,P|340:17|317:-12,1,99.9999952316285
356,168,3801,2,0,P|367:253|390:285,1,99.9999952316285
276,164,4103,2,0,P|269:232|304:298,1,99.9999952316285
196,154,4405,2,0,P|181:226|199:290,1,99.9999952316285
49,202,4808,1,0,0:0:0:0:
57,144,4908,1,0,0:0:0:0:
95,98,5009,1,0,0:0:0:0:
146,67,5110,1,0,0:0:0:0:
180,115,5210,1,0,0:0:0:0:
213,164,5311,1,0,0:0:0:0:
260,201,5412,1,0,0:0:0:0:
304,161,5512,1,0,0:0:0:0:
357,132,5613,1,0,0:0:0:0:
396,177,5714,1,0,0:0:0:0:
420,231,5814,5,0,0:0:0:0:
430,290,5915,1,0,0:0:0:0:
385,330,6016,1,0,0:0:0:0:
326,316,6117,1,0,0:0:0:0:
267,303,6218,1,0,0:0:0:0:
211,324,6318,1,0,0:0:0:0:
154,338,6419,1,0,0:0:0:0:
92,335,6520,1,0,0:0:0:0:
57,286,6620,1,0,0:0:0:0:
42,225,6721,2,0,B|-8:16|109:-26|135:-16|151:190,1,399.999980926514
276,44,7325,6,0,L|240:170,1,99.9999952316285
315,201,7527,2,0,L|379:112,1,99.9999952316285
473,126,7728,2,0,L|439:265,3,99.9999952316285
343,293,8130,1,0,0:0:0:0:
220,324,8332,1,0,0:0:0:0:
86,317,8533,2,0,B|119:168|277:149|285:144|355:48|361:41|309:-43,1,399.999980926514
102,35,9137,2,0,B|250:68|269:226|274:234|370:304|377:310|462:258,1,399.999980926514
59,294,9741,2,0,B|184:177|414:236|439:48,1,399.999980926514
423,223,10244,2,0,L|312:308,1,99.9999952316285
150,112,10546,6,0,L|251:72,1,99.9999952316285
223,168,10748,2,0,L|325:120,1,99.9999952316285
297,225,10949,2,0,L|393:161,1,99.9999952316285
405,264,11150,1,0,0:0:0:0:
405,264,11251,1,0,0:0:0:0:
405,264,11352,1,0,0:0:0:0:
320,323,11553,1,0,0:0:0:0:
393,164,11754,1,0,0:0:0:0:
500,326,11956,1,0,0:0:0:0:
353,268,12157,2,0,P|274:316|219:276,4,99.9999952316285
207,239,12761,1,0,0:0:0:0:
246,153,12962,1,0,0:0:0:0:
335,125,13164,1,0,0:0:0:0:
430,125,13365,2,0,B|385:11|385:12|17:70,1,399.999980926514
160,148,14170,2,0,P|122:187|53:189,2,99.9999952316285
296,154,14573,5,0,0:0:0:0:
342,201,14674,1,0,0:0:0:0:
354,264,14774,1,0,0:0:0:0:
230,250,14976,1,0,0:0:0:0:
141,317,15177,1,0,0:0:0:0:
108,261,15278,1,0,0:0:0:0:
114,197,15379,1,0,0:0:0:0:
190,96,15580,1,0,0:0:0:0:
299,50,15781,1,0,0:0:0:0:
427,91,15982,1,0,0:0:0:0:
467,138,16083,1,0,0:0:0:0:
471,200,16184,1,0,0:0:0:0:
426,304,16385,1,0,0:0:0:0:
314,330,16687,5,0,0:0:0:0:
258,291,16788,1,0,0:0:0:0:
221,235,16888,1,0,0:0:0:0:
223,167,16989,1,0,0:0:0:0:
251,106,17090,2,0,P|348:69|406:102,5,99.9999952316285
440,110,17794,1,0,0:0:0:0:
468,216,17995,1,0,0:0:0:0:
391,305,18197,1,0,0:0:0:0:
280,342,18399,1,0,0:0:0:0:
136,43,18600,5,0,0:0:0:0:
301,263,18801,1,0,0:0:0:0:
62,279,19003,1,0,0:0:0:0:
286,39,19204,1,0,0:0:0:0:
184,304,19406,1,0,0:0:0:0:
59,56,19607,1,0,0:0:0:0:
301,270,19808,1,0,0:0:0:0:
37,153,20009,1,0,0:0:0:0:
273,83,20211,6,0,L|367:21,6,99.9999952316285
107,94,20915,1,0,0:0:0:0:
107,94,21016,2,0,P|169:261|231:288,1,199.999990463257
178,267,21419,2,0,P|246:102|220:39,1,199.999990463257
243,90,21721,1,0,0:0:0:0:
243,90,21821,1,0,0:0:0:0:
247,95,21922,2,0,B|144:160|121:147|85:138,3,99.9999952316285
67,116,22425,2,0,L|177:34,1,99.9999952316285
216,57,22627,2,0,L|350:61,1,99.9999952316285
202,137,22828,2,0,L|230:257,1,99.9999952316285
298,137,23030,2,0,L|398:224,1,99.9999952316285
432,277,23231,1,0,0:0:0:0:
432,277,23332,1,0,0:0:0:0:
432,277,23432,1,0,0:0:0:0:
360,322,23533,2,0,L|256:330,3,99.9999952316285
183,336,23936,6,0,B|88:319|38:184|39:186|39:185,1,199.999990463257
46,201,24238,2,0,P|62:58|235:51,1,299.999985694885
195,26,24640,2,0,B|96:218|311:248|311:248,1,299.999985694885
370,173,25043,5,0,0:0:0:0:
370,173,25144,1,0,0:0:0:0:
370,173,25244,1,0,0:0:0:0:
370,173,25345,1,0,0:0:0:0:
410,241,25445,1,0,0:0:0:0:
410,241,25546,1,0,0:0:0:0:
410,241,25647,1,0,0:0:0:0:
410,241,25747,1,0,0:0:0:0:
456,305,25848,2,0,P|439:116|294:237,2,399.999980926514
403,216,26856,1,0,0:0:0:0:
403,216,26956,1,0,0:0:0:0:
403,216,27057,1,0,0:0:0:0:
403,216,27157,1,0,0:0:0:0:
256,192,27459,12,0,29070,0:0:0:0:
