osu file format v14

[General]
AudioFilename: audio.mp3
AudioLeadIn: 0
PreviewTime: 26
Countdown: 0
SampleSet: Soft
StackLeniency: 0.7
Mode: 2
LetterboxInBreaks: 0
WidescreenStoryboard: 1

[Editor]
DistanceSpacing: 0.2
BeatDivisor: 4
GridSize: 8
TimelineZoom: 1

[Metadata]
Title:Yamanoted heaven [Yamanote Line x Second_heaven]
TitleUnicode:Yamanoted heaven 【山手線× Second_heaven】
Artist:Yamanote Line
ArtistUnicode:山手線
Creator:Ascendance
Version:Tenshichan's Rain
Source:
Tags:sm14002704 nico douga ryu second trains thenutritiousguy tng beatmania iidx starrstyx sahuang arusamour fii kaitlin -wwwww boberofdarkness sorcerer tom the wizard wildone94 absolute zero afk98 tenshichan [Superstar] tenshichan jbhyperion len fast kyptoric mbomb -_magic_bomb_-
BeatmapID:1098213
BeatmapSetID:516807

[Difficulty]
HPDrainRate:5
CircleSize:4
OverallDifficulty:9
ApproachRate:9
SliderMultiplier:2.2
SliderTickRate:1

[Events]
//Background and Video events
0,0,"bg.jpg",0,0
Video,0,"default.flv"
//Break Periods
//Storyboard Layer 0 (Background)
//Storyboard Layer 1 (Fail)
//Storyboard Layer 2 (Pass)
//Storyboard Layer 3 (Foreground)
//Storyboard Sound Samples

[TimingPoints]
77,402.814329448413,4,3,0,70,1,0
14578,-100,4,2,0,50,0,0
20217,-100,4,1,0,70,0,0
21023,-100,4,1,0,70,0,1
25857,-66.6666666666667,4,1,0,70,0,1
26662,-100,4,1,0,70,0,1
27468,-100,4,2,0,50,0,0
27871,-100,4,2,0,50,0,0
28274,-100,4,2,0,40,0,0
28676,-100,4,2,0,40,0,0
29079,-100,4,2,0,30,0,0
29885,-100,4,2,0,20,0,0
30288,-100,4,2,0,10,0,0
30690,-100,4,2,0,5,0,0

[HitObjects]
256,192,77,12,0,1486,0:0:0:0:
152,192,1688,6,0,L|32:136,1,110,4|0,0:0|0:0,0:0:0:0:
216,112,2091,1,2,0:2:0:0:
384,112,2292,2,0,L|432:72,2,55,0|0|2,0:0|0:0|1:3,0:0:0:0:
200,264,2695,2,0,L|336:240,1,110,0|2,0:0|1:2,0:0:0:0:
112,152,3098,2,0,L|56:152,1,55,0|0,0:0|0:0,0:0:0:0:
224,152,3299,6,0,L|368:112,1,110,4|0,0:0|0:0,0:0:0:0:
472,72,3702,2,0,L|328:48,1,110,0|2,0:0|0:2,0:0:0:0:
304,48,4004,1,0,0:0:0:0:
128,48,4105,2,0,L|16:112,1,110,4|2,1:3|0:2,0:0:0:0:
208,160,4507,2,0,L|96:184,1,110,2|2,1:2|0:2,0:0:0:0:
360,240,4910,6,0,L|496:200,1,110,4|2,0:0|0:2,0:0:0:0:
280,176,5313,2,0,L|144:176,1,110,2|2,0:2|0:2,0:0:0:0:
104,144,5615,1,0,0:0:0:0:
288,56,5716,2,0,L|416:104,1,110,4|2,1:3|0:0,0:0:0:0:
240,112,6119,1,2,1:2:0:0:
424,176,6320,1,0,0:0:0:0:
360,200,6421,1,2,0:2:0:0:
288,224,6522,6,0,L|160:224,1,110,4|2,0:0|0:2,0:0:0:0:
24,120,6924,2,0,L|160:120,1,110,2|2,1:2|1:2,0:0:0:0:
264,120,7327,1,6,1:3:0:0:
72,208,7529,1,2,0:0:0:0:
264,120,7730,1,2,0:0:0:0:
72,208,7931,1,2,0:0:0:0:
376,200,8133,6,0,L|488:256,1,110,4|0,0:0|0:0,0:0:0:0:
288,280,8536,2,0,L|408:288,1,110,0|0,0:0|0:0,0:0:0:0:
464,288,8838,1,2,0:2:0:0:
240,216,8938,2,0,L|104:208,1,110,4|2,0:0|0:2,0:0:0:0:
288,144,9341,1,0,1:0:0:0:
120,128,9543,1,2,1:3:0:0:
48,128,9643,1,2,1:3:0:0:
120,128,9744,6,0,L|248:120,1,110,6|2,0:0|0:2,0:0:0:0:
400,120,10147,1,2,0:0:0:0:
456,120,10248,1,0,0:0:0:0:
488,184,10348,1,2,0:0:0:0:
432,184,10449,1,2,0:0:0:0:
264,192,10550,2,0,L|128:160,1,110,2|0,1:2|0:0,0:0:0:0:
360,72,10952,2,0,L|488:112,1,110,0|2,0:0|0:2,0:0:0:0:
144,64,11355,6,0,L|32:128,1,110,4|0,0:0|0:0,0:0:0:0:
224,136,11758,1,2,0:2:0:0:
416,144,11960,1,2,0:2:0:0:
352,224,12060,1,0,0:0:0:0:
288,224,12161,2,0,L|136:224,1,110,6|2,1:3|0:0,0:0:0:0:
368,304,12564,2,0,L|496:328,1,110,2|0,1:2|0:0,0:0:0:0:
168,312,12967,6,0,L|72:224,1,110,6|2,1:3|0:0,0:0:0:0:
264,232,13369,2,0,L|328:128,1,110,2|2,1:2|0:0,0:0:0:0:
144,120,13772,2,0,L|256:96,1,110,0|0,1:0|0:0,0:0:0:0:
432,56,14175,2,0,L|312:56,1,110,0|2,1:0|1:2,0:0:0:0:
168,56,14578,5,2,0:0:0:0:
40,56,14779,1,2,0:0:0:0:
168,56,14981,1,2,0:0:0:0:
328,56,15182,1,0,0:0:0:0:
296,56,15283,1,0,0:0:0:0:
264,56,15383,1,2,0:0:0:0:
432,56,15585,2,0,L|488:152,1,110,0|2,0:0|0:0,0:0:0:0:
312,192,15988,1,0,0:0:0:0:
256,192,16088,1,0,0:0:0:0:
200,192,16189,6,0,L|96:112,1,110,2|2,0:0|0:0,0:0:0:0:
376,72,16693,1,0,0:0:0:0:
312,72,16793,1,2,0:0:0:0:
248,72,16894,1,0,0:0:0:0:
312,72,16995,2,0,L|432:120,1,110,0|2,0:0|0:0,0:0:0:0:
240,152,17398,2,0,L|112:176,1,110,2|2,0:0|0:0,0:0:0:0:
296,184,17800,5,0,0:0:0:0:
112,272,18002,1,0,0:0:0:0:
296,184,18203,1,2,0:0:0:0:
112,272,18405,2,0,L|64:312,2,55,0|0|2,0:0|0:0|0:0,0:0:0:0:
280,296,18807,2,0,L|432:264,1,110,0|0,0:0|0:0,0:0:0:0:
208,184,19210,1,0,0:0:0:0:
160,184,19311,1,0,0:0:0:0:
208,184,19412,6,0,L|368:184,1,110,0|2,0:0|0:0,0:0:0:0:
160,184,19814,1,0,0:0:0:0:
360,184,20016,1,0,0:0:0:0:
160,184,20217,6,0,L|128:152,7,27.5,4|0|0|0|0|0|0|0,0:3|0:0|0:0|0:0|0:0|0:0|0:0|0:0,0:0:0:0:
136,136,20620,2,0,L|120:80,3,55
336,80,21023,6,0,L|480:80,1,110,0|0,0:0|0:0,0:0:0:0:
272,136,21426,1,2,0:2:0:0:
96,136,21627,2,0,L|40:136,1,55,0|0,0:0|0:0,0:0:0:0:
240,224,21828,2,0,L|360:224,1,110,0|0,0:0|0:0,0:0:0:0:
200,224,22231,1,0,0:0:0:0:
392,224,22433,2,0,L|456:224,1,55,2|0,0:2|0:0,0:0:0:0:
248,56,22634,6,0,L|104:56,1,110,2|0,0:2|0:0,0:0:0:0:
352,56,23037,2,0,L|424:56,1,55,2|0,0:2|0:0,0:0:0:0:
496,56,23238,2,0,L|400:56,1,55
248,160,23440,2,0,L|104:200,1,110,2|2,0:2|0:2,0:0:0:0:
328,264,23843,2,0,L|192:264,1,110,2|2,0:2|0:2,0:0:0:0:
408,264,24245,5,2,0:2:0:0:
72,264,24447,1,2,0:2:0:0:
408,264,24648,1,0,0:0:0:0:
232,264,24850,1,0,0:0:0:0:
152,264,24950,1,0,0:0:0:0:
72,264,25051,1,2,0:2:0:0:
352,264,25252,1,2,0:2:0:0:
72,136,25454,2,0,L|48:104,7,27.5,0|0|0|0|0|0|0|0,0:0|0:0|0:0|0:0|0:0|0:0|0:0|0:0,0:0:0:0:
64,56,25857,6,0,L|240:56,1,165.000006294251,2|2,0:2|0:2,0:0:0:0:
408,120,26259,2,0,L|232:120,1,165.000006294251,2|2,0:2|0:2,0:0:0:0:
80,120,26662,1,0,0:0:0:0:
344,184,26864,1,0,0:0:0:0:
56,200,27065,1,0,0:0:0:0:
384,256,27266,1,2,0:2:0:0:
256,192,27468,12,0,30690,0:0:0:0:
