osu file format v14

[General]
AudioFilename: audio.mp3
AudioLeadIn: 0
PreviewTime: 26
Countdown: 0
SampleSet: None
StackLeniency: 0.7
Mode: 2
LetterboxInBreaks: 0
WidescreenStoryboard: 1

[Editor]
DistanceSpacing: 1
BeatDivisor: 4
GridSize: 8
TimelineZoom: 1.9

[Metadata]
Title:Yamanoted heaven [Yamanote Line x Second_heaven]
TitleUnicode:Yamanoted heaven 【山手線× Second_heaven】
Artist:Yamanote Line
ArtistUnicode:山手線
Creator:Ascendance
Version:Sorcerer's Platter
Source:
Tags:sm14002704 nico douga ryu second trains thenutritiousguy tng beatmania iidx starrstyx sahuang arusamour fii kaitlin -wwwww boberofdarkness sorcerer tom the wizard wildone94 absolute zero afk98 tenshichan [Superstar] tenshichan jbhyperion len fast kyptoric mbomb -_magic_bomb_-
BeatmapID:0
BeatmapSetID:-1

[Difficulty]
HPDrainRate:5
CircleSize:3.6
OverallDifficulty:7.8
ApproachRate:7.8
SliderMultiplier:1.7
SliderTickRate:1

[Events]
//Background and Video events
0,0,"bg.jpg",0,0
Video,0,"default.flv"
//Break Periods
//Storyboard Layer 0 (Background)
//Storyboard Layer 1 (Fail)
//Storyboard Layer 2 (Pass)
//Storyboard Layer 3 (Foreground)
//Storyboard Sound Samples

[TimingPoints]
77,402.814329448413,4,3,0,70,1,0
14578,-100,4,2,0,50,0,0
20217,-100,4,1,0,70,0,0
21023,-100,4,1,0,70,0,1
27468,-100,4,2,0,50,0,0
27871,-100,4,2,0,50,0,0
28274,-100,4,2,0,40,0,0
28676,-100,4,2,0,40,0,0
29079,-100,4,2,0,30,0,0
29885,-100,4,2,0,20,0,0
30288,-100,4,2,0,10,0,0
30690,-100,4,2,0,5,0,0

[HitObjects]
256,192,77,12,0,1486,0:0:0:0:
176,320,1688,6,0,L|136:232,1,85,4|0,0:0|0:0,0:0:0:0:
288,240,2091,2,2,L|184:240,1,85
392,240,2493,6,0,L|432:152,1,85,2|0,1:3|0:0,0:0:0:0:
272,160,2896,2,0,L|360:160,1,85,2|0,1:2|0:0,0:0:0:0:
168,160,3299,6,0,L|128:64,1,85,4|0,0:0|0:0,0:0:0:0:
256,48,3702,1,0,0:0:0:0:
312,80,3803,1,0,0:0:0:0:
304,128,3903,1,2,0:2:0:0:
248,152,4004,1,0,0:0:0:0:
120,160,4105,6,0,L|64:256,1,85,4|2,1:3|0:2,0:0:0:0:
264,240,4507,2,0,L|296:352,1,85,2|2,1:2|0:2,0:0:0:0:
432,176,4910,6,0,L|384:80,1,85,4|2,0:0|0:2,0:0:0:0:
240,104,5313,2,0,L|352:104,1,85,2|2,0:2|0:2,0:0:0:0:
128,104,5716,6,0,L|80:192,1,85,4|2,1:3|0:0,0:0:0:0:
240,192,6119,2,0,L|144:192,1,85,2|0,1:2|0:0,0:0:0:0:
360,192,6522,6,0,L|464:192,1,85,4|2,0:0|0:2,0:0:0:0:
296,144,6924,2,0,L|392:144,1,85,2|2,1:2|1:2,0:0:0:0:
80,144,7327,6,0,P|7:181|103:293,1,255,6|2,1:3|0:0,0:0:0:0:
232,296,8133,6,0,L|336:296,1,85,4|0,0:0|0:0,0:0:0:0:
464,232,8536,2,0,L|352:232,1,85,0|0,0:0|0:0,0:0:0:0:
224,224,8938,6,0,L|288:120,1,85,4|2,0:0|0:2,0:0:0:0:
416,144,9341,2,0,L|328:144,1,85,0|2,1:0|1:3,0:0:0:0:
176,144,9744,6,0,L|128:240,1,85,6|2,0:0|0:2,0:0:0:0:
288,120,10147,1,2,0:2:0:0:
240,160,10248,1,0,0:0:0:0:
240,216,10348,1,2,0:0:0:0:
288,256,10449,1,2,0:0:0:0:
416,256,10550,6,0,L|480:160,1,85,2|0,1:2|0:0,0:0:0:0:
336,184,10952,2,0,L|432:184,1,85,0|2,0:0|0:2,0:0:0:0:
232,184,11355,6,0,L|176:96,1,85,4|0,0:0|0:0,0:0:0:0:
344,104,11758,2,0,L|248:104,1,85,2|2,0:2|0:2,0:0:0:0:
440,104,12161,6,0,L|488:216,1,85,6|2,1:3|0:0,0:0:0:0:
328,192,12564,2,0,L|224:192,1,85,2|0,1:2|0:0,0:0:0:0:
416,192,12967,6,0,L|464:96,1,85,6|2,1:3|0:0,0:0:0:0:
288,104,13369,2,0,L|376:104,1,85,2|2,1:2|0:0,0:0:0:0:
96,304,13772,6,0,P|64:240|96:64,1,255,0|2,1:0|1:2,0:0:0:0:
216,216,14578,6,0,L|288:144,2,85,2|2|2,0:0|0:0|0:0,0:0:0:0:
416,216,15182,2,0,L|456:176,1,42.5,0|0,0:0|0:0,0:0:0:0:
448,144,15383,6,0,L|392:80,1,85,2|0,0:0|0:0,0:0:0:0:
120,64,15786,1,2,0:0:0:0:
48,80,15988,2,0,L|0:128,1,42.5
48,136,16189,6,0,L|152:136,1,85,2|2,0:0|0:0,0:0:0:0:
280,136,16693,2,0,L|320:168,2,42.5,0|2|0,0:0|0:0|0:0,0:0:0:0:
152,136,16995,6,0,L|56:136,1,85,0|2,0:0|0:0,0:0:0:0:
224,136,17398,2,0,L|312:136,1,85,2|2,0:0|0:0,0:0:0:0:
152,192,17800,5,0,0:0:0:0:
48,192,18002,1,0,0:0:0:0:
360,184,18203,1,2,0:0:0:0:
464,120,18405,2,0,L|520:160,1,42.5
464,168,18606,6,0,L|360:168,1,85,2|0,0:0|0:0,0:0:0:0:
112,192,19009,1,0,0:0:0:0:
32,192,19210,2,0,L|-8:152,1,42.5
32,160,19412,6,0,L|136:160,1,85,0|2,0:0|0:0,0:0:0:0:
280,160,19814,2,0,L|184:160,1,85
464,192,20217,6,0,P|504:136|448:48,1,170,4|0,0:3|0:0,0:0:0:0:
152,192,21023,6,0,L|248:192,1,85
376,192,21426,2,0,L|264:192,1,85,2|0,0:0|0:0,0:0:0:0:
480,192,21828,6,0,L|512:280,1,85
376,272,22231,2,0,L|488:272,1,85,0|2,0:0|0:2,0:0:0:0:
280,280,22634,6,0,L|184:280,1,85,2|0,0:2|0:0,0:0:0:0:
360,200,23138,1,0,0:0:0:0:
400,160,23238,1,0,0:0:0:0:
360,112,23339,1,0,0:0:0:0:
232,112,23440,6,0,L|176:176,1,85,2|2,0:2|0:2,0:0:0:0:
24,184,23843,2,0,L|136:184,1,85,2|2,0:2|0:2,0:0:0:0:
264,184,24245,6,0,L|208:272,1,85,2|2,0:2|0:2,0:0:0:0:
384,256,24648,2,0,L|272:256,1,85
144,256,25051,6,0,L|176:168,1,85,2|2,0:2|0:2,0:0:0:0:
328,176,25454,2,0,L|208:176,1,85
416,176,25857,6,0,L|528:176,1,85,2|2,0:2|0:2,0:0:0:0:
360,120,26259,2,0,L|480:120,1,85,2|2,0:2|0:2,0:0:0:0:
72,40,26662,6,0,P|32:80|104:248,1,255,0|2,0:0|0:2,0:0:0:0:
256,192,27468,12,0,30690,0:0:0:0:
