osu file format v14

[General]
AudioFilename: audio.mp3
AudioLeadIn: 0
PreviewTime: 26
Countdown: 0
SampleSet: Soft
StackLeniency: 0.7
Mode: 2
LetterboxInBreaks: 0
WidescreenStoryboard: 1

[Editor]
DistanceSpacing: 0.2
BeatDivisor: 4
GridSize: 32
TimelineZoom: 1.6

[Metadata]
Title:Yamanoted heaven [Yamanote Line x Second_heaven]
TitleUnicode:Yamanoted heaven 【山手線× Second_heaven】
Artist:Yamanote Line
ArtistUnicode:山手線
Creator:Ascendance
Version:Len's High Quality Overdose
Source:
Tags:sm14002704 nico douga ryu second trains thenutritiousguy tng beatmania iidx starrstyx sahuang arusamour fii kaitlin -wwwww boberofdarkness sorcerer tom the wizard wildone94 absolute zero afk98 tenshichan [Superstar] tenshichan jbhyperion len fast kyptoric mbomb -_magic_bomb_-
BeatmapID:1098785
BeatmapSetID:516807

[Difficulty]
HPDrainRate:6
CircleSize:4
OverallDifficulty:9.2
ApproachRate:9.2
SliderMultiplier:2
SliderTickRate:1

[Events]
//Background and Video events
0,0,"bg.jpg",0,0
Video,0,"default.flv"
//Break Periods
//Storyboard Layer 0 (Background)
//Storyboard Layer 1 (Fail)
//Storyboard Layer 2 (Pass)
//Storyboard Layer 3 (Foreground)
//Storyboard Sound Samples

[TimingPoints]
77,402.814329448413,4,3,0,70,1,0
14578,-100,4,2,0,50,0,0
20217,-100,4,1,0,70,0,0
21023,-100,4,1,0,70,0,1
27468,-100,4,2,0,50,0,0
27871,-100,4,2,0,50,0,0
28274,-100,4,2,0,40,0,0
28676,-100,4,2,0,40,0,0
29079,-100,4,2,0,30,0,0
29885,-100,4,2,0,20,0,0
30288,-100,4,2,0,10,0,0
30690,-100,4,2,0,5,0,0

[HitObjects]
256,192,77,12,0,1587,0:0:0:0:
154,315,1688,6,0,L|162:246,1,50,4|0,0:0|0:0,0:0:0:0:
268,279,1889,2,0,L|276:210,1,50,0|0,0:0|0:0,0:0:0:0:
169,215,2091,2,0,L|177:146,1,50,2|0,0:2|0:0,0:0:0:0:
283,179,2292,2,0,L|291:110,1,50,0|0,0:0|0:0,0:0:0:0:
99,55,2493,2,0,P|183:65|220:71,1,100,2|0,1:3|0:0,0:0:0:0:
28,104,2896,1,2,1:2:0:0:
428,87,3098,1,0,0:0:0:0:
435,103,3198,1,0,0:0:0:0:
442,119,3299,5,4,0:0:0:0:
284,170,3500,1,0,0:0:0:0:
435,287,3702,2,0,L|427:218,1,50,0|0,0:0|0:0,0:0:0:0:
326,251,3903,2,0,L|318:182,1,50,2|0,0:2|0:0,0:0:0:0:
483,72,4105,2,0,P|399:82|362:88,1,100,4|2,1:3|0:2,0:0:0:0:
190,118,4507,2,0,P|240:124|290:132,1,100,2|2,1:2|0:2,0:0:0:0:
461,214,4910,5,4,0:0:0:0:
60,165,5112,1,2,0:2:0:0:
221,37,5313,2,0,L|213:106,1,50,2|0,0:2|0:0,0:0:0:0:
112,73,5514,2,0,L|104:142,1,50,2|0,0:2|0:0,0:0:0:0:
320,198,5716,1,4,1:3:0:0:
184,309,5917,1,2,0:0:0:0:
342,369,6119,1,2,1:2:0:0:
135,293,6320,2,0,L|142:238,1,50,0|2,0:0|0:2,0:0:0:0:
424,116,6522,5,4,0:0:0:0:
464,151,6622,1,0,2:0:0:0:
472,202,6723,1,2,0:2:0:0:
445,246,6824,1,0,2:0:0:0:
396,262,6924,2,0,P|446:256|496:248,1,100,2|2,1:2|1:2,0:0:0:0:
16,224,7327,5,6,1:3:0:0:
176,192,7529,1,2,0:0:0:0:
336,160,7730,1,2,0:0:0:0:
496,128,7931,1,2,0:0:0:0:
184,130,8133,5,4,0:0:0:0:
72,146,8233,2,0,P|65:198|58:260,1,100,2|2,0:2|0:2,0:0:0:0:
172,307,8536,2,0,L|165:257,1,50,0|2,0:0|0:2,0:0:0:0:
51,321,8737,1,0,0:0:0:0:
412,83,8939,1,4,0:0:0:0:
452,118,9039,1,0,0:0:0:0:
460,169,9140,1,2,0:2:0:0:
433,213,9241,1,0,0:0:0:0:
368,226,9341,1,0,1:0:0:0:
308,247,9442,1,2,1:3:0:0:
288,306,9543,1,2,1:3:0:0:
320,355,9644,1,2,1:3:0:0:
491,351,9744,6,0,P|441:359|392:365,1,100,6|2,0:0|0:2,0:0:0:0:
21,351,10147,2,0,P|70:358|119:364,1,100,2|2,0:2|0:0,0:0:0:0:
328,254,10449,1,2,0:0:0:0:
436,237,10549,2,0,P|443:185|450:123,1,100,2|0,1:2|0:0,0:0:0:0:
325,170,10852,2,0,P|318:118|311:56,1,100,2|0,0:2|0:0,0:0:0:0:
487,65,11154,2,0,L|480:15,1,50,2|2,0:2|0:2,0:0:0:0:
158,134,11355,6,0,P|108:127|58:120,1,100,4|0,0:0|0:0,0:0:0:0:
254,228,11758,2,0,P|303:221|353:214,1,100,2|2,0:2|0:2,0:0:0:0:
67,334,12161,2,0,L|75:265,1,50,6|2,1:3|0:0,0:0:0:0:
176,298,12362,2,0,L|184:229,1,50,2|2,0:0|0:0,0:0:0:0:
43,344,12564,2,0,P|49:287|55:225,1,100,2|0,1:2|0:0,0:0:0:0:
478,349,12967,6,0,P|472:292|466:230,1,100,6|2,1:3|0:0,0:0:0:0:
174,162,13369,1,2,1:2:0:0:
338,222,13571,1,2,0:0:0:0:
338,222,13671,1,0,0:0:0:0:
338,222,13772,1,0,1:0:0:0:
152,278,13974,1,0,0:0:0:0:
438,128,14175,1,0,1:0:0:0:
478,168,14275,1,0,0:0:0:0:
482,223,14376,1,2,1:2:0:0:
450,268,14477,1,0,0:0:0:0:
397,281,14578,5,2,0:0:0:0:
229,260,14779,1,2,0:0:0:0:
60,241,14981,1,2,0:0:0:0:
234,274,15182,1,0,0:0:0:0:
239,288,15282,1,0,0:0:0:0:
244,302,15383,1,2,0:0:0:0:
412,323,15585,1,0,0:0:0:0:
249,316,15786,1,2,0:0:0:0:
65,227,15987,1,0,0:0:0:0:
70,213,16088,1,0,0:0:0:0:
75,199,16189,5,2,0:0:0:0:
254,330,16390,1,2,0:0:0:0:
469,237,16692,1,0,0:0:0:0:
464,223,16793,1,2,0:0:0:0:
459,209,16894,1,0,0:0:0:0:
454,195,16995,1,0,0:0:0:0:
302,356,17196,1,2,0:0:0:0:
297,342,17398,1,2,0:0:0:0:
106,277,17599,1,2,0:0:0:0:
469,237,17800,6,0,P|475:180|481:118,1,100,0|0,0:0|0:0,0:0:0:0:
319,268,18203,2,0,P|325:211|331:149,1,100,2|0,0:0|0:0,0:0:0:0:
145,314,18505,1,0,0:0:0:0:
37,287,18606,2,0,P|43:230|49:168,1,100,2|0,0:0|0:0,0:0:0:0:
319,268,19009,2,0,P|325:211|331:149,1,100,0|0,0:0|0:0,0:0:0:0:
230,127,19311,1,0,0:0:0:0:
324,61,19412,5,0,0:0:0:0:
122,81,19613,1,2,0:0:0:0:
309,69,19814,1,0,0:0:0:0:
113,101,20016,1,0,0:0:0:0:
492,357,20217,6,0,L|498:328,6,25,4|0|0|0|0|0|0,0:3|0:0|0:0|0:0|0:0|0:0|0:0,0:0:0:0:
273,314,20620,5,0,0:0:0:0:
277,257,20670,1,0,0:0:0:0:
291,207,20720,1,0,0:0:0:0:
323,161,20771,1,0,0:0:0:0:
368,128,20821,1,0,0:0:0:0:
420,118,20871,1,0,0:0:0:0:
478,127,20922,1,0,0:0:0:0:
498,154,21022,5,0,0:0:0:0:
139,337,21224,1,0,0:0:0:0:
293,221,21426,1,2,0:2:0:0:
109,153,21627,2,0,L|101:84,1,50,0|0,0:0|0:0,0:0:0:0:
386,58,21828,2,0,P|435:51|485:44,1,100,0|0,0:0|0:0,0:0:0:0:
143,247,22131,1,2,0:2:0:0:
39,273,22231,2,0,L|33:322,1,50,0|0,0:0|0:0,0:0:0:0:
318,242,22433,2,0,P|324:292|331:342,1,100,2|2,0:2|0:2,0:0:0:0:
155,147,22735,6,0,P|149:197|143:247,1,100,2|2,0:2|0:2,0:0:0:0:
459,202,23037,2,0,L|465:153,1,50,2|0,0:2|0:0,0:0:0:0:
354,160,23238,2,0,L|360:111,1,50,0|0,0:0|0:0,0:0:0:0:
472,191,23440,2,0,P|480:132|485:81,1,100,2|2,0:2|0:2,0:0:0:0:
218,210,23843,1,2,0:2:0:0:
381,319,24044,1,2,0:2:0:0:
101,242,24245,5,2,0:2:0:0:
54,195,24345,1,0,0:0:0:0:
50,132,24446,1,2,0:2:0:0:
87,80,24547,1,0,0:0:0:0:
148,65,24648,1,0,0:0:0:0:
218,210,24749,1,0,0:0:0:0:
233,148,24850,1,0,0:0:0:0:
205,90,24951,1,0,0:0:0:0:
87,80,25051,6,0,L|79:11,1,50,2|0,0:2|0:0,0:0:0:0:
256,192,25252,2,0,L|264:123,1,50,2|0,0:2|0:0,0:0:0:0:
23,225,25454,2,0,L|17:196,6,25,0|0|0|0|0|0|0,0:0|0:0|0:0|0:0|0:0|0:0|0:0,0:0:0:0:
296,364,25857,6,0,L|304:295,1,50,2|0,0:2|0:0,0:0:0:0:
198,305,26058,2,0,L|206:236,1,50,2|0,0:2|0:0,0:0:0:0:
494,52,26259,2,0,P|444:59|395:67,1,100,2|2,0:2|0:2,0:0:0:0:
136,152,26662,2,0,L|131:201,1,50,0|2,0:0|0:2,0:0:0:0:
242,178,26864,2,0,L|248:227,1,50,0|2,0:0|0:2,0:0:0:0:
39,221,27065,2,0,P|32:171|26:121,1,100,0|2,0:0|0:2,0:0:0:0:
485,121,27468,1,4,0:0:0:0:
256,192,27569,12,0,30690,0:0:0:0:
