osu file format v14

[General]
AudioFilename: audio.mp3
AudioLeadIn: 0
PreviewTime: 26
Countdown: 0
SampleSet: None
StackLeniency: 0.7
Mode: 2
LetterboxInBreaks: 0
WidescreenStoryboard: 0

[Editor]
DistanceSpacing: 1
BeatDivisor: 4
GridSize: 4
TimelineZoom: 1

[Metadata]
Title:Yamanoted heaven [Yamanote Line x Second_heaven]
TitleUnicode:Yamanoted heaven 【山手線× Second_heaven】
Artist:Yamanote Line
ArtistUnicode:山手線
Creator:Ascendance
Version:Hyperion's Rain
Source:
Tags:sm14002704 nico douga ryu second trains thenutritiousguy tng beatmania iidx starrstyx sahuang arusamour fii kaitlin -wwwww boberofdarkness sorcerer tom the wizard wildone94 absolute zero afk98 tenshichan [Superstar] tenshichan jbhyperion len fast kyptoric mbomb -_magic_bomb_-
BeatmapID:1098209
BeatmapSetID:516807

[Difficulty]
HPDrainRate:6
CircleSize:5
OverallDifficulty:8.5
ApproachRate:8.5
SliderMultiplier:2
SliderTickRate:1

[Events]
//Background and Video events
0,0,"bg.jpg",0,0
Video,0,"default.flv"
//Break Periods
//Storyboard Layer 0 (Background)
//Storyboard Layer 1 (Fail)
//Storyboard Layer 2 (Pass)
//Storyboard Layer 3 (Foreground)
//Storyboard Sound Samples

[TimingPoints]
77,402.814329448413,4,3,0,70,1,0
882,-80,4,3,0,70,0,0
14578,-100,4,2,0,50,0,0
20217,-100,4,1,0,70,0,0
21023,-80,4,1,0,70,0,1
27468,-100,4,2,0,50,0,0
27871,-100,4,2,0,50,0,0
28274,-100,4,2,0,40,0,0
28676,-100,4,2,0,40,0,0
29079,-100,4,2,0,30,0,0
29885,-100,4,2,0,20,0,0
30288,-100,4,2,0,10,0,0
30690,-100,4,2,0,5,0,0

[HitObjects]
84,192,77,5,0,0:0:0:0:
292,192,379,1,0,0:0:0:0:
172,192,580,1,0,0:0:0:0:
444,192,882,2,0,B|500:176|500:176|396:136|396:136|484:80|484:80|316:80,1,437.5,0|0,0:0|0:0,0:0:0:0:
140,80,1688,5,4,0:0:0:0:
94,118,1788,1,0,0:0:0:0:
107,176,1889,1,0,0:0:0:0:
164,191,1990,1,0,0:0:0:0:
244,192,2091,2,0,L|260:256,1,62.5,2|0,0:2|0:0,0:0:0:0:
180,256,2292,2,0,L|124:304,1,62.5,0|0,0:0|0:0,0:0:0:0:
308,328,2493,6,0,L|436:328,1,125,2|0,1:3|0:0,0:0:0:0:
244,256,2896,2,0,L|228:192,1,62.5,2|0,1:2|0:0,0:0:0:0:
308,192,3098,2,0,L|316:128,1,62.5,0|0,0:0|0:0,0:0:0:0:
124,128,3299,6,0,L|54:88,2,62.5,4|0|0,0:0|0:0|0:0,0:0:0:0:
331,69,3702,1,0,0:0:0:0:
374,110,3802,1,0,0:0:0:0:
363,169,3903,1,2,0:2:0:0:
307,191,4004,1,0,0:0:0:0:
116,192,4105,6,0,L|108:328,1,125,4|2,1:3|0:2,0:0:0:0:
307,191,4507,2,0,L|315:55,1,125,2|2,1:2|0:2,0:0:0:0:
112,64,4910,5,4,0:0:0:0:
176,64,5011,2,0,P|220:96|176:128,1,125,0|0,0:0|0:0,0:0:0:0:
88,128,5313,2,0,L|52:180,2,62.5,2|0|2,0:2|0:0|0:2,0:0:0:0:
364,128,5716,5,4,1:3:0:0:
408,168,5816,1,0,2:0:0:0:
400,228,5917,1,2,0:0:0:0:
346,255,6018,1,0,2:0:0:0:
232,256,6119,1,2,1:2:0:0:
164,256,6219,1,0,0:0:0:0:
96,256,6320,1,0,0:0:0:0:
280,160,6522,6,0,L|228:124,2,62.5,4|0|2,0:0|2:0|0:2,0:0:0:0:
344,160,6824,1,0,2:0:0:0:
156,160,6924,2,0,P|140:92|188:36,1,125,2|2,1:2|1:2,0:0:0:0:
448,52,7327,6,0,P|432:104|372:136,1,125,6|2,1:3|0:0,0:0:0:0:
172,192,7730,2,0,L|184:264,1,62.5,2|0,0:0|2:0,0:0:0:0:
264,252,7931,2,0,L|252:320,1,62.5,2|0,0:0|2:0,0:0:0:0:
180,336,8133,6,0,L|116:336,1,62.5,4|2,0:0|0:2,0:0:0:0:
253,313,8435,1,2,0:2:0:0:
152,192,8536,2,0,L|196:148,1,62.5,0|2,0:0|0:2,0:0:0:0:
312,148,8737,2,0,L|268:104,1,62.5,0|2,0:0|0:2,0:0:0:0:
84,152,8938,5,4,0:0:0:0:
74,211,9038,1,0,0:0:0:0:
116,255,9139,1,2,0:2:0:0:
176,249,9240,1,0,0:0:0:0:
364,248,9341,2,0,L|404:248,2,31.25,0|0|2,1:0|0:0|1:3,0:0:0:0:
300,248,9543,2,0,L|254:202,1,62.5,2|2,1:3|1:3,0:0:0:0:
364,192,9744,6,0,P|416:168|432:104,1,125,6|2,0:0|0:2,0:0:0:0:
224,116,10147,2,0,P|264:156|224:196,1,125,2|2,0:2|0:0,0:0:0:0:
160,196,10449,1,2,0:0:0:0:
364,268,10550,6,0,L|500:268,1,125,2|0,1:2|0:0,0:0:0:0:
288,344,10852,2,0,L|156:344,1,125,2|0,0:2|0:0,0:0:0:0:
240,276,11154,1,2,0:2:0:0:
164,276,11255,1,2,0:2:0:0:
264,192,11355,6,0,B|328:192|328:192|364:144,1,125,4|0,0:0|0:0,0:0:0:0:
164,140,11758,2,0,P|140:80|176:36,1,125,2|2,0:2|0:2,0:0:0:0:
404,40,12161,6,0,L|448:84,3,62.5,6|2|2|2,1:3|0:0|0:0|0:0,0:0:0:0:
360,84,12564,2,0,B|296:84|296:84|256:132,1,125,2|0,1:2|0:0,0:0:0:0:
464,192,12967,6,0,P|504:232|464:272,1,125,6|2,1:3|0:0,0:0:0:0:
260,272,13369,1,2,1:2:0:0:
384,272,13571,2,0,L|364:212,1,62.5,2|0,0:0|0:0,0:0:0:0:
156,192,13772,6,0,L|104:156,2,62.5,0|2|0,1:0|0:2|0:0,0:0:0:0:
220,192,14074,1,2,0:2:0:0:
408,132,14175,2,0,L|472:112,1,62.5,0|0,1:0|0:0,0:0:0:0:
272,80,14376,2,0,L|204:52,1,62.5,2|0,1:2|0:0,0:0:0:0:
284,20,14578,5,2,0:0:0:0:
384,20,14779,1,2,0:0:0:0:
484,20,14981,1,2,0:0:0:0:
344,104,15182,2,0,L|404:104,1,50,0|0,0:0|0:0,0:0:0:0:
312,168,15383,6,0,L|212:168,2,100,2|0|2,0:0|0:0|0:0,0:0:0:0:
212,240,15988,2,0,L|140:240,1,50,0|0,0:0|0:0,0:0:0:0:
92,240,16189,1,2,0:0:0:0:
252,240,16390,1,2,0:0:0:0:
164,336,16693,5,0,0:0:0:0:
249,336,16793,2,0,L|197:336,1,50,2|0,0:0|0:0,0:0:0:0:
286,240,16995,1,0,0:0:0:0:
166,240,17196,1,2,0:0:0:0:
346,240,17398,1,2,0:0:0:0:
246,240,17599,1,2,0:0:0:0:
420,156,17800,5,0,0:0:0:0:
320,156,18001,1,0,0:0:0:0:
220,156,18203,1,2,0:0:0:0:
360,72,18404,2,0,L|300:72,1,50,0|0,0:0|0:0,0:0:0:0:
228,72,18606,6,0,L|128:72,2,100,2|0|0,0:0|0:0|0:0,0:0:0:0:
388,160,19210,2,0,L|316:160,1,50,0|0,0:0|0:0,0:0:0:0:
268,160,19411,1,0,0:0:0:0:
428,160,19612,1,2,0:0:0:0:
308,232,19814,1,0,0:0:0:0:
408,232,20016,1,0,0:0:0:0:
148,232,20217,6,0,L|116:232,1,25,4|0,0:3|0:0,0:0:0:0:
104,208,20318,2,0,L|81:185,1,25,0|0,0:0|0:0,0:0:0:0:
86,190,20419,2,0,L|103:172,1,25,0|0,0:0|0:0,0:0:0:0:
122,148,20520,2,0,L|147:148,1,25,0|0,0:0|0:0,0:0:0:0:
204,148,20620,6,0,L|252:132,1,50,0|0,0:0|0:0,0:0:0:0:
176,72,20821,2,0,L|128:56,1,50,0|0,0:0|0:0,0:0:0:0:
308,72,21023,6,0,L|432:72,1,125,0|0,0:0|0:0,0:0:0:0:
220,192,21426,2,0,P|160:216|140:276,1,125,2|0,0:2|0:0,0:0:0:0:
216,268,21728,1,0,0:0:0:0:
404,264,21828,5,0,0:0:0:0:
472,264,21929,2,0,P|504:232|468:172,1,125,0|2,0:0|0:2,0:0:0:0:
384,168,22231,2,0,L|408:92,1,62.5
472,72,22433,2,0,L|412:48,1,62.5,2|0,0:2|0:0,0:0:0:0:
240,64,22634,5,2,0:2:0:0:
176,64,22735,2,0,P|240:96|252:144,1,125,2|2,0:2|0:2,0:0:0:0:
64,148,23037,2,0,P|83:205|140:227,1,125,2|0,0:2|0:0,0:0:0:0:
204,228,23339,1,0,0:0:0:0:
392,224,23440,6,0,B|456:223|456:223|472:164,1,125,2|2,0:2|0:2,0:0:0:0:
284,136,23843,2,0,L|228:104,2,62.5,2|2|8,0:2|2:0|0:3,0:0:0:0:
348,136,24145,1,8,2:3:0:0:
164,136,24245,5,6,0:3:0:0:
284,136,24447,1,2,0:2:0:0:
404,136,24648,1,0,0:0:0:0:
252,216,24850,1,0,0:0:0:0:
308,216,24950,1,0,0:0:0:0:
196,216,25051,6,0,B|132:216|132:216|108:276,1,125,2|2,0:2|0:2,0:0:0:0:
172,272,25353,1,0,0:0:0:0:
272,272,25454,2,0,L|288:336,1,62.5,0|0,0:0|0:0,0:0:0:0:
204,332,25655,2,0,L|220:268,1,62.5,0|0,0:0|0:0,0:0:0:0:
412,272,25857,5,2,0:2:0:0:
468,253,25957,1,0,0:0:0:0:
473,194,26058,1,2,0:2:0:0:
421,166,26159,1,0,0:0:0:0:
324,164,26259,2,0,L|296:108,1,62.5,2|0,0:2|0:0,0:0:0:0:
380,108,26461,2,0,L|436:80,1,62.5,2|0,0:2|0:0,0:0:0:0:
248,36,26662,6,0,L|185:72,2,62.5,0|2|0,0:0|0:2|0:0,0:0:0:0:
312,36,26964,1,2,0:2:0:0:
124,32,27065,2,0,L|56:56,1,62.5
312,36,27266,1,2,0:2:0:0:
256,192,27468,12,0,30690,0:0:0:0:
