osu file format v14

[General]
AudioFilename: audio.mp3
AudioLeadIn: 0
PreviewTime: 26
Countdown: 0
SampleSet: None
StackLeniency: 0.7
Mode: 2
LetterboxInBreaks: 0
WidescreenStoryboard: 1

[Editor]
DistanceSpacing: 0.5
BeatDivisor: 4
GridSize: 8
TimelineZoom: 1

[Metadata]
Title:Yamanoted heaven [Yamanote Line x Second_heaven]
TitleUnicode:Yamanoted heaven 【山手線× Second_heaven】
Artist:Yamanote Line
ArtistUnicode:山手線
Creator:Ascendance
Version:Absolute Zero's Rain
Source:
Tags:sm14002704 nico douga ryu second trains thenutritiousguy tng beatmania iidx starrstyx sahuang arusamour fii kaitlin -wwwww boberofdarkness sorcerer tom the wizard wildone94 absolute zero afk98 tenshichan [Superstar] tenshichan jbhyperion len fast kyptoric mbomb -_magic_bomb_-
BeatmapID:1098225
BeatmapSetID:516807

[Difficulty]
HPDrainRate:6
CircleSize:4
OverallDifficulty:9
ApproachRate:9
SliderMultiplier:2
SliderTickRate:1

[Events]
//Background and Video events
0,0,"bg.jpg",0,0
Video,0,"default.flv"
//Break Periods
//Storyboard Layer 0 (Background)
//Storyboard Layer 1 (Fail)
//Storyboard Layer 2 (Pass)
//Storyboard Layer 3 (Foreground)
//Storyboard Sound Samples

[TimingPoints]
77,402.814329448413,4,3,0,70,1,0
14578,-100,4,2,0,50,0,0
20217,-100,4,1,0,70,0,0
21023,-100,4,1,0,70,0,1
27468,-100,4,2,0,50,0,0
27871,-100,4,2,0,50,0,0
28274,-100,4,2,0,40,0,0
28676,-100,4,2,0,40,0,0
29079,-100,4,2,0,30,0,0
29885,-100,4,2,0,20,0,0
30288,-100,4,2,0,10,0,0
30690,-100,4,2,0,5,0,0

[HitObjects]
256,192,77,12,0,1486,0:0:0:0:
256,192,1688,6,0,L|360:192,1,100,4|0,0:0|0:0,0:0:0:0:
152,80,2091,2,0,L|272:80,1,100,2|0,0:2|0:0,0:0:0:0:
360,80,2493,2,0,L|460:80,3,100,2|0|2|0,1:3|0:0|1:2|0:0,0:0:0:0:
144,80,3299,6,0,L|56:168,1,100,4|0,0:0|0:0,0:0:0:0:
304,80,3702,2,0,L|440:80,1,100,0|2,0:0|0:2,0:0:0:0:
136,224,4105,2,0,L|248:224,1,100,4|2,1:3|0:2,0:0:0:0:
136,224,4507,2,0,L|32:224,1,100,2|2,1:2|0:2,0:0:0:0:
176,144,4910,6,0,L|320:144,1,100,4|2,0:0|0:2,0:0:0:0:
408,232,5313,1,2,0:2:0:0:
176,232,5514,1,2,0:2:0:0:
272,80,5716,2,0,L|136:80,1,100,4|2,1:3|0:0,0:0:0:0:
400,176,6119,2,0,L|288:176,1,100,2|0,1:2|0:0,0:0:0:0:
96,80,6522,5,4,0:0:0:0:
144,80,6622,1,0,2:0:0:0:
192,80,6723,1,2,0:2:0:0:
88,160,6924,1,2,1:2:0:0:
360,160,7126,1,2,1:2:0:0:
160,248,7327,2,0,L|40:248,3,100,6|2|2|2,1:3|0:0|0:0|0:0,0:0:0:0:
352,200,8133,5,4,0:0:0:0:
408,200,8233,1,2,0:2:0:0:
464,200,8334,1,0,0:0:0:0:
256,88,8536,2,0,L|168:176,1,100,0|0,0:0|0:0,0:0:0:0:
336,304,8938,2,0,L|440:304,1,100,4|2,0:0|0:2,0:0:0:0:
320,56,9341,1,0,0:0:0:0:
368,56,9442,1,0,0:0:0:0:
320,56,9543,1,0,0:0:0:0:
272,56,9643,1,0,0:0:0:0:
64,72,9744,6,0,L|144:152,1,100,6|2,0:0|0:2,0:0:0:0:
296,144,10147,2,0,L|432:144,1,100,2|2,0:2|0:0,0:0:0:0:
352,216,10449,1,2,0:0:0:0:
104,216,10550,2,0,L|160:128,1,100,2|0,1:2|0:0,0:0:0:0:
392,128,10852,2,0,L|432:240,1,100,2|0,0:2|0:0,0:0:0:0:
400,312,11154,2,0,L|320:312,1,50,2|2,0:2|0:2,0:0:0:0:
168,312,11355,6,0,L|64:312,1,100,4|0,0:0|0:0,0:0:0:0:
200,176,11758,2,0,L|320:176,1,100,2|2,0:2|0:2,0:0:0:0:
416,64,12161,1,0,0:0:0:0:
464,64,12262,1,0,0:0:0:0:
416,64,12362,1,0,0:0:0:0:
368,64,12463,1,0,0:0:0:0:
296,168,12564,2,0,L|396:168,1,100,2|0,1:2|0:0,0:0:0:0:
80,256,12967,6,0,L|192:256,1,100,6|2,1:3|0:0,0:0:0:0:
328,104,13369,2,0,L|448:104,1,100,2|2,1:2|0:0,0:0:0:0:
328,184,13772,2,0,L|384:184,1,50,0|2,1:0|0:2,0:0:0:0:
168,184,13974,2,0,L|104:184,1,50,0|2,0:0|0:2,0:0:0:0:
176,96,14175,1,0,1:0:0:0:
384,96,14376,1,2,1:2:0:0:
56,192,14578,5,2,0:0:0:0:
176,192,14779,1,2,0:0:0:0:
56,192,14981,1,2,0:0:0:0:
192,64,15182,1,0,0:0:0:0:
240,64,15283,1,0,0:0:0:0:
288,64,15383,1,2,0:0:0:0:
184,144,15585,1,0,0:0:0:0:
288,144,15786,1,2,0:0:0:0:
392,144,15988,1,0,0:0:0:0:
440,144,16088,1,0,0:0:0:0:
320,272,16189,5,2,0:0:0:0:
192,272,16390,1,2,0:0:0:0:
368,184,16692,1,0,0:0:0:0:
416,184,16793,1,2,0:0:0:0:
464,184,16894,1,0,0:0:0:0:
416,80,16995,1,0,0:0:0:0:
288,80,17196,1,2,0:0:0:0:
416,80,17398,1,2,0:0:0:0:
288,80,17599,1,2,0:0:0:0:
80,80,17800,5,0,0:0:0:0:
208,80,18002,1,0,0:0:0:0:
80,80,18203,1,2,0:0:0:0:
208,80,18405,1,0,0:0:0:0:
256,80,18505,1,0,0:0:0:0:
304,80,18606,1,2,0:0:0:0:
200,168,18807,1,0,0:0:0:0:
320,168,19009,1,0,0:0:0:0:
200,264,19210,1,0,0:0:0:0:
152,264,19311,1,0,0:0:0:0:
256,192,19412,5,0,0:0:0:0:
392,192,19613,1,2,0:0:0:0:
312,192,19814,1,0,0:0:0:0:
448,192,20016,1,0,0:0:0:0:
168,72,20217,2,0,B|96:72|96:72|32:200|32:200|128:200,1,300,4|0,0:3|0:0,0:0:0:0:
320,200,21023,6,0,L|440:200,2,100,0|0|2,0:0|0:0|0:2,0:0:0:0:
160,104,21627,2,0,L|80:104,2,50,0|0|0,0:0|0:0|0:0,0:0:0:0:
272,104,22030,1,0,0:0:0:0:
160,104,22231,1,0,0:0:0:0:
376,104,22433,1,2,0:2:0:0:
64,192,22634,6,0,L|0:192,1,50,2|2,0:2|0:2,0:0:0:0:
320,192,22936,2,0,L|376:192,2,50,2|2|0,0:2|0:2|0:0,0:0:0:0:
272,96,23238,2,0,L|144:96,1,100,0|2,0:0|0:2,0:0:0:0:
400,216,23641,2,0,L|296:216,2,100,2|2|2,0:2|0:2|0:2,0:0:0:0:
104,112,24245,6,0,L|24:192,1,100,2|2,0:2|0:2,0:0:0:0:
256,112,24648,2,0,L|368:112,1,100,0|0,0:0|0:0,0:0:0:0:
192,248,25051,2,0,L|304:248,1,100,2|2,0:2|0:2,0:0:0:0:
464,64,25454,2,0,L|352:64,1,100,0|0,0:0|0:0,0:0:0:0:
312,64,25756,1,0,0:0:0:0:
120,64,25857,6,0,L|48:136,1,100,2|2,0:2|0:2,0:0:0:0:
184,128,26259,2,0,L|312:128,1,100,2|2,0:2|0:2,0:0:0:0:
88,240,26662,2,0,L|188:240,2,100
424,240,27266,1,0,0:0:0:0:
256,192,27468,12,0,29885,0:0:0:0:
