osu file format v14

[General]
AudioFilename: audio.mp3
AudioLeadIn: 0
PreviewTime: 475
Countdown: 0
SampleSet: Drum
StackLeniency: 0.3
Mode: 0
LetterboxInBreaks: 0
WidescreenStoryboard: 0

[Editor]
DistanceSpacing: 1.2
BeatDivisor: 8
GridSize: 8
TimelineZoom: 1.9

[Metadata]
Title:ARMOR ARMARGE STAGE
TitleUnicode:ARMOR ARMARGE STAGE
Artist:Yamamoto Setsuo
ArtistUnicode:Yamamoto Setsuo
Creator:Crissa
Version:Rolling Shield
Source:ロックマンX
Tags:mmx rockman megaman x1 snes super nintendo capcom video game instrumental moodyrpg armored armadillo
BeatmapID:2738354
BeatmapSetID:1322072

[Difficulty]
HPDrainRate:6
CircleSize:5
OverallDifficulty:8.5
ApproachRate:9
SliderMultiplier:1.4
SliderTickRate:1

[Events]
//Background and Video events
0,0,"bg724.png",0,0
//Break Periods
//Storyboard Layer 0 (Background)
//Storyboard Layer 1 (Fail)
//Storyboard Layer 2 (Pass)
//Storyboard Layer 3 (Foreground)
//Storyboard Layer 4 (Overlay)
//Storyboard Sound Samples

[TimingPoints]
1123,431.344356578001,4,3,1,50,1,0
1123,-83.3333333333333,4,3,1,70,0,0
8020,-62.5,4,3,1,70,0,0
9744,-83.3333333333333,4,3,1,70,0,0
13193,-50,4,3,1,80,0,0
14055,-50,4,3,1,70,0,0
14918,-83.3333333333333,4,3,1,70,0,0
15241,-71.4285714285714,4,3,1,70,0,0
28713,-62.5,4,3,1,75,0,0
35610,-62.5,4,3,1,80,0,0
40783,-62.5,4,3,1,70,0,0
42508,-83.3333333333333,4,3,1,70,0,0
45903,-83.3333333333333,4,3,1,5,0,0
45957,-83.3333333333333,4,3,1,70,0,0
48543,-55.5555555555556,4,3,1,70,0,0
48866,-55.5555555555556,4,3,1,5,0,0
48974,-55.5555555555556,4,3,1,70,0,0
49405,-66.6666666666667,4,3,1,70,0,0
55656,-66.6666666666667,4,3,1,60,0,0
55872,-66.6666666666667,4,3,1,50,0,0
56087,-66.6666666666667,4,3,1,40,0,0
56411,-66.6666666666667,4,3,1,30,0,0
57165,-66.6666666666667,4,3,1,25,0,0
57596,-66.6666666666667,4,3,1,20,0,0
57812,-66.6666666666667,4,3,1,10,0,0
58027,-66.6666666666667,4,3,1,5,0,0

[Colours]
Combo1 : 244,168,83
Combo2 : 119,225,183
Combo3 : 112,149,218
Combo4 : 245,88,112

[HitObjects]
86,284,476,5,6,0:0:0:0:
148,342,692,1,10,0:2:0:0:
190,185,908,1,2,0:0:0:0:
296,361,1123,5,4,1:2:0:0:
283,355,1230,2,0,P|278:333|287:303,1,41.9999987182618,4|8,0:0|0:2,0:0:0:0:
373,283,1446,2,0,P|387:246|369:204,1,83.9999974365235,6|4,0:0|0:0,0:0:0:0:
291,151,1770,2,0,L|241:144,1,41.9999987182618,10|0,0:2|0:0,0:0:0:0:
385,126,1985,2,0,L|290:140,1,83.9999974365235,6|8,0:0|0:2,0:0:0:0:
447,157,2309,2,0,L|397:150,1,41.9999987182618,6|0,0:0|0:0,0:0:0:0:
491,68,2524,1,4,0:0:0:0:
502,76,2632,2,0,L|509:126,1,41.9999987182618,10|0,0:2|0:0,0:0:0:0:
461,263,2848,6,0,P|464:232|511:211,1,83.9999974365235,6|8,0:0|0:2,0:0:0:0:
507,210,3171,1,6,0:0:0:0:
361,285,3387,1,2,0:0:0:0:
318,194,3603,2,0,P|337:169|324:123,1,83.9999974365235,6|4,0:0|0:0,0:0:0:0:
323,122,3926,1,10,0:2:0:0:
239,150,4142,1,6,0:0:0:0:
172,41,4358,1,10,0:2:0:0:
110,204,4573,5,4,1:2:0:0:
100,213,4681,2,0,P|79:220|35:223,1,41.9999987182618,4|8,0:0|0:2,0:0:0:0:
100,128,4897,2,0,P|142:138|177:158,1,83.9999974365235,6|4,0:0|0:0,0:0:0:0:
41,108,5220,2,0,P|60:100|78:86,1,41.9999987182618,10|0,0:2|0:0,0:0:0:0:
26,169,5436,2,0,P|18:150|1:128,1,41.9999987182618,6|0,0:0|0:0,0:0:0:0:
102,215,5652,1,8,0:2:0:0:
102,215,5759,2,0,P|81:252|73:296,1,83.9999974365235,6|4,0:0|0:0,0:0:0:0:
95,351,6083,2,0,P|93:331|95:304,1,41.9999987182618,10|0,0:2|0:0,0:0:0:0:
227,253,6299,6,0,B|238:273|238:273|174:262,1,83.9999974365235,4|10,1:2|0:2,0:0:0:0:
281,198,6622,1,4,1:2:0:0:
299,211,6730,1,2,0:0:0:0:
329,197,6838,1,6,0:0:0:0:
350,207,6946,1,10,0:2:0:0:
364,203,7053,1,2,0:0:0:0:
404,217,7161,1,6,0:0:0:0:
404,217,7377,6,0,L|451:233,1,41.9999987182618,10|0,0:2|0:0,0:0:0:0:
274,171,7593,2,0,L|321:187,1,41.9999987182618,6|4,0:0|0:0,0:0:0:0:
144,125,7808,2,0,L|191:141,1,41.9999987182618,10|0,0:2|0:0,0:0:0:0:
261,286,8024,6,0,P|244:235|278:193,1,112,4|8,1:2|0:2,0:0:0:0:
344,308,8348,2,0,P|292:324|250:291,1,112,6|4,0:0|0:0,0:0:0:0:
365,219,8671,2,0,P|393:214|422:229,1,56,10|0,0:2|0:0,0:0:0:0:
485,331,8887,6,0,L|509:215,1,112,6|8,0:0|0:2,0:0:0:0:
461,136,9210,2,0,L|437:20,1,112,6|4,0:0|0:0,0:0:0:0:
360,85,9534,2,0,L|348:143,1,56,10|0,0:2|0:0,0:0:0:0:
249,22,9749,6,0,B|220:6|220:6|192:69,1,83.9999974365235,4|10,1:2|0:2,0:0:0:0:
199,52,10073,1,6,0:0:0:0:
253,170,10289,1,2,0:0:0:0:
178,270,10504,2,0,B|149:286|149:286|121:223,1,83.9999974365235,6|4,0:0|0:0,0:0:0:0:
128,239,10828,1,10,0:2:0:0:
41,207,11043,1,6,0:0:0:0:
180,146,11259,1,10,0:2:0:0:
15,79,11475,5,4,1:2:0:0:
2,74,11583,2,0,P|-5:49|0:23,1,41.9999987182618,6|8,0:0|0:2,0:0:0:0:
89,64,11798,2,0,P|78:106|51:148,1,83.9999974365235,6|4,0:0|0:0,0:0:0:0:
139,20,12122,2,0,P|116:28|93:33,1,41.9999987182618,10|0,0:2|0:0,0:0:0:0:
161,103,12337,1,6,0:0:0:0:
230,7,12445,2,0,B|239:36|239:36|260:52|260:52|276:97,1,83.9999974365235,8|6,0:2|0:0,0:0:0:0:
330,156,12769,2,0,L|341:110,1,41.9999987182618,8|0,0:2|0:2,0:0:0:0:
207,164,12984,1,6,0:0:0:0:
248,188,13092,1,4,0:0:0:0:
216,258,13200,6,0,B|283:250|283:250|289:254|289:254|365:245,1,140,12|8,1:2|0:2,0:0:0:0:
447,236,13524,1,4,1:2:0:0:
447,236,14063,1,10,0:2:0:0:
416,173,14171,1,10,0:2:0:0:
406,103,14279,1,10,0:2:0:0:
419,91,14386,1,2,0:0:0:0:
427,65,14494,1,10,0:2:0:0:
416,30,14602,1,2,0:0:0:0:
369,16,14710,1,10,0:2:0:0:
315,60,14818,1,10,0:2:0:0:
303,64,14926,6,0,L|242:53,2,41.9999987182618,4|0|10,1:2|0:0|0:2,0:0:0:0:
370,130,15249,2,0,L|309:141,1,48.9999985046387,6|0,0:0|0:0,0:0:0:0:
257,202,15465,2,0,L|151:183,1,97.9999970092774,6|0,0:0|0:0,0:0:0:0:
273,223,15788,2,0,L|400:244,1,97.9999970092774,6|8,0:0|0:2,0:0:0:0:
369,239,16112,1,2,0:0:0:0:
170,373,16327,1,6,0:0:0:0:
154,360,16435,2,0,L|143:307,1,48.9999985046387,10|0,0:2|0:0,0:0:0:0:
89,223,16651,6,0,B|135:240|135:240|167:205,2,97.9999970092774,6|10|6,0:0|0:2|0:0,0:0:0:0:
146,90,17298,2,0,L|165:189,1,97.9999970092774,10|6,0:2|0:0,0:0:0:0:
168,203,17621,2,0,L|224:215,1,48.9999985046387,0|8,0:0|0:2,0:0:0:0:
271,275,17837,2,0,L|327:263,2,48.9999985046387,6|0|4,0:0|0:0|0:0,0:0:0:0:
379,316,18161,1,10,0:2:0:0:
442,157,18376,6,0,L|428:108,2,48.9999985046387,4|0|10,1:2|0:0|0:2,0:0:0:0:
502,208,18700,2,0,L|489:255,1,48.9999985046387,6|0,0:0|0:0,0:0:0:0:
411,288,18915,2,0,L|301:262,1,97.9999970092774,6|0,0:0|0:0,0:0:0:0:
416,305,19239,2,0,L|516:327,1,97.9999970092774,6|8,0:0|0:2,0:0:0:0:
511,326,19562,1,6,0:0:0:0:
320,378,19778,1,6,0:0:0:0:
307,360,19886,1,10,0:2:0:0:
285,355,19994,1,2,0:0:0:0:
264,363,20102,6,0,P|223:369|204:365,1,48.9999985046387,4|0,1:2|0:0,0:0:0:0:
230,290,20317,2,0,P|204:257|198:239,1,48.9999985046387,10|4,0:2|0:0,0:0:0:0:
291,185,20533,2,0,P|278:206|272:232,1,48.9999985046387,2|4,0:0|0:0,0:0:0:0:
397,224,20749,2,0,P|372:224|349:230,1,48.9999985046387,10|0,0:2|0:0,0:0:0:0:
317,313,20964,6,0,P|340:318|364:318,2,48.9999985046387,6|2|8,0:0|0:0|0:2,0:0:0:0:
244,283,21288,2,0,P|249:258|249:234,2,48.9999985046387,6|2|4,0:0|0:0|0:0,0:0:0:0:
257,354,21611,1,10,0:2:0:0:
66,378,21827,5,4,1:2:0:0:
66,378,22043,1,10,0:2:0:0:
66,378,22151,2,0,L|60:329,1,48.9999985046387,6|0,0:0|0:0,0:0:0:0:
124,271,22366,2,0,L|233:289,1,97.9999970092774,6|0,0:0|0:0,0:0:0:0:
111,258,22690,2,0,L|11:241,1,97.9999970092774,6|8,0:0|0:2,0:0:0:0:
15,242,23013,1,6,0:0:0:0:
137,124,23229,1,6,0:0:0:0:
151,136,23337,2,0,L|163:206,1,48.9999985046387,10|0,0:2|0:0,0:0:0:0:
212,278,23552,6,0,B|164:260|164:260|114:294,2,97.9999970092774,6|10|6,0:0|0:2|0:0,0:0:0:0:
143,383,24199,2,0,L|125:284,1,97.9999970092774,10|6,0:2|0:0,0:0:0:0:
103,282,24523,2,0,L|113:223,1,48.9999985046387,2|8,0:0|0:2,0:0:0:0:
168,147,24739,2,0,L|176:195,2,48.9999985046387,6|2|4,0:0|0:0|0:0,0:0:0:0:
233,246,25062,1,10,0:2:0:0:
398,305,25278,5,4,1:2:0:0:
398,305,25493,1,10,0:2:0:0:
398,305,25601,2,0,L|411:362,1,48.9999985046387,6|0,0:0|0:0,0:0:0:0:
461,249,25817,2,0,L|439:152,1,97.9999970092774,6|2,0:0|0:0,0:0:0:0:
478,251,26140,2,0,B|506:291|506:291|497:347,1,97.9999970092774,6|8,0:0|0:2,0:0:0:0:
498,339,26464,1,6,0:0:0:0:
321,371,26680,1,6,0:0:0:0:
304,361,26787,1,10,0:2:0:0:
298,343,26895,1,2,0:0:0:0:
305,326,27003,6,0,P|308:300|302:276,1,48.9999985046387,4|0,1:2|0:0,0:0:0:0:
274,169,27219,2,0,P|296:177|317:193,1,48.9999985046387,10|4,0:2|1:2,0:0:0:0:
257,294,27435,2,0,P|280:284|297:266,1,48.9999985046387,2|6,0:0|0:0,0:0:0:0:
327,206,27650,2,0,P|330:180|325:155,1,48.9999985046387,10|0,0:2|0:0,0:0:0:0:
260,85,27866,6,0,L|194:73,2,48.9999985046387,4|2|0,1:2|0:0|0:0,0:0:0:0:
192,142,28189,2,0,L|241:150,2,48.9999985046387,2|4|0,0:0|1:2|0:0,0:0:0:0:
165,206,28513,1,2,0:0:0:0:
212,360,28729,5,4,1:2:0:0:
324,242,28944,1,10,0:2:0:0:
367,312,29052,2,0,P|306:277|315:242,1,112,6|6,0:0|0:0,0:0:0:0:
368,157,29376,1,10,0:2:0:0:
389,170,29483,1,2,0:0:0:0:
350,171,29591,2,0,L|287:153,1,56,6|0,0:0|0:0,0:0:0:0:
232,131,29807,2,0,L|169:113,1,56,10|4,0:2|0:0,0:0:0:0:
129,238,30023,2,0,L|191:220,1,56,2|4,0:0|0:0,0:0:0:0:
247,198,30238,2,0,L|309:180,1,56,10|0,0:2|0:0,0:0:0:0:
352,313,30454,6,0,L|279:292,1,56,6|0,1:2|0:0,0:0:0:0:
221,269,30670,2,0,L|163:252,1,56,10|4,0:2|0:0,0:0:0:0:
296,209,30885,2,0,L|353:192,1,56,2|4,0:0|0:0,0:0:0:0:
425,246,31101,2,0,L|432:118,2,112,10|4|8,0:2|0:0|0:2,0:0:0:0:
439,377,31640,2,0,L|445:258,1,112,4|4,0:0|0:0,0:0:0:0:
445,265,31964,1,8,0:2:0:0:
227,351,32179,5,4,1:2:0:0:
227,351,32395,2,0,L|219:292,1,56,10|4,0:2|0:0,0:0:0:0:
137,265,32611,2,0,L|144:206,1,56,2|4,0:0|0:0,0:0:0:0:
227,177,32826,2,0,L|219:118,1,56,10|0,0:2|0:0,0:0:0:0:
70,81,33042,2,0,L|128:90,1,56,6|0,0:0|0:0,0:0:0:0:
252,23,33258,2,0,L|310:13,1,56,10|4,0:2|0:0,0:0:0:0:
118,76,33473,2,0,L|60:67,1,56,2|4,0:0|0:0,0:0:0:0:
260,33,33689,2,0,L|318:23,1,56,10|0,0:2|0:0,0:0:0:0:
227,177,33905,6,0,B|201:93|201:93|242:114,1,112,4|8,1:2|0:2,0:0:0:0:
369,115,34228,1,4,1:2:0:0:
352,124,34336,2,0,L|340:195,1,56,2|6,0:0|0:0,0:0:0:0:
324,283,34552,2,0,L|314:341,1,56,8|2,0:2|0:0,0:0:0:0:
202,368,34767,5,6,0:0:0:0:
171,322,34875,1,2,0:0:0:0:
188,269,34983,1,10,0:2:0:0:
240,250,35091,1,6,0:0:0:0:
287,279,35199,1,2,0:0:0:0:
320,276,35307,1,6,0:0:0:0:
343,252,35414,1,10,0:2:0:0:
345,218,35522,1,2,0:0:0:0:
326,192,35630,5,4,1:2:0:0:
326,192,35846,2,0,L|404:203,1,56,10|4,0:2|0:0,0:0:0:0:
448,127,36061,2,0,L|506:118,1,56,2|4,0:0|0:0,0:0:0:0:
358,89,36277,2,0,L|299:80,1,56,10|0,0:2|0:0,0:0:0:0:
453,226,36493,2,0,L|439:289,1,56,6|0,0:0|0:0,0:0:0:0:
364,330,36708,2,0,L|351:388,1,56,10|4,0:2|0:0,0:0:0:0:
306,259,36924,2,0,L|292:195,1,56,2|4,0:0|0:0,0:0:0:0:
262,331,37140,2,0,L|193:316,1,56,10|0,0:2|0:0,0:0:0:0:
60,219,37355,6,0,B|106:251|106:251|160:234,1,112,4|10,1:2|0:2,0:0:0:0:
144,110,37679,1,4,0:0:0:0:
129,117,37787,2,0,L|119:178,1,56,2|4,0:0|0:0,0:0:0:0:
221,264,38002,2,0,B|189:218|189:218|206:164,2,112,10|4|8,0:2|0:0|0:2,0:0:0:0:
238,275,38542,2,0,L|349:282,1,112,4|4,0:0|0:0,0:0:0:0:
349,282,38865,1,8,0:2:0:0:
401,115,39081,5,4,1:2:0:0:
401,115,39296,2,0,L|408:170,1,56,10|4,0:2|0:0,0:0:0:0:
366,254,39512,2,0,L|373:309,1,56,2|4,0:0|0:0,0:0:0:0:
288,206,39728,2,0,L|295:151,1,56,10|0,0:2|0:0,0:0:0:0:
239,77,39943,2,0,L|246:22,1,56,6|0,0:0|0:0,0:0:0:0:
168,137,40159,2,0,L|175:192,1,56,10|4,0:2|0:0,0:0:0:0:
134,273,40375,2,0,L|141:328,1,56,2|4,0:0|0:0,0:0:0:0:
66,213,40591,1,10,0:2:0:0:
247,339,40806,6,0,B|279:360|279:360|311:349|352:341,1,112,4|8,1:2|0:2,0:0:0:0:
417,252,41130,2,0,B|385:273|385:273|352:262|312:254,1,112,4|8,1:2|0:2,0:0:0:0:
235,261,41453,1,4,1:2:0:0:
417,252,41669,1,4,0:0:0:0:
235,261,41885,1,10,0:2:0:0:
196,228,41992,1,4,0:0:0:0:
193,183,42100,1,2,0:0:0:0:
217,152,42208,1,4,0:0:0:0:
249,141,42316,1,10,0:2:0:0:
276,146,42424,1,0,0:0:0:0:
293,159,42532,6,0,P|307:182|310:202,2,41.9999987182618,4|2|8,1:2|0:0|0:2,0:0:0:0:
227,123,42855,2,0,P|241:100|244:80,2,41.9999987182618,6|2|4,0:0|0:0|0:0,0:0:0:0:
161,159,43179,1,10,0:2:0:0:
175,173,43286,1,2,0:0:0:0:
180,193,43394,1,6,0:0:0:0:
245,212,43502,1,2,0:0:0:0:
239,231,43610,1,10,0:2:0:0:
225,245,43718,1,6,0:0:0:0:
158,258,43826,2,0,L|106:248,1,41.9999987182618,2|4,0:0|0:0,0:0:0:0:
202,318,44041,2,0,L|254:308,1,41.9999987182618,10|0,0:2|0:0,0:0:0:0:
333,231,44257,5,6,0:0:0:0:
333,231,44365,1,2,0:0:0:0:
333,231,44473,1,10,0:2:0:0:
401,207,44580,1,6,0:0:0:0:
401,207,44688,1,2,0:0:0:0:
401,207,44796,1,6,0:0:0:0:
414,136,44904,1,10,0:2:0:0:
414,136,45012,1,2,0:0:0:0:
414,136,45120,1,6,0:0:0:0:
359,90,45227,1,2,0:0:0:0:
359,90,45335,1,10,0:2:0:0:
359,90,45443,1,6,0:0:0:0:
290,113,45551,1,2,0:0:0:0:
290,113,45659,1,6,0:0:0:0:
290,113,45767,2,0,B|262:125|262:125|220:111,1,62.9999980773926,10|0,0:2|2:2,0:0:0:0:
213,121,45982,6,0,L|201:70,2,41.9999987182618,6|2|8,1:2|0:0|0:2,0:0:0:0:
161,182,46306,2,0,L|149:233,2,41.9999987182618,6|2|4,0:0|0:0|0:0,0:0:0:0:
109,121,46629,1,10,0:2:0:0:
88,121,46737,1,2,0:0:0:0:
68,128,46845,1,4,0:0:0:0:
80,195,46953,1,2,0:0:0:0:
69,213,47061,1,10,0:2:0:0:
65,234,47169,1,2,0:0:0:0:
129,257,47276,1,2,0:0:0:0:
139,275,47384,1,4,0:0:0:0:
155,289,47492,2,0,B|197:305|198:274|237:289,1,83.9999974365235,10|4,0:2|1:2,0:0:0:0:
424,354,47923,5,10,0:2:0:0:
392,328,48031,1,4,1:2:0:0:
406,298,48139,1,2,0:0:0:0:
391,287,48247,2,0,P|385:245|378:192,1,83.9999974365235,6|0,0:0|0:0,0:0:0:0:
438,112,48570,6,0,B|407:119|380:131|380:131|330:105|251:88,1,188.999994232178,4|0,1:2|2:0,0:0:0:0:
191,103,49002,2,0,P|252:114|313:133,1,125.999996154785,4|8,1:2|0:2,0:0:0:0:
193,262,49433,6,0,B|141:277|147:240|89:250,1,105.000004005432,4|8,1:2|0:2,0:0:0:0:
69,264,49757,2,0,P|17:239|45:195,1,105.000004005432,4|4,0:0|0:0,0:0:0:0:
51,191,50080,1,10,0:2:0:0:
14,99,50296,2,0,P|68:118|119:123,1,105.000004005432,4|8,0:0|0:2,0:0:0:0:
178,79,50619,1,4,0:0:0:0:
195,86,50727,2,0,P|204:115|209:142,1,52.5000020027161,2|4,0:0|0:0,0:0:0:0:
264,266,50943,2,0,P|269:240|277:215,1,52.5000020027161,10|0,0:2|0:0,0:0:0:0:
335,105,51158,6,0,P|360:99|384:89,1,52.5000020027161,6|0,1:2|0:0,0:0:0:0:
452,191,51374,2,0,P|478:201|521:208,1,52.5000020027161,10|4,0:2|0:0,0:0:0:0:
393,100,51590,2,0,P|369:110|344:116,1,52.5000020027161,2|4,0:0|0:0,0:0:0:0:
456,179,51805,2,0,P|482:189|525:196,1,52.5000020027161,10|0,0:2|0:0,0:0:0:0:
352,238,52021,2,0,P|363:212|373:183,1,52.5000020027161,6|0,0:0|0:0,0:0:0:0:
326,122,52237,2,0,P|315:99|300:74,1,52.5000020027161,10|4,0:2|0:0,0:0:0:0:
287,192,52452,2,0,P|259:196|222:204,1,52.5000020027161,2|4,0:0|0:0,0:0:0:0:
182,268,52668,2,0,P|210:272|247:280,1,52.5000020027161,10|0,0:2|0:0,0:0:0:0:
377,362,52884,6,0,P|336:317|352:275,1,105.000004005432,4|8,1:2|0:2,0:0:0:0:
420,223,53207,2,0,P|428:173|390:140,1,105.000004005432,6|4,0:0|0:0,0:0:0:0:
301,136,53531,2,0,L|224:151,1,52.5000020027161,10|0,0:2|0:0,0:0:0:0:
321,51,53747,6,0,L|439:63,1,105.000004005432,6|0,0:0|0:2,0:0:0:0:
507,35,54070,2,0,L|495:153,1,105.000004005432,6|0,0:0|0:0,0:0:0:0:
484,224,54394,2,0,L|478:283,1,52.5000020027161,10|8,0:2|0:2,0:0:0:0:
378,355,54609,2,0,B|352:279|352:279|345:323,1,105.000004005432,4|0,1:2|0:0,0:0:0:0:
393,359,54933,1,6,1:2:0:0:
393,359,55688,5,2,0:0:0:0:
310,285,55903,1,10,0:2:0:0:
460,160,56119,1,2,0:0:0:0:
385,55,56335,5,4,1:2:0:0:
256,192,56442,12,0,58060,0:0:0:0:
