osu file format v14

[General]
AudioFilename: audio.mp3
AudioLeadIn: 0
PreviewTime: 475
Countdown: 0
SampleSet: Drum
StackLeniency: 0.3
Mode: 0
LetterboxInBreaks: 0
WidescreenStoryboard: 1

[Editor]
DistanceSpacing: 1.2
BeatDivisor: 4
GridSize: 8
TimelineZoom: 1.9

[Metadata]
Title:ARMOR ARMARGE STAGE
TitleUnicode:ARMOR ARMARGE STAGE
Artist:Yamamoto Setsuo
ArtistUnicode:Yamamoto Setsuo
Creator:Crissa
Version:Moody's Normal
Source:ロックマンX
Tags:mmx rockman megaman x1 snes super nintendo capcom video game instrumental moodyrpg armored armadillo
BeatmapID:2757049
BeatmapSetID:1322072

[Difficulty]
HPDrainRate:3
CircleSize:4
OverallDifficulty:4.5
ApproachRate:4.5
SliderMultiplier:1.3
SliderTickRate:1

[Events]
//Background and Video events
0,0,"bg724.png",0,0
//Break Periods
//Storyboard Layer 0 (Background)
//Storyboard Layer 1 (Fail)
//Storyboard Layer 2 (Pass)
//Storyboard Layer 3 (Foreground)
//Storyboard Layer 4 (Overlay)
//Storyboard Sound Samples

[TimingPoints]
1123,431.344356578001,4,3,1,70,1,0
13193,-100,4,3,1,80,0,0
14055,-100,4,3,1,70,0,0
28713,-100,4,3,1,75,0,0
35610,-100,4,3,1,80,0,0
40783,-100,4,3,1,70,0,0
48866,-100,4,3,1,5,0,0
48974,-100,4,3,1,70,0,0
55656,-100,4,3,1,60,0,0
55872,-100,4,3,1,50,0,0
56087,-100,4,3,1,40,0,0
56411,-100,4,3,1,30,0,0
57165,-100,4,3,1,25,0,0
57596,-100,4,3,1,20,0,0
57812,-100,4,3,1,10,0,0
58027,-100,4,3,1,5,0,0

[Colours]
Combo1 : 244,168,83
Combo2 : 119,225,183
Combo3 : 112,149,218
Combo4 : 245,88,112

[HitObjects]
88,354,1123,6,0,B|50:319|50:319|43:264,1,97.5,4|6,1:2|0:0,0:0:0:0:
77,161,1770,1,10,0:2:0:0:
77,161,1985,2,0,L|197:155,1,97.5,6|6,0:0|0:0,0:0:0:0:
255,72,2632,1,10,0:2:0:0:
255,72,2848,2,0,B|305:61|331:110|331:110|396:94|422:144,1,195,6|8,0:0|0:2,0:0:0:0:
477,286,3926,1,10,0:2:0:0:
417,335,4142,2,0,P|394:303|383:270,1,65,6|10,0:0|0:2,0:0:0:0:
322,232,4573,6,0,B|262:235|262:235|215:255,1,97.5,4|6,1:2|0:0,0:0:0:0:
165,351,5220,1,10,0:2:0:0:
165,351,5436,2,0,B|130:365|130:365|70:368,1,97.5,6|6,0:0|0:0,0:0:0:0:
30,257,6083,1,10,0:2:0:0:
96,215,6299,2,0,B|110:151|110:151|83:94|83:94|102:27,1,195,4|10,1:2|0:2,0:0:0:0:
256,20,7377,1,10,0:2:0:0:
321,62,7593,2,0,P|307:92|277:117,1,65,6|10,0:0|0:2,0:0:0:0:
228,168,8024,6,0,P|230:214|225:277,1,97.5,4|6,1:2|0:0,0:0:0:0:
326,336,8671,1,10,0:2:0:0:
326,336,8887,2,0,P|324:287|327:238,1,97.5,6|6,0:0|0:0,0:0:0:0:
392,141,9534,1,10,0:2:0:0:
464,112,9749,2,0,B|510:194|510:194|454:285,1,195,4|8,1:2|0:2,0:0:0:0:
328,368,10828,1,10,0:2:0:0:
253,343,11043,2,0,P|224:329|175:333,1,65,6|10,0:0|0:2,0:0:0:0:
184,250,11475,6,0,L|195:143,1,97.5,4|6,1:2|0:0,0:0:0:0:
81,142,12122,1,10,0:2:0:0:
81,142,12337,2,0,L|67:249,1,97.5,6|6,0:0|0:0,0:0:0:0:
54,358,12984,1,6,0:0:0:0:
54,358,13200,1,12,1:2:0:0:
170,369,13524,1,4,1:2:0:0:
296,296,14063,2,0,L|364:290,1,65,10|10,0:2|0:2,0:0:0:0:
334,216,14494,2,0,L|266:222,1,65,10|10,0:2|0:2,0:0:0:0:
194,229,14926,5,4,1:2:0:0:
194,229,15141,2,0,B|125:235|125:235|91:219,2,97.5,10|6|6,0:2|0:0|0:0,0:0:0:0:
205,112,16112,2,0,L|305:118,1,97.5,2|10,0:0|0:2,0:0:0:0:
367,75,16651,1,6,0:0:0:0:
427,124,16867,2,0,P|461:94|467:34,2,97.5,10|0|6,0:2|0:0|0:0,0:0:0:0:
468,233,17837,2,0,L|450:344,1,97.5,6|10,0:0|0:2,0:0:0:0:
378,355,18376,5,4,1:2:0:0:
378,355,18592,2,0,P|337:326|274:334,1,97.5,10|6,0:2|0:0,0:0:0:0:
181,368,19239,1,6,0:0:0:0:
81,307,19562,2,0,B|65:261|65:261|84:205,1,97.5,6|10,0:0|0:2,0:0:0:0:
149,177,20102,1,4,1:2:0:0:
149,177,20317,2,0,B|201:180|201:180|238:214,2,97.5,10|4|6,0:2|0:0|0:0,0:0:0:0:
85,78,21288,1,6,0:0:0:0:
186,19,21611,1,10,0:2:0:0:
254,56,21827,5,4,1:2:0:0:
254,56,22043,2,0,L|277:153,2,97.5,10|6|6,0:2|0:0|0:0,0:0:0:0:
369,36,23013,2,0,L|394:133,1,97.5,6|10,0:0|0:2,0:0:0:0:
356,199,23552,1,6,0:0:0:0:
291,242,23768,2,0,B|267:256|255:275|255:275|233:260|201:267,2,97.5,10|0|6,0:2|0:0|0:0,0:0:0:0:
325,354,24739,2,0,P|275:376|212:369,1,97.5,6|10,0:0|0:2,0:0:0:0:
162,342,25278,5,4,1:2:0:0:
162,342,25493,2,0,L|52:348,1,97.5,10|6,0:2|0:0,0:0:0:0:
39,232,26140,1,6,0:0:0:0:
112,141,26464,2,0,P|160:144|207:108,1,97.5,6|10,0:0|0:2,0:0:0:0:
186,45,27003,1,4,1:2:0:0:
186,45,27219,2,0,L|90:67,2,97.5,10|6|4,0:2|0:0|1:2,0:0:0:0:
340,20,28297,1,4,1:2:0:0:
350,175,28729,6,0,P|301:250|226:204,1,195,4|10,1:2|0:2,0:0:0:0:
221,127,29591,2,0,L|245:65,2,65,6|10|2,0:0|0:2|0:0,0:0:0:0:
104,23,30454,2,0,L|29:31,1,65,6|10,1:2|0:2,0:0:0:0:
20,105,30885,1,2,0:0:0:0:
19,186,31101,2,0,B|-8:237|23:285|23:285|104:261|164:330,1,260,10|8,0:2|0:2,0:0:0:0:
236,353,32179,5,4,1:2:0:0:
257,277,32395,2,0,L|331:281,1,65,10|2,0:2|0:0,0:0:0:0:
460,353,33042,1,4,0:3:0:0:
445,276,33258,2,0,L|454:204,1,65,8|2,0:2|0:2,0:0:0:0:
449,55,33905,6,0,P|420:36|382:36,1,65,4|8,1:2|0:2,0:0:0:0:
331,76,34336,1,2,0:0:0:0:
331,76,34552,2,0,B|274:43|205:83|128:123|79:77,1,260,8|10,0:2|0:2,0:0:0:0:
18,31,35630,5,4,1:2:0:0:
4,107,35846,2,0,P|-7:133|-3:174,1,65,10|2,0:2|0:0,0:0:0:0:
100,284,36493,1,2,0:2:0:0:
132,213,36708,2,0,L|201:221,1,65,10|2,0:2|0:2,0:0:0:0:
287,347,37355,2,0,L|364:337,1,65,4|0,1:2|0:2,0:2:0:0:
433,334,37787,1,2,0:0:0:0:
433,334,38002,2,0,B|461:272|461:272|443:213|443:213|464:152|464:152|434:90,1,260,10|8,0:2|0:2,0:0:0:0:
367,53,39081,5,4,1:2:0:0:
297,17,39296,2,0,L|229:12,1,65,10|2,0:2|0:0,0:0:0:0:
77,34,39943,1,2,0:2:0:0:
102,107,40159,2,0,P|83:137|82:173,1,65,8|2,0:2|0:2,0:0:0:0:
157,302,40806,2,0,L|42:309,2,97.5,4|4|4,1:2|1:2|1:2,0:0:0:0:
307,342,41885,1,10,0:2:0:0:
270,273,42100,2,0,P|272:239|256:209,1,65,2|10,0:0|0:2,0:0:0:0:
293,145,42532,6,0,P|381:79|381:268,1,390,4|2,1:2|0:0,0:0:0:0:
258,304,44257,2,0,P|220:280|160:281,2,97.5,6|6|10,0:0|0:0|0:2,0:0:0:0:
486,355,45551,1,2,0:0:0:0:
371,248,45982,2,0,P|351:208|301:175,2,97.5,6|6|10,1:2|0:0|0:2,0:0:0:0:
456,30,47276,1,2,0:0:0:0:
310,87,47708,2,0,B|321:156|254:197|187:239|203:318,1,260,4|4,1:2|1:2,0:0:0:0:
52,269,49002,1,4,1:2:0:0:
162,158,49433,6,0,B|343:239,1,195,4|10,1:2|0:2,0:0:0:0:
145,368,50727,2,0,P|136:334|144:301,2,65,2|10|6,0:0|0:2|1:2,0:0:0:0:
222,376,51374,2,0,B|254:369|254:369|286:375,1,65,10|2,0:2|0:0,0:0:0:0:
367,368,51805,2,0,P|376:334|368:301,1,65,10|6,0:2|0:0,0:0:0:0:
322,243,52237,1,10,0:2:0:0:
256,285,52452,1,2,0:0:0:0:
190,242,52668,1,10,0:2:0:0:
216,168,52884,6,0,B|201:131|201:131|219:112|207:75,2,97.5,4|6|10,1:2|0:0|0:2,0:0:0:0:
294,169,53747,2,0,B|309:132|309:132|291:113|303:76,2,97.5,6|6|10,0:0|0:0|0:2,0:0:0:0:
256,237,54609,1,4,1:2:0:0:
193,335,54933,1,6,1:2:0:0:
42,250,55688,5,2,0:0:0:0:
86,186,55903,2,0,P|113:164|130:131,1,65,10|2,0:2|0:0,0:0:0:0:
144,61,56335,5,4,1:2:0:0:
256,192,56442,12,0,58060,0:0:0:0:
