osu file format v14

[General]
AudioFilename: audio.mp3
AudioLeadIn: 0
PreviewTime: 475
Countdown: 0
SampleSet: Drum
StackLeniency: 0.3
Mode: 0
LetterboxInBreaks: 0
WidescreenStoryboard: 1

[Editor]
DistanceSpacing: 1.2
BeatDivisor: 4
GridSize: 8
TimelineZoom: 1.9

[Metadata]
Title:ARMOR ARMARGE STAGE
TitleUnicode:ARMOR ARMARGE STAGE
Artist:Yamamoto Setsuo
ArtistUnicode:Yamamoto Setsuo
Creator:Crissa
Version:Easy
Source:ロックマンX
Tags:mmx rockman megaman x1 snes super nintendo capcom video game instrumental moodyrpg armored armadillo
BeatmapID:2740214
BeatmapSetID:1322072

[Difficulty]
HPDrainRate:2
CircleSize:3.2
OverallDifficulty:3
ApproachRate:4
SliderMultiplier:1.1
SliderTickRate:1

[Events]
//Background and Video events
0,0,"bg724.png",0,0
//Break Periods
//Storyboard Layer 0 (Background)
//Storyboard Layer 1 (Fail)
//Storyboard Layer 2 (Pass)
//Storyboard Layer 3 (Foreground)
//Storyboard Layer 4 (Overlay)
//Storyboard Sound Samples

[TimingPoints]
1123,431.344356578001,4,3,1,70,1,0
1123,-90.9090909090909,4,3,1,70,0,0
7373,-90.9090909090909,4,3,1,70,0,0
8020,-90.9090909090909,4,3,1,70,0,0
9744,-90.9090909090909,4,3,1,70,0,0
13193,-90.9090909090909,4,3,1,80,0,0
14055,-90.9090909090909,4,3,1,70,0,0
14918,-90.9090909090909,4,3,1,70,0,0
15241,-90.9090909090909,4,3,1,70,0,0
28713,-90.9090909090909,4,3,1,75,0,0
35610,-90.9090909090909,4,3,1,80,0,0
40783,-90.9090909090909,4,3,1,70,0,0
42077,-90.9090909090909,4,3,1,70,0,0
42508,-90.9090909090909,4,3,1,70,0,0
45903,-90.9090909090909,4,3,1,70,0,0
45957,-90.9090909090909,4,3,1,70,0,0
48543,-90.9090909090909,4,3,1,70,0,0
48866,-90.9090909090909,4,3,1,5,0,0
48974,-90.9090909090909,4,3,1,70,0,0
49405,-90.9090909090909,4,3,1,70,0,0
55656,-90.9090909090909,4,3,1,60,0,0
55872,-90.9090909090909,4,3,1,50,0,0
56087,-90.9090909090909,4,3,1,40,0,0
56411,-90.9090909090909,4,3,1,30,0,0
57165,-90.9090909090909,4,3,1,25,0,0
57596,-90.9090909090909,4,3,1,20,0,0
57812,-90.9090909090909,4,3,1,10,0,0
58027,-90.9090909090909,4,3,1,5,0,0

[Colours]
Combo1 : 244,168,83
Combo2 : 119,225,183
Combo3 : 112,149,218
Combo4 : 245,88,112

[HitObjects]
61,134,476,6,0,P|98:162|106:187,1,55,6|10,0:0|0:2,0:0:0:0:
67,285,1123,2,0,B|100:310|100:310|134:292|179:281,1,121.000003692627,4|0,1:2|0:0,0:0:0:0:
296,354,1985,2,0,P|341:340|334:269,1,121.000003692627,6|0,0:0|0:0,0:0:0:0:
260,184,2848,6,0,B|241:135|241:135|276:84|274:11|274:11|256:52,1,211.750006462097,6|6,0:0|0:0,0:0:0:0:
348,161,4142,1,6,0:0:0:0:
468,148,4573,6,0,P|501:193|481:255,1,121.000003692627,4|0,1:2|0:0,0:0:0:0:
377,309,5436,2,0,L|232:297,1,121.000003692627,6|0,0:0|0:0,0:0:0:0:
152,360,6299,5,4,1:2:0:0:
72,268,6730,2,0,L|60:199,2,60.5000018463135,2|10|6,0:0|0:2|0:0,0:0:0:0:
182,176,7593,1,6,0:0:0:0:
86,84,8024,6,0,P|84:32|189:39,1,181.500005538941,4|10,1:2|0:2,0:0:0:0:
204,77,8887,2,0,P|262:109|366:50,1,181.500005538941,6|10,0:0|0:2,0:0:0:0:
387,24,9749,6,0,L|405:160,1,121.000003692627,4|0,1:2|0:0,0:0:0:0:
418,264,10612,1,0,0:0:0:0:
334,351,11043,5,6,0:0:0:0:
213,337,11475,2,0,P|159:299|204:203,1,181.500005538941,4|10,1:2|0:2,0:0:0:0:
241,190,12337,2,0,P|283:117|223:58,1,181.500005538941,6|6,0:0|0:0,0:0:0:0:
175,55,13200,6,0,L|67:52,1,90.7500027694703,12|4,1:2|1:2,0:0:0:0:
23,157,14063,2,0,L|41:238,1,60.5000018463135,10|10,0:2|0:2,0:0:0:0:
49,262,14494,1,10,0:2:0:0:
203,358,15141,6,0,P|239:319|312:328,1,121.000003692627,10|0,0:2|0:0,0:0:0:0:
344,347,15788,2,0,P|411:359|465:318,1,121.000003692627,6|0,0:0|0:0,0:0:0:0:
479,214,16651,1,6,0:0:0:0:
364,252,17082,1,6,0:0:0:0:
278,166,17514,2,0,P|266:101|307:46,1,121.000003692627,6|0,0:0|0:0,0:0:0:0:
407,17,18376,5,4,1:2:0:0:
493,102,18808,2,0,P|430:113|414:176,1,121.000003692627,0|6,0:0|0:0,0:0:0:0:
434,279,19670,1,0,0:0:0:0:
314,294,20102,2,0,L|304:170,1,121.000003692627,4|2,1:2|0:0,0:0:0:0:
225,81,20964,2,0,P|204:129|75:123,1,181.500005538941,6|10,0:0|0:2,0:0:0:0:
53,103,21827,6,0,P|51:43|122:41,1,121.000003692627,4|0,1:2|0:0,0:0:0:0:
217,61,22690,2,0,L|339:43,1,121.000003692627,6|0,0:0|0:0,0:0:0:0:
312,162,23552,1,6,0:0:0:0:
191,157,23984,1,6,0:0:0:0:
213,277,24415,2,0,P|165:331|100:315,1,121.000003692627,6|2,0:0|0:0,0:0:0:0:
10,279,25278,5,4,1:2:0:0:
81,181,25709,1,0,0:0:0:0:
22,75,26140,2,0,P|41:22|102:18,1,121.000003692627,6|0,0:0|0:0,0:0:0:0:
197,86,27003,1,4,1:2:0:0:
316,67,27435,1,2,0:0:0:0:
436,51,27866,2,0,B|425:100|425:100|428:120|428:120|417:171,2,121.000003692627,4|4|4,1:2|1:2|1:2,0:0:0:0:
313,71,29160,6,0,L|189:56,1,121.000003692627,0|6,0:0|0:0,0:0:0:0:
213,175,30023,1,2,0:0:0:0:
97,212,30454,2,0,P|68:256|101:329,1,121.000003692627,6|2,1:2|0:0,0:0:0:0:
198,363,31317,2,0,L|328:348,2,121.000003692627,4|0|4,0:0|0:0|1:2,0:0:0:0:
87,318,32611,5,2,0:0:0:0:
192,258,33042,2,0,P|211:206|185:142,1,121.000003692627,6|2,0:0|0:0,0:0:0:0:
79,95,33905,1,4,1:2:0:0:
159,4,34336,1,2,0:0:0:0:
273,42,34767,1,6,0:0:0:0:
277,162,35199,2,0,L|275:236,2,60.5000018463135,2|10|4,0:0|0:2|1:2,0:0:0:0:
377,95,36061,5,2,0:0:0:0:
469,172,36493,2,0,L|485:301,1,121.000003692627,6|2,0:0|0:0,0:0:0:0:
390,369,37355,2,0,B|328:378|328:378|270:337,1,121.000003692627,4|2,1:2|0:0,0:0:0:0:
253,303,38002,2,0,B|220:215|292:215|254:124,1,181.500005538941,10|0,0:2|0:0,0:0:0:0:
150,65,39081,5,4,1:2:0:0:
46,128,39512,1,2,0:0:0:0:
83,243,39943,2,0,L|120:363,1,121.000003692627,6|2,0:0|0:0,0:0:0:0:
219,292,40806,2,0,P|241:256|232:203,2,90.7500027694703,4|4|4,1:2|1:2|1:2,0:0:0:0:
312,369,41885,2,0,L|383:380,1,60.5000018463135,10|2,0:2|0:0,0:0:0:0:
471,308,42532,6,0,P|427:287|424:209,1,121.000003692627,4|2,1:2|0:0,0:0:0:0:
444,102,43394,2,0,P|405:127|337:96,1,121.000003692627,6|2,0:0|0:0,0:0:0:0:
265,6,44257,1,6,0:0:0:0:
158,63,44688,1,2,0:0:0:0:
211,171,45120,1,6,0:0:0:0:
104,228,45551,1,2,0:0:0:0:
161,334,45982,6,0,L|296:354,1,121.000003692627,6|2,1:2|0:0,0:0:0:0:
372,273,46845,2,0,L|252:255,2,121.000003692627,4|2|4,0:0|0:0|1:2,0:0:0:0:
481,221,48139,1,2,0:0:0:0:
461,101,48570,2,0,P|405:88|349:130,1,121.000003692627,4|4,1:2|1:2,0:0:0:0:
299,228,49433,6,0,B|271:244|234:247|234:247|188:218|128:205,2,181.500005538941,4|10|2,1:2|0:2|0:0,0:0:0:0:
335,112,51158,1,6,1:2:0:0:
246,29,51590,1,2,0:0:0:0:
132,71,52021,1,6,0:0:0:0:
120,191,52452,1,2,0:0:0:0:
218,261,52884,6,0,B|232:323|232:323|188:374,1,121.000003692627,4|0,1:2|0:0,0:0:0:0:
75,344,53747,2,0,B|61:282|61:282|105:231,1,121.000003692627,6|0,0:0|0:0,0:0:0:0:
179,148,54609,1,4,1:2:0:0:
444,293,55688,6,0,L|458:213,1,60.5000018463135,2|10,0:0|0:2,0:0:0:0:
471,113,56335,1,4,1:2:0:0:
256,192,56550,12,0,58060,0:0:0:0:
