osu file format v14

[General]
AudioFilename: audio.mp3
AudioLeadIn: 0
PreviewTime: 68814
Countdown: 0
SampleSet: Soft
StackLeniency: 0.4
Mode: 0
LetterboxInBreaks: 0
WidescreenStoryboard: 1

[Editor]
Bookmarks: 35557
DistanceSpacing: 1
BeatDivisor: 4
GridSize: 4
TimelineZoom: 2.1

[Metadata]
Title:BEYOND THE STARLIGHT
TitleUnicode:BEYOND THE STARLIGHT
Artist:Yamamoto Nozomi, Yamashita Nanami, Fuchigami Mai, Oozora Naomi, Toyama Nao
ArtistUnicode:山本希望、山下七海、渕上舞、大空直美、東山奈央
Creator:Shunao
Version:sanairrt's Insane
Source:アイドルマスター シンデレラガールズ スターライトステージ
Tags:imas im@s idolmaster shogunmoon lafayla _meep_ sanairrt mordred elcheer lit120 THE iDOLM@STER Cinderella Girls Starlight Stage 1st anniversary Rika Jougasaki Chieri Ogata Karen Hojo Mizuki Kawashima Yui Ohtsuki 城ヶ崎莉嘉 緒方智絵里 北条加蓮 川島瑞樹 大槻唯 touyama japanese pop jpop j-pop
BeatmapID:3360154
BeatmapSetID:822974

[Difficulty]
HPDrainRate:5
CircleSize:4
OverallDifficulty:8
ApproachRate:9
SliderMultiplier:1.6
SliderTickRate:1

[Events]
//Background and Video events
0,0,"2.jpg",0,0
//Break Periods
//Storyboard Layer 0 (Background)
//Storyboard Layer 1 (Fail)
//Storyboard Layer 2 (Pass)
//Storyboard Layer 3 (Foreground)
//Storyboard Layer 4 (Overlay)
//Storyboard Sound Samples

[TimingPoints]
1100,342.857142857143,4,2,12,60,1,0
1100,-125,4,2,12,60,0,0
3157,-166.666666666667,4,2,13,60,0,0
3842,-166.666666666667,4,2,12,60,0,0
6585,-125,4,2,10,60,0,0
14814,-100,4,2,10,60,0,0
17214,-166.666666666667,4,2,10,60,0,0
17557,-100,4,2,10,60,0,0
28528,-125,4,2,10,60,0,0
39500,-111.111111111111,4,2,10,60,0,0
47385,-166.666666666666,4,2,10,60,0,0
47728,-100,4,2,10,60,0,0
66757,-161.290322580645,4,2,10,60,0,0
68985,-142.857142857143,4,2,10,60,0,0
69671,-90.9090909090909,4,2,10,60,0,0
92985,-125,4,2,10,60,0,0
94357,-100,4,2,10,60,0,0
96757,-166.666666666667,4,2,10,60,0,0
97100,-100,4,2,10,60,0,0
110471,-166.666666666667,4,2,10,60,0,0
111157,-250,4,2,10,60,0,0

[Colours]
Combo1 : 255,192,0
Combo2 : 220,163,163
Combo3 : 199,24,24
Combo4 : 216,84,192

[HitObjects]
118,215,1100,6,0,P|87:208|55:201,2,64,10|2|4,0:0|0:3|0:3,0:0:0:0:
173,296,1614,2,0,P|205:256|194:164,1,128,10|4,0:0|0:3,0:0:0:0:
148,64,2128,2,0,P|136:93|125:124,2,64,10|2|4,0:0|0:3|0:3,0:0:0:0:
204,181,2642,2,0,P|268:171|360:161,1,128,10|8,0:0|0:0,0:0:0:0:
446,114,3157,6,0,B|470:94|499:72|499:72|455:199,1,191.999994140625,10|10,0:0|0:0,0:0:0:0:
256,192,3928,12,0,5900,0:0:0:0:
321,244,6585,6,0,P|163:205|243:344,1,384,6|0,3:2|0:0,0:0:0:0:
394,201,7785,2,0,P|189:94|71:296,1,512,6|0,3:2|0:0,0:0:0:0:
234,257,9328,2,0,B|323:226|428:279|345:308|460:351|509:341|509:341|454:321|434:270,1,384,6|0,3:2|0:0,0:0:0:0:
498,119,10528,6,0,P|413:112|409:218,1,192,6|0,3:2|0:0,0:0:0:0:
509,341,11214,2,0,P|425:327|359:316,1,128,6|0,3:2|3:2,0:0:0:0:
205,337,11728,2,0,P|240:291|219:239,1,96,10|0,0:0|0:0,0:0:0:0:
162,203,12071,6,0,P|104:210|94:67,1,224,6|0,3:2|0:0,0:0:0:0:
136,22,12757,2,0,P|193:30|384:60,1,224,6|0,3:2|0:0,0:0:0:0:
429,1,13442,2,0,B|464:42|455:110|419:87|408:163|461:224,1,224,6|0,3:2|0:0,0:0:0:0:
474,299,14128,2,0,P|416:226|300:275,1,224,6|0,3:2|0:0,0:0:0:0:
248,332,14814,6,0,P|189:317|151:311,1,80,14|10,3:2|0:0,0:0:0:0:
69,206,15157,2,0,P|108:198|146:187,1,80,10|10,0:0|0:0,0:0:0:0:
270,130,15500,1,10,0:0:0:0:
173,280,15671,1,10,0:0:0:0:
85,103,15842,1,10,0:0:0:0:
178,176,16014,1,10,0:0:0:0:
178,176,17042,5,0,3:2:0:0:
283,77,17214,2,0,P|255:75|275:96,1,71.9999978027344,10|0,0:0|0:0,0:0:0:0:
339,23,17557,6,0,P|329:61|319:100,1,80,6|2,3:2|0:0,0:0:0:0:
416,267,17900,1,2,3:2:0:0:
490,193,18071,2,0,P|444:165|400:166,1,80,10|0,0:0|3:2,0:0:0:0:
385,338,18414,2,0,P|413:292|412:248,1,80,2|8,0:0|0:0,0:0:0:0:
278,191,18757,6,0,P|198:203|120:216,1,160,2|10,0:0|0:0,0:0:0:0:
61,299,19271,1,0,3:2:0:0:
0,137,19442,1,2,0:0:0:0:
120,216,19614,1,8,0:0:0:0:
209,82,19785,1,2,0:0:0:0:
209,82,19957,2,0,P|171:74|107:63,1,80,2|10,3:2|0:0,0:0:0:0:
291,147,20300,6,0,P|311:111|304:46,1,80,2|2,3:2|0:0,0:0:0:0:
174,208,20642,1,2,3:2:0:0:
266,297,20814,2,0,P|315:286|363:278,1,80,10|0,0:0|3:2,0:0:0:0:
174,208,21157,2,0,P|134:215|95:224,1,80,2|8,0:0|0:0,0:0:0:0:
291,147,21500,6,0,P|328:83|289:1,1,160,2|2,0:0|0:0,0:0:0:0:
133,0,22014,1,0,3:2:0:0:
243,73,22185,1,2,0:0:0:0:
96,190,22357,1,8,0:0:0:0:
26,74,22528,1,2,0:0:0:0:
159,114,22700,2,0,P|141:176|129:217,1,80,2|10,3:2|0:0,0:0:0:0:
56,349,23042,5,6,3:2:0:0:
221,279,23214,1,2,0:0:0:0:
96,190,23385,1,2,3:2:0:0:
163,384,23557,2,0,P|210:376|267:367,1,80,10|0,0:0|3:2,0:0:0:0:
372,225,23900,2,0,P|325:217|268:208,1,80,2|8,0:0|0:0,0:0:0:0:
423,309,24242,6,0,P|464:244|445:169,1,160,2|10,0:0|0:0,0:0:0:0:
366,70,24757,1,0,3:2:0:0:
293,211,24928,1,2,0:0:0:0:
445,169,25100,1,8,0:0:0:0:
263,100,25271,1,2,0:0:0:0:
418,0,25442,2,0,P|405:38|394:76,1,80,10|2,0:0|0:0,0:0:0:0:
293,211,25785,5,10,0:0:0:0:
445,169,25957,1,10,0:0:0:0:
284,225,26300,5,10,0:0:0:0:
436,183,26472,1,10,0:0:0:0:
275,239,26814,5,10,0:0:0:0:
427,197,26986,1,10,0:0:0:0:
266,253,27328,5,10,0:0:0:0:
418,211,27500,1,10,0:0:0:0:
418,211,28014,5,0,3:2:0:0:
316,115,28185,2,0,P|278:82|210:97,1,120,8|0,0:0|0:0,0:0:0:0:
184,115,28528,6,0,P|171:177|159:240,1,128,6|0,3:2|3:2,0:0:0:0:
82,289,29042,2,0,P|111:319|211:311,1,128,2|2,0:0|0:0,0:0:0:0:
283,260,29557,1,2,3:2:0:0:
176,157,29728,6,0,P|145:165|113:172,1,64,2|0,0:0|3:2,0:0:0:0:
283,260,30071,2,0,P|291:229|298:197,1,64,2|0,0:0|3:2,0:0:0:0:
145,285,30414,2,0,P|152:316|160:347,1,64,2|0,0:0|3:2,0:0:0:0:
283,260,30757,2,0,P|340:225|407:254,1,128,2|2,0:0|0:0,0:0:0:0:
491,382,31271,6,0,P|502:318|516:238,1,128,2|2,3:2|3:2,0:0:0:0:
387,223,31785,2,0,P|342:267|280:258,1,128,2|2,0:0|0:0,0:0:0:0:
191,192,32300,1,0,3:2:0:0:
300,70,32471,6,0,B|341:105|341:105|302:198,1,128,2|0,0:0|0:0,0:0:0:0:
282,259,32985,1,2,3:2:0:0:
191,192,33157,1,2,0:0:0:0:
127,296,33328,2,0,P|79:283|38:273,1,64,0|10,0:0|0:0,0:0:0:0:
38,270,33585,1,8,0:0:0:0:
38,270,33671,1,2,3:2:0:0:
191,192,33842,1,14,0:0:0:0:
0,115,34014,6,0,P|63:104|126:94,1,128,2|0,3:2|3:2,0:0:0:0:
257,47,34528,2,0,P|233:126|214:199,1,128,2|2,0:0|0:0,0:0:0:0:
134,265,35042,1,2,3:2:0:0:
232,355,35214,6,0,P|281:343|324:335,1,64,2|0,0:0|3:2,0:0:0:0:
134,265,35557,2,0,P|103:257|71:250,1,64,2|0,0:0|3:2,0:0:0:0:
221,169,35900,1,2,0:0:0:0:
221,169,35985,1,2,0:0:0:0:
221,169,36071,1,0,3:2:0:0:
269,249,36242,2,0,P|310:194|296:122,1,128,2|0,0:0|0:0,0:0:0:0:
182,34,36757,6,0,P|124:48|46:71,1,128,2|2,3:2|3:2,0:0:0:0:
182,195,37271,2,0,P|197:161|188:120,1,64,2|0,0:0|3:2,0:0:0:0:
57,187,37614,2,0,P|63:214|73:259,1,64,2|0,0:0|3:2,0:0:0:0:
166,332,37957,6,0,P|226:321|291:311,1,128,2|10,0:0|0:0,0:0:0:0:
398,384,38471,1,4,0:3:0:0:
495,265,38642,1,2,3:2:0:0:
495,265,38985,2,0,P|483:212|462:126,1,128,2|0,3:2|0:0,0:0:0:0:
311,216,39500,6,0,P|345:237|393:233,1,71.9999978027344,6|0,3:2|0:0,0:0:0:0:
465,140,39842,1,8,0:0:0:0:
316,45,40014,1,2,0:0:0:0:
405,17,40185,2,0,P|386:89|367:163,1,143.999995605469,2|10,3:2|0:0,0:0:0:0:
270,263,40700,6,0,P|262:221|255:178,1,71.9999978027344,2|0,0:0|3:2,0:0:0:0:
138,103,41042,2,0,P|131:138|125:173,1,71.9999978027344,2|8,0:0|0:0,0:0:0:0:
312,131,41385,2,0,P|270:110|227:119,1,71.9999978027344,2|0,0:0|3:2,0:0:0:0:
99,260,41728,1,2,0:0:0:0:
99,260,41900,2,0,P|145:249|176:245,1,71.9999978027344,8|2,0:0|0:0,0:0:0:0:
285,364,42242,5,2,3:2:0:0:
285,364,42414,2,0,P|297:297|313:215,1,143.999995605469,0|2,0:0|0:0,0:0:0:0:
398,183,42928,2,0,P|350:131|265:140,1,143.999995605469,0|8,0:0|0:0,0:0:0:0:
169,245,43442,6,0,P|119:231|24:208,1,143.999995605469,2|2,0:0|0:0,0:0:0:0:
1,121,43957,1,8,0:0:0:0:
168,54,44128,1,2,0:0:0:0:
168,54,44214,1,2,0:0:0:0:
168,54,44300,1,0,3:2:0:0:
86,191,44471,1,2,0:0:0:0:
75,21,44642,2,0,P|131:59|182:45,1,107.999996704102,10|2,0:0|0:0,0:0:0:0:
192,32,44985,6,0,P|254:43|341:62,1,143.999995605469,6|8,3:2|0:0,0:0:0:0:
399,130,45500,1,2,0:0:0:0:
264,199,45671,1,2,3:2:0:0:
333,60,45842,1,2,0:0:0:0:
447,212,46014,1,8,0:0:0:0:
324,279,46185,6,0,P|298:246|194:252,1,143.999995605469,2|2,0:0|0:0,0:0:0:0:
51,314,46700,1,8,0:0:0:0:
134,384,46871,2,0,P|144:323|159:233,1,143.999995605469,2|8,0:0|0:3,0:0:0:0:
63,100,47385,2,0,P|40:119|54:118,1,71.9999978027344,8|0,0:0|0:0,0:0:0:0:
98,175,47728,6,0,L|159:161,5,40,14|8|8|8|8|8,3:2|0:0|0:0|0:0|0:0|0:0,0:0:0:0:
188,97,48242,2,0,L|249:111,5,40,14|8|8|8|8|8,3:2|0:0|0:0|0:0|0:0|0:0,0:0:0:0:
278,175,48757,2,0,L|339:161,5,40,14|8|8|8|8|8,3:2|0:0|0:0|0:0|0:0|0:0,0:0:0:0:
372,85,49271,2,0,P|414:149|392:224,1,160,14|8,3:2|0:0,0:0:0:0:
369,250,49700,1,8,0:0:0:0:
369,250,49785,5,2,3:2:0:0:
278,175,49957,1,0,3:2:0:0:
170,299,50128,2,0,P|118:285|22:266,1,120,10|0,0:0|0:0,0:0:0:0:
24,265,50471,5,10,0:0:0:0:
94,115,50642,1,10,0:0:0:0:
107,101,50985,5,10,0:0:0:0:
177,251,51156,1,10,0:0:0:0:
190,237,51500,5,10,0:0:0:0:
260,87,51671,1,10,0:0:0:0:
273,73,52014,5,10,0:0:0:0:
343,223,52185,1,10,0:0:0:0:
363,207,52528,6,0,P|376:159|389:112,1,80,8|0,0:3|3:2,0:0:0:0:
260,87,52871,2,0,P|201:121|142:95,1,120,10|0,0:0|0:0,0:0:0:0:
121,84,53214,6,0,P|104:159|84:239,1,160,6|2,3:2|3:2,0:0:0:0:
171,301,53728,1,2,0:0:0:0:
20,368,53900,1,8,0:0:0:0:
84,239,54071,2,0,P|136:249|193:261,1,80,2|0,0:0|3:2,0:0:0:0:
311,359,54414,6,0,P|286:328|294:268,1,80,10|0,0:0|3:2,0:0:0:0:
400,134,54757,2,0,P|385:171|329:194,1,80,10|0,0:0|3:2,0:0:0:0:
160,169,55100,2,0,P|199:162|247:199,1,80,2|8,0:0|0:0,0:0:0:0:
377,292,55442,2,0,P|387:210|402:120,1,160,6|0,3:2|0:0,0:0:0:0:
344,28,55957,5,10,0:0:0:0:
502,97,56128,1,10,0:0:0:0:
486,114,56471,5,10,0:0:0:0:
328,183,56642,1,10,0:0:0:0:
312,200,56985,5,10,0:0:0:0:
470,269,57156,1,10,0:0:0:0:
486,286,57500,5,10,0:0:0:0:
328,355,57671,1,10,0:0:0:0:
307,366,58014,6,0,P|317:318|327:269,1,80,8|0,0:3|3:2,0:0:0:0:
349,155,58357,2,0,P|303:119|236:138,1,120,10|0,0:0|0:0,0:0:0:0:
236,162,58700,6,0,B|171:171|171:171|144:198|144:198|82:211,1,160,6|2,3:2|3:2,0:0:0:0:
20,145,59214,1,2,0:0:0:0:
141,57,59385,1,8,0:0:0:0:
88,209,59557,2,0,P|72:156|60:115,1,80,2|0,0:0|3:2,0:0:0:0:
236,162,59900,1,10,0:0:0:0:
236,162,59985,1,2,0:0:0:0:
236,162,60071,1,0,3:2:0:0:
72,307,60242,6,0,P|122:292|161:283,1,80,10|0,0:0|3:2,0:0:0:0:
313,183,60585,2,0,P|274:173|235:161,1,80,2|8,3:2|0:0,0:0:0:0:
356,275,60928,2,0,P|405:222|384:124,1,160,6|0,3:2|0:0,0:0:0:0:
290,11,61442,6,0,P|268:68|230:178,1,160,6|10,3:2|0:0,0:0:0:0:
135,193,61957,1,10,0:0:0:0:
256,322,62128,1,8,0:0:0:0:
235,161,62300,1,8,0:0:0:0:
72,307,62471,2,0,P|122:292|161:283,1,80,8|8,0:0|0:0,0:0:0:0:
356,275,62814,5,8,0:0:0:0:
235,161,62985,1,8,0:0:0:0:
295,346,63157,2,0,P|306:291|317:248,1,80,10|8,0:0|0:0,0:0:0:0:
449,212,63500,2,0,P|407:174|375:143,1,80,10|8,0:0|0:0,0:0:0:0:
409,11,63842,2,0,P|356:28|313:40,1,80,10|8,0:0|0:0,0:0:0:0:
135,106,64185,6,0,P|209:94|259:184,1,160,14|2,0:0|3:2,0:0:0:0:
449,212,64700,2,0,P|375:200|325:290,1,160,8|0,0:3|3:2,0:0:0:0:
180,346,65214,6,0,P|162:286|134:191,1,160,12|0,0:0|3:2,0:0:0:0:
318,83,65728,2,0,P|295:159|272:236,1,160,4|0,0:3|3:2,0:0:0:0:
74,139,66242,6,0,P|127:111|177:124,1,80,4|2,0:3|3:2,0:0:0:0:
272,236,66585,1,10,0:0:0:0:
318,83,66757,6,0,B|255:65|191:99|231:125|166:151|104:136|104:136|46:95|65:16|138:-4|175:52|145:95|106:76,1,446.39998229004,6|0,3:2|0:0,0:0:0:0:
111,78,68985,5,4,0:3:0:0:
111,78,69071,1,8,0:0:0:0:
111,78,69157,2,0,L|100:127,1,27.9999991455078,10|8,0:0|0:0,0:0:0:0:
12,207,69328,2,0,L|5:179,2,27.9999991455078,10|8|8,0:0|0:0|0:0,0:0:0:0:
113,283,69671,6,0,P|175:268|288:245,2,176.000005371094,6|8|2,3:2|0:0|3:2,0:0:0:0:
12,207,70528,2,0,P|0:160|18:118,1,88.000002685547,2|8,0:0|0:0,0:0:0:0:
97,26,70871,1,2,0:0:0:0:
188,133,71042,6,0,P|265:178|346:141,1,176.000005371094,0|8,0:0|0:0,0:0:0:0:
428,52,71557,1,0,0:0:0:0:
257,0,71728,2,0,P|265:40|272:93,1,88.000002685547,2|2,3:2|0:0,0:0:0:0:
426,175,72071,2,0,P|431:131|440:88,1,88.000002685547,10|2,0:0|0:0,0:0:0:0:
465,334,72414,6,0,P|393:279|301:293,1,176.000005371094,2|8,3:2|0:0,0:0:0:0:
165,347,72928,1,2,0:0:0:0:
269,197,73100,1,2,3:2:0:0:
106,132,73271,2,0,P|121:208|128:246,1,88.000002685547,2|8,0:0|0:0,0:0:0:0:
312,286,73614,6,0,P|359:227|316:115,1,176.000005371094,2|2,0:0|0:0,0:0:0:0:
195,51,74128,1,10,0:0:0:0:
269,197,74300,1,2,0:0:0:0:
406,66,74471,2,0,P|352:49|300:33,1,88.000002685547,0|0,0:0|0:0,0:0:0:0:
151,202,74814,2,0,P|205:185|257:169,1,88.000002685547,10|2,0:0|0:0,0:0:0:0:
269,197,75071,1,2,0:0:0:0:
269,197,75157,5,6,3:2:0:0:
269,197,75500,2,0,P|312:227|336:282,1,88.000002685547,10|0,0:0|0:0,0:0:0:0:
197,80,75842,2,0,P|244:57|304:64,1,88.000002685547,2|0,3:2|0:0,0:0:0:0:
59,83,76185,2,0,P|63:30|99:-17,1,88.000002685547,10|0,0:0|0:0,0:0:0:0:
171,216,76528,6,0,P|85:195|-8:175,2,176.000005371094,2|10|2,3:2|0:0|3:2,0:0:0:0:
274,95,77385,1,0,0:0:0:0:
124,17,77557,2,0,P|138:82|146:125,1,88.000002685547,10|0,0:0|0:0,0:0:0:0:
335,198,77900,5,0,3:2:0:0:
274,95,78071,1,0,3:2:0:0:
306,280,78242,2,0,P|357:283|414:235,1,88.000002685547,14|0,0:0|0:0,0:0:0:0:
274,95,78585,5,0,3:2:0:0:
335,198,78756,1,0,3:2:0:0:
303,13,78928,2,0,P|252:10|195:58,1,88.000002685547,14|0,0:0|0:0,0:0:0:0:
213,198,79271,5,0,3:2:0:0:
274,95,79442,1,0,3:2:0:0:
129,219,79613,2,0,P|148:258|184:282,1,88.000002685547,14|0,0:0|3:2,0:0:0:0:
386,118,79957,6,0,P|343:108|299:99,1,88.000002685547,6|10,3:2|0:0,0:0:0:0:
274,95,80214,1,8,0:0:0:0:
274,95,80300,2,0,L|254:159,2,44.0000013427735,10|8|4,0:0|0:0|0:3,0:0:0:0:
91,286,80642,6,0,P|157:207|221:222,2,176.000005371094,6|8|2,3:2|0:0|3:2,0:0:0:0:
170,375,81500,2,0,P|183:330|170:287,1,88.000002685547,2|8,0:0|0:0,0:0:0:0:
90,148,81842,1,2,0:0:0:0:
21,237,82014,6,0,P|109:222|217:207,1,176.000005371094,0|8,0:0|0:0,0:0:0:0:
262,128,82528,1,0,0:0:0:0:
328,259,82700,1,2,3:2:0:0:
194,209,82871,1,2,0:0:0:0:
324,63,83042,2,0,P|306:123|291:178,1,88.000002685547,10|2,0:0|0:0,0:0:0:0:
283,352,83385,6,0,P|334:286|416:302,1,176.000005371094,6|8,3:2|0:0,0:0:0:0:
512,183,83900,2,0,P|441:167|324:144,1,176.000005371094,6|8,3:2|0:0,0:0:0:0:
232,3,84414,2,0,B|283:23|286:77|286:77|253:102|252:152,1,176.000005371094,6|0,3:2|0:0,0:0:0:0:
164,241,84928,5,2,3:2:0:0:
71,108,85100,1,8,0:0:0:0:
49,306,85271,2,0,P|133:280|219:262,1,176.000005371094,6|2,3:2|3:2,0:0:0:0:
361,360,85785,2,0,P|369:316|380:274,1,88.000002685547,10|2,0:0|0:0,0:0:0:0:
339,146,86128,5,4,3:2:0:0:
463,224,86300,1,2,0:0:0:0:
298,278,86471,1,2,3:2:0:0:
430,141,86642,1,2,0:0:0:0:
275,60,86814,2,0,P|263:103|244:177,1,88.000002685547,8|2,0:0|0:0,0:0:0:0:
298,278,87157,1,2,3:2:0:0:
175,330,87328,1,10,0:0:0:0:
175,330,87414,1,8,0:0:0:0:
175,330,87500,6,0,P|101:306|58:294,1,88.000002685547,0|10,3:2|0:0,0:0:0:0:
24,226,87842,1,2,3:2:0:0:
155,142,88014,1,2,0:0:0:0:
91,303,88185,1,8,0:0:0:0:
69,120,88357,1,2,0:0:0:0:
69,120,88528,2,0,P|138:137|180:149,1,88.000002685547,2|10,3:2|0:0,0:0:0:0:
211,250,88871,6,0,P|277:234|390:209,1,176.000005371094,4|2,3:2|3:2,0:0:0:0:
426,125,89385,1,2,0:0:0:0:
268,83,89557,1,8,0:0:0:0:
382,210,89728,1,2,0:0:0:0:
467,26,89900,2,0,P|422:35|370:47,1,88.000002685547,2|10,3:2|0:0,0:0:0:0:
355,72,90157,1,2,0:0:0:0:
355,72,90242,5,0,3:2:0:0:
197,13,90414,1,10,0:0:0:0:
271,175,90585,1,2,3:2:0:0:
96,121,90757,2,0,P|174:103|268:82,1,176.000005371094,2|2,0:0|0:0,0:0:0:0:
382,210,91271,1,2,3:2:0:0:
288,310,91442,1,10,0:0:0:0:
288,310,91528,1,0,0:0:0:0:
288,310,91614,6,0,P|241:254|144:277,1,176.000005371094,6|2,3:2|3:2,0:0:0:0:
75,350,92128,1,8,0:0:0:0:
75,350,92214,1,8,0:0:0:0:
75,350,92300,1,10,0:0:0:0:
1,249,92471,1,8,0:3:0:0:
169,165,92642,1,4,0:3:0:0:
103,255,92814,1,4,0:3:0:0:
94,112,92985,6,0,P|156:73|258:141,1,192,6|0,3:2|0:0,0:0:0:0:
413,216,93671,2,0,B|309:191|333:263|222:243,1,192,6|0,3:2|0:0,0:0:0:0:
96,365,94357,6,0,P|119:313|96:246,1,120,6|0,3:2|0:0,0:0:0:0:
73,227,94700,2,0,P|85:171|98:121,1,80,10|10,0:0|0:0,0:0:0:0:
156,37,95042,1,10,0:0:0:0:
9,124,95214,1,10,0:0:0:0:
202,183,95385,1,10,0:0:0:0:
65,53,95557,1,10,0:0:0:0:
65,53,96585,5,0,3:2:0:0:
181,146,96757,2,0,P|206:131|175:135,1,71.9999978027344,10|0,0:0|0:0,0:0:0:0:
90,148,97100,6,0,P|98:187|105:226,1,80,6|2,3:2|0:0,0:0:0:0:
115,256,97357,1,2,0:0:0:0:
115,256,97442,1,2,3:2:0:0:
236,337,97614,2,0,P|274:326|313:316,1,80,10|0,0:0|3:2,0:0:0:0:
390,198,97957,2,0,P|351:188|312:177,1,80,2|8,0:0|0:0,0:0:0:0:
148,99,98300,6,0,P|131:177|114:255,1,160,2|10,0:0|0:0,0:0:0:0:
128,371,98814,1,0,3:2:0:0:
303,294,98985,2,0,P|257:261|207:267,1,80,2|8,0:0|0:0,0:0:0:0:
128,371,99328,1,2,0:0:0:0:
96,230,99500,1,2,3:2:0:0:
235,344,99671,1,2,0:0:0:0:
46,322,99842,6,0,P|62:267|75:221,1,80,2|2,3:2|0:0,0:0:0:0:
154,136,100185,1,2,3:2:0:0:
0,95,100357,2,0,P|51:81|100:69,1,80,10|0,0:0|3:2,0:0:0:0:
173,250,100700,2,0,P|122:236|73:224,1,80,2|8,0:0|0:0,0:0:0:0:
243,121,101042,6,0,P|313:75|392:113,1,160,2|10,0:0|0:0,0:0:0:0:
470,205,101557,1,0,3:2:0:0:
321,169,101728,1,2,0:0:0:0:
460,73,101900,1,8,0:0:0:0:
339,246,102071,1,2,0:0:0:0:
339,246,102242,2,0,P|328:199|320:165,1,80,2|10,3:2|0:0,0:0:0:0:
241,56,102585,5,6,3:2:0:0:
395,133,102757,1,2,0:0:0:0:
217,193,102928,1,2,3:2:0:0:
335,28,103100,2,0,P|325:66|315:105,1,80,10|0,0:0|3:2,0:0:0:0:
236,270,103442,2,0,P|226:231|216:192,1,80,2|8,0:0|0:0,0:0:0:0:
27,72,103785,6,0,P|90:131|173:98,1,160,2|10,0:0|0:0,0:0:0:0:
257,3,104300,1,0,3:2:0:0:
106,54,104471,1,2,0:0:0:0:
276,137,104642,1,8,0:0:0:0:
170,0,104814,1,2,0:0:0:0:
78,164,104985,2,0,P|142:146|183:135,1,80,10|2,0:0|0:0,0:0:0:0:
335,72,105328,5,10,0:0:0:0:
269,222,105500,1,10,0:0:0:0:
343,89,105842,5,10,0:0:0:0:
277,239,106014,1,10,0:0:0:0:
351,106,106357,5,10,0:0:0:0:
285,256,106529,1,10,0:0:0:0:
359,123,106871,5,10,0:0:0:0:
293,273,107043,1,10,0:0:0:0:
375,335,107214,5,8,0:0:0:0:
386,330,107299,1,8,0:0:0:0:
397,326,107385,1,8,0:0:0:0:
277,239,107557,1,8,0:3:0:0:
196,378,107728,1,4,0:3:0:0:
288,330,107900,1,0,3:2:0:0:
122,212,108071,5,14,0:0:0:0:
196,378,108242,1,10,0:0:0:0:
251,117,108585,5,10,0:0:0:0:
177,283,108756,1,10,0:0:0:0:
323,160,109100,5,10,0:0:0:0:
397,326,109271,1,10,0:0:0:0:
452,69,109614,5,10,0:0:0:0:
378,235,109785,1,10,0:0:0:0:
323,160,109957,5,0,3:2:0:0:
311,163,110042,1,0,3:2:0:0:
299,166,110128,1,8,0:3:0:0:
189,59,110300,1,0,3:2:0:0:
135,164,110471,2,0,P|102:152|136:148,1,95.9999970703126,8|0,0:0|0:0,0:0:0:0:
81,190,111157,6,0,B|85:167|79:136|52:104|30:155|-7:39|54:-39|153:-33|187:52|187:52|285:7|328:94|344:153|249:232|164:167|120:278|191:348|191:348|266:349|405:366|396:175|235:200|223:326|300:393|416:391|442:340,1,1216,6|0,3:2|0:0,0:0:0:0:
