osu file format v14

[General]
AudioFilename: audio.mp3
AudioLeadIn: 0
PreviewTime: 68814
Countdown: 0
SampleSet: Soft
StackLeniency: 0.4
Mode: 0
LetterboxInBreaks: 0
WidescreenStoryboard: 0

[Editor]
Bookmarks: 1100,6585,17557,28528,39500,50471,61442,69671,86128,97100,111157,117671
DistanceSpacing: 1
BeatDivisor: 4
GridSize: 4
TimelineZoom: 2.8

[Metadata]
Title:BEYOND THE STARLIGHT
TitleUnicode:BEYOND THE STARLIGHT
Artist:Yamamoto Nozomi, Yamashita Nanami, Fuchigami Mai, Oozora Naomi, Toyama Nao
ArtistUnicode:山本希望、山下七海、渕上舞、大空直美、東山奈央
Creator:Shunao
Version:lit120's Extra
Source:アイドルマスター シンデレラガールズ スターライトステージ
Tags:imas im@s idolmaster shogunmoon lafayla _meep_ sanairrt mordred elcheer lit120 THE iDOLM@STER Cinderella Girls Starlight Stage 1st anniversary Rika Jougasaki Chieri Ogata Karen Hojo Mizuki Kawashima Yui Ohtsuki 城ヶ崎莉嘉 緒方智絵里 北条加蓮 川島瑞樹 大槻唯 touyama japanese pop jpop j-pop
BeatmapID:1724733
BeatmapSetID:822974

[Difficulty]
HPDrainRate:6
CircleSize:4.5
OverallDifficulty:9
ApproachRate:9.2
SliderMultiplier:1.8
SliderTickRate:1

[Events]
//Background and Video events
0,0,"2.jpg",0,0
//Break Periods
//Storyboard Layer 0 (Background)
//Storyboard Layer 1 (Fail)
//Storyboard Layer 2 (Pass)
//Storyboard Layer 3 (Foreground)
//Storyboard Layer 4 (Overlay)
//Storyboard Sound Samples

[TimingPoints]
1100,342.857142857143,4,2,12,60,1,0
1100,-133.333333333333,4,2,12,60,0,0
3157,-133.333333333333,4,2,13,60,0,0
3842,-166.666666666667,4,2,12,60,0,0
6585,-133.333333333333,4,2,10,60,0,0
7700,-133.333333333333,4,2,10,5,0,0
7785,-133.333333333333,4,2,10,60,0,0
9242,-133.333333333333,4,2,10,5,0,0
9328,-133.333333333333,4,2,10,60,0,0
10442,-133.333333333333,4,2,10,5,0,0
10528,-133.333333333333,4,2,10,60,0,0
11128,-133.333333333333,4,2,10,5,0,0
11214,-133.333333333333,4,2,10,60,0,0
12671,-133.333333333333,4,2,10,5,0,0
12757,-111.111111111111,4,2,10,60,0,0
13357,-133.333333333333,4,2,10,5,0,0
13442,-95.2380952380952,4,2,10,60,0,0
14042,-133.333333333333,4,2,10,5,0,0
14128,-83.3333333333333,4,2,10,60,0,0
14728,-133.333333333333,4,2,10,5,0,0
14814,-133.333333333333,4,2,10,60,0,0
17214,-66.6666666666667,4,2,10,60,0,0
17471,-133.333333333333,4,2,10,5,0,0
17557,-100,4,2,10,60,0,0
28185,-66.6666666666667,4,2,10,60,0,0
28442,-100,4,2,10,5,0,0
28528,-133.333333333333,4,2,10,60,0,0
38985,-83.3333333333333,4,2,10,60,0,0
39414,-133.333333333333,4,2,10,5,0,0
39500,-100,4,2,10,60,0,0
69585,-100,4,2,10,5,0,0
69671,-86.9565217391304,4,2,10,80,0,1
77900,-71.4285714285714,4,2,10,80,0,1
79957,-86.9565217391304,4,2,10,80,0,1
80042,-86.9565217391304,4,2,10,5,0,1
80128,-86.9565217391304,4,2,10,80,0,1
80557,-86.9565217391304,4,2,10,5,0,1
80642,-86.9565217391304,4,2,10,80,0,1
86128,-86.9565217391304,4,2,10,60,0,0
93585,-86.9565217391304,4,2,10,5,0,0
93671,-76.9230769230769,4,2,10,60,0,0
94271,-86.9565217391304,4,2,10,5,0,0
94357,-86.9565217391304,4,2,10,60,0,0
96757,-66.6666666666667,4,2,10,60,0,0
97014,-86.9565217391304,4,2,10,5,0,0
97100,-100,4,2,10,60,0,0
111157,-285.714285714286,4,2,10,60,0,0
114928,-285.714285714286,4,2,10,50,0,0
115614,-285.714285714286,4,2,10,40,0,0
116300,-285.714285714286,4,2,10,30,0,0
116642,-285.714285714286,4,2,10,25,0,0
116985,-285.714285714286,4,2,10,20,0,0
117328,-285.714285714286,4,2,10,10,0,0
117671,-285.714285714286,4,2,10,5,0,0

[Colours]
Combo1 : 255,192,0
Combo2 : 220,163,163
Combo3 : 199,24,24
Combo4 : 216,84,192

[HitObjects]
81,140,1100,6,0,P|113:129|147:126,1,67.5000025749208,10|2,0:0|0:3,0:0:0:0:
212,183,1442,1,4,0:3:0:0:
292,296,1614,6,0,P|260:286|231:270,1,67.5000025749208,10|2,0:0|0:3,0:0:0:0:
212,183,1957,1,4,0:3:0:0:
213,46,2128,6,0,P|234:72|247:103,1,67.5000025749208,10|2,0:0|0:3,0:0:0:0:
212,183,2471,1,4,0:3:0:0:
129,294,2642,6,0,P|128:260|135:227,1,67.5000025749208,10|4,0:0|0:3,0:0:0:0:
212,183,2985,1,8,0:0:0:0:
344,143,3157,5,10,0:0:0:0:
344,143,3842,6,0,B|320:169|329:207|329:207|290:202|267:227|267:227|284:258|323:261|323:261|307:297|324:327|324:327|358:319|373:283|373:283|402:310|436:303|436:303|440:268|410:243|410:243|444:223|448:189|448:189|417:175|383:195|383:195|375:157|344:143,1,647.99998022461,10|0,0:0|0:0,0:0:0:0:
372,166,6585,6,0,B|339:138|327:103|327:103|332:201|217:251|138:175|126:107|172:51|238:70|246:108,1,438.750016736985,6|0,3:2|0:0,0:0:0:0:
263,262,7785,2,0,B|200:268|126:236|103:160|103:160|24:165|-24:231|-4:339|67:379|67:379|42:342|46:299,1,573.750021886826,6|0,3:2|0:0,0:0:0:0:
139,322,9328,6,0,B|208:354|307:354|307:354|363:317|357:236|357:236|372:323|456:336,1,438.750016736985,6|0,3:2|0:0,0:0:0:0:
464,228,10528,2,0,B|536:190|553:125|509:73|456:74|426:111|450:161,1,236.250009012223,6|0,3:2|0:0,0:0:0:0:
436,331,11214,1,6,3:2:0:0:
436,331,11557,5,0,3:2:0:0:
124,162,11728,1,10,0:0:0:0:
124,162,12071,6,0,B|67:183|64:254|64:254|128:284|174:245,1,236.250009012223,6|0,3:2|0:0,0:0:0:0:
208,112,12757,6,0,B|199:48|103:32|103:32|72:124|124:162,1,283.499991348267,6|0,3:2|0:0,0:0:0:0:
258,195,13442,6,0,B|346:172|359:79|359:79|270:45|208:112,1,330.749989906311,6|0,3:2|0:0,0:0:0:0:
174,246,14128,6,0,B|169:345|298:358|298:358|348:238|258:196,1,377.999988464356,6|0,3:2|0:0,0:0:0:0:
124,162,14814,5,14,3:2:0:0:
91,297,14985,1,10,0:0:0:0:
208,112,15157,1,10,0:0:0:0:
299,358,15328,1,10,0:0:0:0:
17,204,15500,5,10,0:0:0:0:
335,158,15671,1,10,0:0:0:0:
102,382,15842,1,10,0:0:0:0:
159,65,16014,1,10,0:0:0:0:
159,65,17042,5,0,3:2:0:0:
404,272,17214,2,2,P|346:214|335:296,1,202.500007724762,10|0,0:0|0:0,0:1:0:0:
466,190,17557,5,6,3:2:0:0:
237,268,17728,1,2,0:0:0:0:
391,344,17900,1,2,3:2:0:0:
311,114,18071,2,0,P|269:102|225:111,1,90,10|0,0:0|3:2,0:0:0:0:
28,224,18414,2,0,P|70:236|114:227,1,90,2|8,0:0|0:0,0:0:0:0:
114,27,18757,6,0,P|101:69|110:113,1,90,2|0,0:0|3:2,0:0:0:0:
225,311,19100,2,0,P|237:268|228:224,1,90,10|0,0:0|3:2,0:0:0:0:
315,28,19442,2,0,P|302:71|312:115,1,90,2|8,0:0|0:0,0:0:0:0:
438,288,19785,1,2,0:0:0:0:
225,311,19957,1,2,3:2:0:0:
324,238,20128,1,10,0:0:0:0:
110,113,20300,5,2,3:2:0:0:
228,224,20471,1,2,0:0:0:0:
266,68,20642,1,2,3:2:0:0:
72,270,20814,2,0,P|76:314|96:354,1,90,10|0,0:0|3:2,0:0:0:0:
151,109,21157,2,0,P|121:74|82:54,1,90,2|8,0:0|0:0,0:0:0:0:
182,285,21500,6,0,P|225:295|269:289,1,90,2|0,0:0|3:2,0:0:0:0:
276,111,21842,2,0,P|245:143|229:185,1,90,2|0,0:0|3:2,0:0:0:0:
379,279,22185,2,0,P|366:236|338:200,1,90,2|8,0:0|0:0,0:0:0:0:
151,109,22528,1,2,0:0:0:0:
270,289,22700,1,2,3:2:0:0:
271,38,22871,1,10,0:0:0:0:
54,162,23042,5,6,3:2:0:0:
338,200,23214,1,2,0:0:0:0:
176,323,23385,1,2,3:2:0:0:
216,39,23557,2,0,L|203:128,1,90,10|0,0:0|3:2,0:0:0:0:
176,323,23900,2,0,L|188:233,1,90,2|8,0:0|0:0,0:0:0:0:
339,201,24242,6,0,L|249:188,1,90,2|0,0:0|3:2,0:0:0:0:
54,162,24585,2,0,L|143:174,1,90,10|0,0:0|3:2,0:0:0:0:
428,213,24928,2,0,L|339:201,1,90,2|8,0:0|0:0,0:0:0:0:
143,174,25271,1,2,0:0:0:0:
409,65,25442,1,10,0:0:0:0:
371,350,25614,1,2,0:0:0:0:
244,42,25785,5,10,0:0:0:0:
206,327,25957,1,10,0:0:0:0:
206,327,26300,5,10,0:0:0:0:
405,119,26471,1,10,0:0:0:0:
405,119,26814,5,10,0:0:0:0:
121,171,26985,1,10,0:0:0:0:
121,171,27328,5,10,0:0:0:0:
381,295,27499,1,10,0:0:0:0:
381,295,27842,5,0,0:0:0:0:
206,327,28014,1,0,3:2:0:0:
244,42,28185,2,0,P|283:127|207:182,1,202.500007724762,8|0,0:0|0:0,0:0:0:0:
213,109,28528,6,0,L|355:147,1,135.000005149842,6|0,3:2|3:2,0:0:0:0:
207,182,29042,2,0,P|176:172|151:149,1,67.5000025749208,2|0,0:0|3:2,0:0:0:0:
348,70,29385,1,2,0:0:0:0:
244,42,29557,1,2,3:2:0:0:
311,210,29728,6,0,P|344:216|377:209,1,67.5000025749208,2|0,0:0|3:2,0:0:0:0:
244,42,30071,2,0,P|211:36|179:43,1,67.5000025749208,2|0,0:0|3:2,0:0:0:0:
348,70,30414,2,0,P|380:81|405:104,1,67.5000025749208,2|0,0:0|3:2,0:0:0:0:
481,179,30757,1,2,0:0:0:0:
278,126,30928,1,0,3:2:0:0:
480,71,31100,1,2,0:0:0:0:
426,272,31271,6,0,P|363:293|309:257,1,135.000005149842,2|2,3:2|3:2,0:0:0:0:
85,272,31785,2,0,P|148:293|202:257,1,135.000005149842,2|2,0:0|0:0,0:0:0:0:
202,183,32300,1,0,3:2:0:0:
119,86,32472,6,0,L|138:220,1,135.000005149842,2|0,0:0|0:0,0:0:0:0:
256,308,32985,1,2,3:2:0:0:
374,220,33157,2,0,L|392:86,1,135.000005149842,2|10,0:0|0:0,0:0:0:0:
397,53,33585,1,8,0:0:0:0:
397,53,33671,1,2,3:2:0:0:
498,168,33842,1,14,0:0:0:0:
267,137,34014,6,0,L|285:3,1,135.000005149842,2|0,3:2|3:2,0:0:0:0:
257,203,34528,2,0,L|267:137,1,67.5000025749208,2|0,0:0|3:2,0:0:0:0:
328,332,34871,1,2,0:0:0:0:
155,309,35042,1,2,3:2:0:0:
341,232,35214,6,0,P|372:243|399:263,1,67.5000025749208,2|0,0:0|3:2,0:0:0:0:
170,210,35557,2,0,P|139:211|98:227,1,67.5000025749208,2|0,0:0|3:2,0:0:0:0:
235,371,35900,1,2,0:0:0:0:
235,371,35985,1,2,0:0:0:0:
235,371,36071,1,0,3:2:0:0:
267,137,36242,2,0,L|248:270,1,135.000005149842,2|0,0:0|0:0,0:0:0:0:
158,82,36757,6,0,P|146:147|170:210,1,135.000005149842,2|2,3:2|3:2,0:0:0:0:
342,233,37271,2,0,P|366:209|381:179,1,67.5000025749208,2|0,0:0|3:2,0:0:0:0:
385,112,37614,2,0,P|386:145|381:179,1,67.5000025749208,2|0,0:0|3:2,0:0:0:0:
267,137,37957,5,2,0:0:0:0:
314,13,38128,1,0,3:2:0:0:
381,179,38300,1,4,0:3:0:0:
195,38,38471,1,10,0:0:0:0:
500,154,38642,1,2,3:2:0:0:
500,153,38985,6,0,B|480:183|448:202|406:197|381:179|381:179|356:161|314:156|282:175|262:204,1,269.999991760254,2|0,3:2|0:0,0:0:0:0:
185,239,39500,6,0,P|255:287|332:249,1,180,6|8,3:2|0:0,0:0:0:0:
428,108,40014,1,2,0:0:0:0:
428,108,40100,1,2,0:0:0:0:
428,108,40185,1,2,3:2:0:0:
262,203,40357,1,2,0:0:0:0:
502,261,40528,1,10,0:0:0:0:
308,133,40700,6,0,P|265:120|222:130,1,90,2|0,0:0|3:2,0:0:0:0:
134,310,41042,2,0,P|176:295|205:262,1,90,2|8,0:0|0:0,0:0:0:0:
171,65,41385,2,0,P|145:101|140:145,1,90,2|0,0:0|3:2,0:0:0:0:
286,285,41728,1,2,0:0:0:0:
62,173,41900,1,8,0:0:0:0:
308,134,42071,1,2,0:0:0:0:
308,134,42157,1,2,0:0:0:0:
308,134,42242,6,0,L|487:151,1,180,2|8,3:2|0:0,0:0:0:0:
262,203,42757,2,0,P|225:125|276:56,1,180,2|0,0:0|0:0,0:0:0:0:
388,232,43271,1,8,0:0:0:0:
128,116,43442,6,0,L|308:134,1,180,2|2,0:0|0:0,0:0:0:0:
39,108,43957,1,8,0:0:0:0:
209,214,44128,1,2,0:0:0:0:
209,214,44214,1,2,0:0:0:0:
209,214,44300,1,0,3:2:0:0:
227,35,44471,1,2,0:0:0:0:
77,190,44642,1,10,0:0:0:0:
307,133,44814,1,2,0:0:0:0:
307,133,44900,1,2,0:0:0:0:
307,133,44985,6,0,P|335:214|299:304,1,180,6|8,3:2|0:0,0:0:0:0:
209,214,45500,1,2,0:0:0:0:
209,214,45585,1,2,0:0:0:0:
209,214,45671,1,2,3:2:0:0:
308,134,45842,1,2,0:0:0:0:
181,338,46014,1,8,0:0:0:0:
218,124,46185,6,0,P|267:53|354:56,1,180,2|2,0:0|0:0,0:0:0:0:
388,294,46700,1,8,0:0:0:0:
308,134,46871,2,0,L|267:53,1,90,2|0,0:0|3:2,0:0:0:0:
209,214,47214,1,8,0:3:0:0:
431,102,47385,1,8,0:0:0:0:
430,101,47728,5,14,3:2:0:0:
440,140,47813,1,8,0:0:0:0:
432,178,47899,1,8,0:0:0:0:
410,210,47985,1,8,0:0:0:0:
376,230,48071,2,8,P|354:233|331:232,1,45
113,148,48242,5,6,3:2:0:0:
128,111,48327,1,8,0:0:0:0:
156,84,48413,1,8,0:0:0:0:
193,72,48499,1,8,0:0:0:0:
232,75,48585,2,8,P|252:84|269:99,1,45
396,297,48757,5,6,3:2:0:0:
362,317,48842,1,8,0:0:0:0:
323,322,48928,1,8,0:0:0:0:
286,310,49014,1,8,0:0:0:0:
257,284,49100,2,8,P|246:264|241:242,1,45
256,9,49271,5,6,3:2:0:0:
295,11,49356,1,8,0:0:0:0:
329,30,49442,1,8,0:0:0:0:
353,61,49528,1,8,0:0:0:0:
361,99,49614,2,8,P|358:122|350:143,1,45
200,325,49785,5,2,3:2:0:0:
376,230,49957,1,0,3:2:0:0:
113,148,50128,1,10,0:0:0:0:
113,148,50471,5,10,0:0:0:0:
376,230,50642,1,10,0:0:0:0:
376,230,50985,5,10,0:0:0:0:
115,319,51156,1,10,0:0:0:0:
115,319,51500,5,10,0:0:0:0:
273,93,51671,1,10,0:0:0:0:
273,93,52014,5,10,0:0:0:0:
276,368,52185,1,10,0:0:0:0:
276,368,52528,5,8,0:3:0:0:
115,319,52700,1,0,3:2:0:0:
376,230,52871,2,0,P|421:228|476:242,1,90,10|2,0:0|3:2,0:0:0:0:
273,93,53214,6,0,P|228:95|173:81,1,90,6|0,3:2|0:0,0:0:0:0:
376,29,53557,1,2,3:2:0:0:
265,181,53728,2,0,P|263:136|273:93,1,90,2|8,0:0|0:0,0:0:0:0:
383,141,54071,2,0,P|385:186|376:230,1,90,2|0,0:0|3:2,0:0:0:0:
209,380,54414,6,0,P|207:335|217:292,1,90,10|0,0:0|3:2,0:0:0:0:
416,348,54757,2,0,P|371:350|327:340,1,90,10|0,0:0|3:2,0:0:0:0:
176,173,55100,2,0,P|221:171|265:181,1,90,2|8,0:0|0:0,0:0:0:0:
94,267,55442,2,0,P|54:188|74:102,1,180,6|0,3:2|0:0,0:0:0:0:
342,82,55957,5,10,0:0:0:0:
94,267,56128,1,10,0:0:0:0:
94,267,56471,5,10,0:0:0:0:
403,262,56642,1,10,0:0:0:0:
403,262,56985,5,10,0:0:0:0:
150,83,57156,1,10,0:0:0:0:
150,83,57500,5,10,0:0:0:0:
249,375,57671,1,10,0:0:0:0:
249,375,58014,5,8,0:3:0:0:
403,262,58185,1,0,3:2:0:0:
94,267,58357,2,0,P|77:309|82:354,1,90,10|0,0:0|0:0,0:0:0:0:
234,169,58700,6,0,P|250:127|246:83,1,90,6|0,3:2|0:0,0:0:0:0:
164,218,59042,1,2,3:2:0:0:
320,180,59214,2,0,P|278:164|234:169,1,90,2|8,0:0|0:0,0:0:0:0:
7,254,59557,2,0,P|49:270|94:267,1,90,2|0,0:0|3:2,0:0:0:0:
126,61,59900,6,0,P|110:103|114:147,1,90,10|0,0:0|3:2,0:0:0:0:
199,374,60243,2,0,P|215:332|211:287,1,90,10|0,0:0|3:2,0:0:0:0:
114,147,60585,1,2,3:2:0:0:
81,353,60757,1,8,0:0:0:0:
245,82,60928,2,0,P|331:59|416:85,1,180,6|0,3:2|0:0,0:0:0:0:
212,288,61442,5,6,3:2:0:0:
169,175,61614,1,8,0:0:0:0:
288,195,61785,5,10,0:0:0:0:
134,253,61957,1,10,0:0:0:0:
238,125,62128,5,8,0:0:0:0:
296,279,62300,1,8,0:0:0:0:
84,183,62471,5,8,0:0:0:0:
365,231,62642,1,8,0:0:0:0:
143,338,62814,5,8,0:0:0:0:
323,117,62985,1,8,0:0:0:0:
261,356,63157,5,10,0:0:0:0:
161,90,63328,1,8,0:0:0:0:
372,314,63500,5,10,0:0:0:0:
49,262,63671,1,8,0:0:0:0:
255,8,63842,5,10,0:0:0:0:
202,347,64014,1,8,0:0:0:0:
445,104,64185,5,14,0:0:0:0:
412,314,64357,1,0,3:2:0:0:
412,314,64528,1,2,3:2:0:0:
106,158,64700,5,8,0:3:0:0:
255,8,64871,1,0,3:2:0:0:
255,8,65042,1,0,3:2:0:0:
412,314,65214,5,12,0:0:0:0:
202,347,65385,1,0,3:2:0:0:
202,347,65557,1,0,3:2:0:0:
255,8,65728,5,4,0:3:0:0:
445,104,65900,1,0,3:2:0:0:
445,104,66071,1,0,3:2:0:0:
202,347,66242,5,4,0:3:0:0:
255,8,66414,1,2,3:2:0:0:
412,314,66585,1,10,0:0:0:0:
106,158,66757,6,2,B|127:196|175:200|175:200|154:244|175:281|175:281|217:273|236:228|236:228|272:260|315:252|315:252|318:209|281:178|281:178|323:154|329:110|329:110|288:93|248:118|248:118|238:71|199:53|199:53|170:84|181:132|181:132|133:127|106:158,1,810,6|0,3:2|0:0,0:1:0:0:
136,137,68985,6,0,P|158:145|176:157,1,45,4|8,0:3|0:0,0:0:0:0:
326,294,69157,2,8,P|312:274|305:254,1,45,10|8,0:0|0:0,0:0:0:0:
264,56,69328,2,8,P|263:78|257:100,1,45,10|8,0:0|0:0,0:0:0:0:
174,284,69500,2,0,P|188:265|205:252,1,45,8|0,0:3|0:0,0:0:0:0:
380,152,69671,6,0,B|445:150|464:197|464:197|433:237|370:217,1,207.000003948212,6|8,3:2|0:0,0:0:0:0:
256,100,70185,1,0,0:0:0:0:
326,294,70357,1,2,3:2:0:0:
344,64,70528,2,0,P|312:24|265:5,1,103.500001974106,2|8,0:0|0:0,0:0:0:0:
88,79,70871,6,0,P|166:140|256:100,1,207.000003948212,2|0,0:0|0:0,0:0:0:0:
178,45,71385,1,8,0:0:0:0:
244,198,71557,1,0,0:0:0:0:
344,64,71728,1,2,3:2:0:0:
146,185,71900,1,2,0:0:0:0:
265,5,72071,1,10,0:0:0:0:
322,252,72242,1,2,0:0:0:0:
88,79,72414,6,0,P|32:152|53:261,1,207.000003948212,2|8,3:2|0:0,0:0:0:0:
161,303,72928,1,2,0:0:0:0:
161,303,73014,1,2,0:0:0:0:
161,303,73100,1,2,3:2:0:0:
146,185,73271,1,2,0:0:0:0:
66,376,73442,1,8,0:0:0:0:
255,230,73614,6,0,P|263:179|250:129,1,103.500001974106,2|0,0:0|3:2,0:0:0:0:
88,79,73957,1,2,0:0:0:0:
161,303,74128,1,10,0:0:0:0:
244,28,74300,2,0,P|331:70|335:184,1,207.000003948212,2|0,0:0|0:0,0:0:0:0:
161,303,74814,1,10,0:0:0:0:
250,129,74985,1,2,0:0:0:0:
250,129,75071,1,2,0:0:0:0:
250,129,75157,6,0,P|283:90|330:70,1,103.500001974106,6|0,3:2|0:0,0:0:0:0:
161,303,75500,2,0,P|129:342|81:361,1,103.500001974106,10|0,0:0|0:0,0:0:0:0:
81,70,75842,2,0,P|129:89|162:129,1,103.500001974106,2|0,3:2|0:0,0:0:0:0:
330,360,76185,2,0,P|282:341|250:302,1,103.500001974106,10|0,0:0|0:0,0:0:0:0:
260,30,76528,6,0,P|267:80|250:129,1,103.500001974106,2|0,3:2|0:0,0:0:0:0:
9,256,76871,2,0,P|49:224|99:215,1,103.500001974106,10|0,0:0|0:0,0:0:0:0:
390,175,77214,2,0,P|350:206|299:215,1,103.500001974106,2|0,3:2|0:0,0:0:0:0:
69,70,77557,2,0,P|116:89|149:128,1,103.500001974106,10|0,0:0|0:0,0:0:0:0:
330,360,77900,5,0,3:2:0:0:
330,360,78071,1,0,3:2:0:0:
129,303,78242,2,2,P|189:287|249:301,1,125.999996154785,14|0,0:0|0:0,0:1:0:0:
364,43,78585,5,0,3:2:0:0:
364,43,78756,1,0,3:2:0:0:
416,245,78928,2,2,P|371:202|354:142,1,125.999996154785,14|0,0:0|0:0,0:1:0:0:
72,172,79271,5,0,3:2:0:0:
72,172,79442,1,0,3:2:0:0:
221,26,79614,2,2,P|207:87|163:132,1,125.999996154785,14|0,0:0|3:2,0:1:0:0:
330,360,79957,6,0,P|312:325|311:288,1,51.7500009870529,6|8,3:2|0:0,0:0:0:0:
329,77,80128,2,8,P|322:115|302:146,1,51.7500009870529,10|8,0:0|0:0,0:0:0:0:
162,306,80300,2,8,P|179:286|201:272,1,51.7500009870529,10|8,0:0|0:0,0:0:0:0:
431,217,80471,2,0,P|392:223|356:212,1,51.7500009870529,4|0,0:3|0:0,0:0:0:0:
164,132,80642,6,0,B|110:133|74:176|74:176|115:213|169:207,1,207.000003948212,6|8,3:2|0:0,0:0:0:0:
317,126,81157,1,0,0:0:0:0:
162,306,81328,1,2,3:2:0:0:
238,52,81500,2,0,P|281:24|332:18,1,103.500001974106,2|8,0:0|0:0,0:0:0:0:
392,224,81842,6,0,B|374:245|370:272|370:272|318:127,1,207.000003948212,2|0,0:0|0:0,0:0:0:0:
450,282,82357,1,8,0:0:0:0:
270,240,82528,1,0,0:0:0:0:
440,112,82700,1,2,3:2:0:0:
196,142,82871,1,2,0:0:0:0:
494,194,83042,1,10,0:0:0:0:
345,339,83214,1,2,0:0:0:0:
238,53,83385,6,0,P|139:61|98:151,1,207.000003948212,6|8,3:2|0:0,0:0:0:0:
385,245,83900,2,0,P|426:156|369:75,1,207.000003948212,6|8,3:2|0:0,0:0:0:0:
144,277,84414,2,0,P|201:357|299:348,1,207.000003948212,6|0,3:2|0:0,0:0:0:0:
196,142,84928,5,2,3:2:0:0:
385,245,85100,1,8,0:0:0:0:
98,151,85271,2,0,P|107:101|139:61,1,103.500001974106,6|0,3:2|0:0,0:0:0:0:
369,75,85614,1,2,3:2:0:0:
155,231,85785,1,10,0:0:0:0:
427,156,85957,1,2,0:0:0:0:
98,151,86128,5,4,3:2:0:0:
252,221,86300,1,2,0:0:0:0:
236,54,86471,1,2,3:2:0:0:
154,230,86642,2,0,P|173:278|212:311,1,103.500001974106,2|8,0:0|0:0,0:0:0:0:
349,209,86985,1,2,0:0:0:0:
196,142,87157,1,2,3:2:0:0:
302,350,87328,1,10,0:0:0:0:
302,350,87414,1,8,0:0:0:0:
302,350,87500,5,0,3:2:0:0:
292,133,87671,1,10,0:0:0:0:
212,311,87842,1,2,3:2:0:0:
381,172,88014,2,0,P|388:121|370:72,1,103.500001974106,2|8,0:0|0:0,0:0:0:0:
196,142,88357,1,2,0:0:0:0:
393,271,88528,1,2,3:2:0:0:
262,57,88700,1,10,0:0:0:0:
302,350,88871,5,4,3:2:0:0:
382,172,89042,1,2,0:0:0:0:
496,330,89214,1,2,3:2:0:0:
290,237,89385,2,0,P|271:190|286:112,1,103.500001974106,2|8,0:0|0:0,0:0:0:0:
414,64,89728,1,2,0:0:0:0:
393,284,89900,1,2,3:2:0:0:
322,61,90071,6,0,P|287:49|216:68,1,103.500001974106,10|0,0:0|3:2,0:0:0:0:
104,207,90414,1,10,0:0:0:0:
290,237,90585,1,2,3:2:0:0:
122,99,90757,2,0,P|64:107|20:138,1,103.500001974106,2|8,0:0|0:0,0:0:0:0:
188,276,91100,1,2,0:0:0:0:
223,62,91271,1,2,3:2:0:0:
104,207,91442,1,10,0:0:0:0:
367,180,91614,6,0,P|331:97|257:149,1,207.000003948212,6|2,3:2|3:2,0:0:0:0:
312,371,92128,1,8,0:0:0:0:
312,371,92214,1,8,0:0:0:0:
312,371,92300,1,10,0:0:0:0:
476,212,92471,1,8,0:3:0:0:
285,260,92642,1,4,0:3:0:0:
395,292,92814,1,4,0:3:0:0:
148,118,92985,6,0,P|166:260|256:149,1,362.250006909371,6|0,3:2|0:0,0:0:0:0:
188,186,93671,6,0,B|226:255|316:242|349:180|330:120|330:120|352:173|380:197|436:206|480:178,1,409.499981254578,6|0,3:2|0:0,0:0:0:0:
425,98,94357,5,6,3:2:0:0:
256,149,94528,1,10,0:0:0:0:
466,185,94700,1,10,0:0:0:0:
216,63,94871,1,10,0:0:0:0:
297,375,95042,5,10,0:0:0:0:
415,76,95214,1,10,0:0:0:0:
144,248,95385,1,10,0:0:0:0:
463,269,95557,1,10,0:0:0:0:
463,269,96585,5,0,3:2:0:0:
216,62,96757,2,2,P|175:136|258:134,1,202.500007724762,10|0,0:0|0:0,0:1:0:0:
299,61,97100,5,6,3:2:0:0:
86,182,97271,1,2,0:0:0:0:
130,15,97442,1,2,3:2:0:0:
253,227,97614,2,0,P|296:237|340:230,1,90,10|0,0:0|3:2,0:0:0:0:
444,57,97957,2,0,P|400:46|356:53,1,90,2|8,0:0|0:0,0:0:0:0:
434,237,98300,6,0,P|444:193|437:149,1,90,2|0,0:0|3:2,0:0:0:0:
262,46,98642,2,0,P|252:89|259:134,1,90,10|0,0:0|3:2,0:0:0:0:
337,318,98985,2,0,P|347:275|341:231,1,90,2|8,0:0|0:0,0:0:0:0:
165,127,99328,1,2,0:0:0:0:
249,338,99500,1,2,3:2:0:0:
341,231,99671,1,2,0:0:0:0:
73,234,99842,5,2,3:2:0:0:
253,179,100014,1,2,0:0:0:0:
210,362,100185,1,2,3:2:0:0:
135,116,100357,2,0,P|162:80|199:55,1,90,10|0,0:0|3:2,0:0:0:0:
370,241,100700,2,0,P|343:277|306:302,1,90,2|8,0:0|0:0,0:0:0:0:
119,299,101042,6,0,L|186:239,1,90,2|0,0:0|3:2,0:0:0:0:
386,58,101385,2,0,L|319:118,1,90,10|0,0:0|3:2,0:0:0:0:
186,239,101728,2,0,L|253:179,1,90,2|8,0:0|0:0,0:0:0:0:
319,118,102071,1,2,0:0:0:0:
240,363,102242,1,2,3:2:0:0:
69,172,102414,1,10,0:0:0:0:
350,262,102585,5,6,3:2:0:0:
178,73,102756,1,2,0:0:0:0:
98,316,102928,1,2,3:2:0:0:
319,117,103100,2,0,P|363:110|406:120,1,90,10|0,0:0|3:2,0:0:0:0:
207,217,103442,2,0,P|162:224|119:214,1,90,2|8,0:0|0:0,0:0:0:0:
216,23,103785,6,0,P|206:67|213:111,1,90,2|0,0:0|3:2,0:0:0:0:
309,311,104128,2,0,P|319:267|312:223,1,90,10|0,0:0|3:2,0:0:0:0:
122,126,104471,2,0,P|112:169|119:213,1,90,2|8,0:0|0:0,0:0:0:0:
403,208,104814,1,2,0:0:0:0:
213,111,104985,1,10,0:0:0:0:
400,295,105157,1,2,0:0:0:0:
119,213,105328,5,10,0:0:0:0:
406,121,105500,1,10,0:0:0:0:
406,121,105842,5,10,0:0:0:0:
228,364,106014,1,10,0:0:0:0:
228,364,106357,5,10,0:0:0:0:
229,62,106529,1,10,0:0:0:0:
229,62,106871,5,10,0:0:0:0:
405,306,107043,1,10,0:0:0:0:
274,210,107214,5,8,0:0:0:0:
274,210,107300,1,8,0:0:0:0:
274,210,107385,1,8,0:0:0:0:
324,365,107557,1,8,0:3:0:0:
374,210,107728,1,4,0:3:0:0:
242,306,107900,1,0,3:2:0:0:
360,22,108071,5,14,0:0:0:0:
324,365,108242,1,10,0:0:0:0:
324,365,108585,5,10,0:0:0:0:
149,65,108756,1,10,0:0:0:0:
149,65,109100,5,10,0:0:0:0:
465,206,109271,1,10,0:0:0:0:
465,206,109614,5,10,0:0:0:0:
127,278,109785,1,10,0:0:0:0:
244,182,109957,5,0,3:2:0:0:
244,182,110042,1,0,3:2:0:0:
244,182,110128,1,8,0:3:0:0:
268,332,110300,1,0,3:2:0:0:
106,132,110471,2,0,P|138:192|146:125,1,180,8|0,0:0|0:0,0:0:0:0:
146,125,111157,6,0,B|153:188|217:221|217:221|164:269|172:332|172:332|234:344|285:293|285:293|317:357|381:370|381:370|409:312|375:249|375:249|446:239|479:182|479:182|432:136|363:148|363:148|375:78|332:32|332:32|275:58|263:130|263:130|200:97|146:125,1,1196.99996347046,6|0,3:2|0:0,0:0:0:0:
