osu file format v14

[General]
AudioFilename: audio.mp3
AudioLeadIn: 0
PreviewTime: 68814
Countdown: 0
SampleSet: Soft
StackLeniency: 0.7
Mode: 0
LetterboxInBreaks: 0
WidescreenStoryboard: 0

[Editor]
DistanceSpacing: 1
BeatDivisor: 4
GridSize: 4
TimelineZoom: 2.1

[Metadata]
Title:BEYOND THE STARLIGHT
TitleUnicode:BEYOND THE STARLIGHT
Artist:Yamamoto Nozomi, Yamashita Nanami, Fuchigami Mai, Oozora Naomi, Toyama Nao
ArtistUnicode:山本希望、山下七海、渕上舞、大空直美、東山奈央
Creator:Shunao
Version:Run! To be a star!
Source:アイドルマスター シンデレラガールズ スターライトステージ
Tags:imas im@s idolmaster shogunmoon lafayla _meep_ sanairrt mordred elcheer lit120 THE iDOLM@STER Cinderella Girls Starlight Stage 1st anniversary Rika Jougasaki Chieri Ogata Karen Hojo Mizuki Kawashima Yui Ohtsuki 城ヶ崎莉嘉 緒方智絵里 北条加蓮 川島瑞樹 大槻唯 touyama japanese pop jpop j-pop
BeatmapID:1724735
BeatmapSetID:822974

[Difficulty]
HPDrainRate:6.5
CircleSize:4.3
OverallDifficulty:9
ApproachRate:9.3
SliderMultiplier:1.4
SliderTickRate:1

[Events]
//Background and Video events
0,0,"2.jpg",0,0
//Break Periods
//Storyboard Layer 0 (Background)
//Storyboard Layer 1 (Fail)
//Storyboard Layer 2 (Pass)
//Storyboard Layer 3 (Foreground)
//Storyboard Layer 4 (Overlay)
//Storyboard Sound Samples

[TimingPoints]
1100,342.857142857143,4,2,12,60,1,0
1100,-133.333333333333,4,2,12,60,0,0
3157,-100,4,2,13,60,0,0
3757,-100,4,2,13,5,0,0
3842,-100,4,2,12,60,0,0
6585,-133.333333333333,4,2,10,60,0,0
7700,-133.333333333333,4,2,10,5,0,0
7785,-133.333333333333,4,2,10,60,0,0
9242,-133.333333333333,4,2,10,5,0,0
9328,-133.333333333333,4,2,10,60,0,0
10442,-133.333333333333,4,2,10,5,0,0
10528,-133.333333333333,4,2,10,60,0,0
11128,-133.333333333333,4,2,10,5,0,0
11214,-133.333333333333,4,2,10,60,0,0
12071,-111.111111111111,4,2,10,60,0,0
12671,-111.111111111111,4,2,10,5,0,0
12757,-111.111111111111,4,2,10,60,0,0
13357,-111.111111111111,4,2,10,5,0,0
13442,-111.111111111111,4,2,10,60,0,0
14042,-111.111111111111,4,2,10,5,0,0
14128,-111.111111111111,4,2,10,60,0,0
14728,-111.111111111111,4,2,10,5,0,0
14814,-111.111111111111,4,2,10,60,0,0
17214,-58.8235294117647,4,2,10,60,0,0
17471,-58.8235294117647,4,2,10,5,0,0
17557,-90.9090909090909,4,2,10,60,0,0
28185,-58.8235294117647,4,2,10,60,0,0
28442,-58.8235294117647,4,2,10,5,0,0
28528,-133.333333333333,4,2,10,60,0,0
39414,-133.333333333333,4,2,10,5,0,0
39500,-100,4,2,10,60,0,0
53214,-111.111111111111,4,2,10,60,0,0
55957,-100,4,2,10,60,0,0
58700,-105.263157894737,4,2,10,60,0,0
61442,-100,4,2,10,60,0,0
64185,-66.6666666666667,4,2,10,60,0,0
69671,-71.4285714285714,4,2,10,80,0,1
80557,-71.4285714285714,4,2,10,80,0,0
80642,-71.4285714285714,4,2,10,80,0,1
86128,-100,4,2,10,80,0,1
93585,-100,4,2,10,5,0,1
93671,-100,4,2,10,80,0,1
94271,-100,4,2,10,5,0,1
94357,-100,4,2,10,80,0,1
95728,-100,4,2,10,60,0,0
96757,-58.8235294117647,4,2,10,60,0,0
97014,-58.8235294117647,4,2,10,5,0,0
97100,-90.9090909090909,4,2,10,60,0,0
114928,-90.9090909090909,4,2,10,50,0,0
115614,-90.9090909090909,4,2,10,40,0,0
116300,-90.9090909090909,4,2,10,30,0,0
116642,-90.9090909090909,4,2,10,25,0,0
116985,-90.9090909090909,4,2,10,20,0,0
117328,-90.9090909090909,4,2,10,10,0,0
117671,-90.9090909090909,4,2,10,5,0,0

[Colours]
Combo1 : 255,192,0
Combo2 : 220,163,163
Combo3 : 199,24,24
Combo4 : 216,84,192

[HitObjects]
211,88,1100,5,10,0:0:0:0:
211,88,1271,2,0,P|205:47|190:16,1,52.5000020027161,2|4,0:3|0:3,0:0:0:0:
314,147,1614,5,10,0:0:0:0:
314,147,1785,2,0,P|321:110|330:84,1,52.5000020027161,2|4,0:3|0:3,0:0:0:0:
181,226,2128,5,10,0:0:0:0:
181,226,2300,2,0,P|175:185|160:154,1,52.5000020027161,2|4,0:3|0:3,0:0:0:0:
322,284,2642,5,10,0:0:0:0:
322,284,2813,2,0,P|329:247|338:221,1,52.5000020027161,4|8,0:3|0:0,0:0:0:0:
177,365,3157,6,0,P|80:348|54:218,1,245,10|0,0:0|0:0,0:0:0:0:
64,199,3842,5,10,0:0:0:0:
256,192,3928,12,0,5900,0:0:0:0:
0,191,6585,6,0,P|28:66|188:124,1,341.250013017655,6|0,3:2|0:0,0:0:0:0:
130,233,7785,6,0,B|240:188|217:296|344:235|344:235|310:284|313:356|380:383|451:293|375:285,1,446.250017023087,6|0,3:2|0:0,0:0:0:0:
278,155,9328,6,0,B|315:99|443:88|504:178|504:178|486:134|510:85,1,341.250013017655,6|0,3:2|0:0,0:0:0:0:
380,7,10528,6,0,P|333:64|216:50,1,183.750007009506,6|0,3:2|0:0,0:0:0:0:
75,21,11214,5,6,3:2:0:0:
68,37,11557,5,0,3:2:0:0:
26,226,11729,1,10,0:0:0:0:
2,214,12071,6,0,P|102:246|114:350,1,220.499993270874,6|0,3:2|0:0,0:0:0:0:
6,345,12757,6,0,B|126:298|107:406|228:361,1,220.499993270874,6|0,3:2|0:0,0:0:0:0:
342,333,13442,6,0,B|321:260|321:260|383:117,1,220.499993270874,6|0,3:2|0:0,0:0:0:0:
315,13,14128,6,0,P|390:78|503:21,1,220.499993270874,6|0,3:2|0:0,0:0:0:0:
510,26,14814,5,14,3:2:0:0:
407,224,14985,1,10,0:0:0:0:
252,105,15157,1,10,0:0:0:0:
509,173,15328,1,10,0:0:0:0:
192,306,15500,1,10,0:0:0:0:
329,53,15671,1,10,0:0:0:0:
417,288,15842,1,10,0:0:0:0:
162,62,16014,1,10,0:0:0:0:
64,362,16185,5,0,0:0:0:0:
43,347,16528,1,0,0:0:0:0:
22,333,16871,1,0,0:0:0:0:
81,142,17042,1,0,3:2:0:0:
219,286,17214,2,0,B|313:253|296:350|408:301,1,178.500003404617,10|0,0:0|0:0,0:0:0:0:
498,238,17557,5,6,3:2:0:0:
321,157,17728,1,2,0:0:0:0:
321,157,17814,1,2,0:0:0:0:
321,157,17900,1,2,3:2:0:0:
387,308,18071,2,0,L|399:196,1,77.0000023498536,10|0,0:0|3:2,0:0:0:0:
219,198,18414,2,0,L|226:285,1,77.0000023498536,2|8,0:0|0:0,0:0:0:0:
296,107,18757,6,0,P|263:92|212:88,1,77.0000023498536,2|0,0:0|3:2,0:0:0:0:
366,195,19100,2,0,P|408:193|454:171,1,77.0000023498536,10|0,0:0|3:2,0:0:0:0:
379,347,19442,2,0,P|342:327|296:324,1,77.0000023498536,2|8,0:0|0:0,0:0:0:0:
90,356,19785,1,2,0:0:0:0:
156,177,19957,1,2,3:2:0:0:
224,373,20128,1,10,0:0:0:0:
224,373,20214,1,2,0:0:0:0:
224,373,20300,5,2,3:2:0:0:
47,203,20471,1,2,0:0:0:0:
254,249,20642,1,2,3:2:0:0:
52,279,20814,2,0,L|45:184,1,77.0000023498536,10|0,0:0|3:2,0:0:0:0:
208,280,21157,2,0,L|215:200,1,77.0000023498536,2|8,0:0|0:0,0:0:0:0:
330,61,21500,6,0,L|338:151,1,77.0000023498536,2|0,0:0|3:2,0:0:0:0:
486,42,21842,2,0,L|477:131,1,77.0000023498536,2|0,0:0|3:2,0:0:0:0:
426,289,22185,2,0,L|418:196,1,77.0000023498536,2|8,0:0|0:0,0:0:0:0:
220,190,22528,1,2,0:0:0:0:
317,354,22700,1,2,3:2:0:0:
345,139,22871,1,10,0:0:0:0:
138,373,23042,5,6,3:2:0:0:
80,93,23214,1,2,0:0:0:0:
80,93,23300,1,2,0:0:0:0:
80,93,23385,1,2,3:2:0:0:
220,190,23557,2,0,L|212:282,1,77.0000023498536,10|0,0:0|3:2,0:0:0:0:
41,314,23900,2,0,L|32:227,1,77.0000023498536,2|8,0:0|0:0,0:0:0:0:
155,105,24242,6,0,P|194:85|241:82,1,77.0000023498536,2|0,0:0|3:2,0:0:0:0:
380,175,24585,2,0,P|344:155|300:152,1,77.0000023498536,10|0,0:0|3:2,0:0:0:0:
384,316,24928,2,0,P|426:313|466:297,1,77.0000023498536,2|8,0:0|0:0,0:0:0:0:
266,226,25271,1,2,0:0:0:0:
463,187,25442,1,10,0:0:0:0:
243,80,25614,1,2,0:0:0:0:
248,374,25785,5,10,0:0:0:0:
369,33,25957,1,10,0:0:0:0:
95,246,26300,5,10,0:0:0:0:
452,208,26472,1,10,0:0:0:0:
129,37,26814,5,10,0:0:0:0:
356,310,26985,1,10,0:0:0:0:
500,8,27328,5,10,0:0:0:0:
187,183,27500,1,10,0:0:0:0:
208,198,28014,1,0,3:2:0:0:
311,74,28185,6,0,P|258:99|169:19,1,178.500003404617,8|0,0:0|0:0,0:0:0:0:
95,94,28528,6,0,L|102:165,1,52.5000020027161,6|0,3:2|0:0,0:0:0:0:
208,198,28871,1,0,3:2:0:0:
208,198,29042,2,0,L|202:270,1,52.5000020027161,2|0,0:0|3:2,0:0:0:0:
114,339,29385,1,2,0:0:0:0:
80,228,29557,1,2,3:2:0:0:
209,339,29728,6,0,L|286:330,1,52.5000020027161,2|0,0:0|3:2,0:0:0:0:
351,261,30071,2,0,L|278:253,1,52.5000020027161,2|0,0:0|3:2,0:0:0:0:
411,163,30414,2,0,L|474:156,1,52.5000020027161,2|0,0:0|3:2,0:0:0:0:
400,65,30757,1,2,0:0:0:0:
400,65,30928,2,0,L|337:58,1,52.5000020027161,0|2,3:2|0:0,0:0:0:0:
215,155,31271,6,0,P|209:98|195:41,1,105.000004005432,2|2,3:2|3:2,0:0:0:0:
108,121,31785,2,0,P|96:172|91:224,1,105.000004005432,2|2,0:0|0:0,0:0:0:0:
6,146,32300,1,0,3:2:0:0:
61,304,32471,6,0,P|108:274|167:280,1,105.000004005432,2|0,0:0|0:0,0:0:0:0:
302,308,32985,1,2,3:2:0:0:
407,196,33157,2,0,L|401:131,1,52.5000020027161,2|0,0:0|0:0,0:0:0:0:
335,50,33500,2,0,L|340:4,2,26.2500010013581,10|8|2,0:0|0:0|3:2,0:0:0:0:
449,46,33842,1,14,0:0:0:0:
311,145,34014,6,0,L|317:205,1,52.5000020027161,2|0,3:2|0:0,0:0:0:0:
208,231,34357,1,0,3:2:0:0:
208,231,34528,2,0,L|212:167,1,52.5000020027161,2|0,0:0|3:2,0:0:0:0:
143,87,34871,1,2,0:0:0:0:
97,219,35043,1,2,3:2:0:0:
3,80,35214,6,0,P|35:72|68:70,1,52.5000020027161,2|0,0:0|3:2,0:0:0:0:
170,67,35557,2,0,L|176:3,1,52.5000020027161,2|0,0:0|3:2,0:0:0:0:
276,71,35900,2,0,L|280:106,2,26.2500010013581,2|2|0,0:0|0:0|3:2,0:0:0:0:
390,159,36242,2,0,P|379:217|373:272,1,105.000004005432,2|0,0:0|0:0,0:0:0:0:
222,187,36757,5,2,3:2:0:0:
331,342,37100,1,2,3:2:0:0:
127,371,37271,2,0,P|99:363|66:361,1,52.5000020027161,2|0,0:0|3:2,0:0:0:0:
0,272,37614,2,0,P|28:264|61:262,1,52.5000020027161,2|0,0:0|3:2,0:0:0:0:
126,110,37957,6,0,P|129:146|132:183,1,52.5000020027161,2|0,0:0|3:2,0:0:0:0:
158,252,38300,1,10,0:0:0:0:
27,142,38471,1,4,0:3:0:0:
255,60,38642,1,2,3:2:0:0:
276,55,38985,2,0,B|344:35|337:88|415:63,1,131.25000500679,2|0,3:2|0:0,0:0:0:0:
484,151,39500,6,0,L|479:232,1,70,6|0,3:2|0:0,0:0:0:0:
402,344,39843,1,8,0:0:0:0:
286,267,40014,1,2,0:0:0:0:
286,267,40100,1,2,0:0:0:0:
286,267,40185,2,0,P|248:259|203:262,1,70,2|2,3:2|0:0,0:0:0:0:
55,305,40528,1,10,0:0:0:0:
119,149,40700,6,0,L|126:237,1,70,2|0,0:0|3:2,0:0:0:0:
227,105,41042,2,0,L|221:174,1,70,2|8,0:0|0:0,0:0:0:0:
320,58,41385,2,0,L|328:146,1,70,2|0,0:0|3:2,0:0:0:0:
443,232,41728,1,2,0:0:0:0:
472,77,41900,1,8,0:0:0:0:
336,223,42071,1,2,0:0:0:0:
336,223,42157,1,2,0:0:0:0:
336,223,42242,5,2,3:2:0:0:
214,36,42414,2,0,P|222:73|228:125,1,70,0|8,0:0|0:0,0:0:0:0:
345,57,42757,1,2,0:0:0:0:
336,223,42928,2,0,P|339:188|349:154,1,70
198,76,43271,1,8,0:0:0:0:
34,164,43442,6,0,L|42:253,1,70,2|0,0:0|0:0,0:0:0:0:
144,350,43785,2,0,L|152:270,1,70,2|8,0:0|0:0,0:0:0:0:
270,161,44128,1,2,0:0:0:0:
270,161,44214,1,2,0:0:0:0:
270,161,44300,1,0,3:2:0:0:
377,276,44471,2,0,L|465:269,1,70,2|10,0:0|0:0,0:0:0:0:
512,121,44814,1,2,0:0:0:0:
512,121,44900,1,2,0:0:0:0:
512,121,44985,6,0,L|431:114,1,70,6|0,3:2|0:0,0:0:0:0:
326,8,45328,1,8,0:0:0:0:
270,161,45500,1,2,0:0:0:0:
270,161,45585,1,2,0:0:0:0:
270,161,45671,2,0,P|263:118|262:76,1,70,2|2,3:2|0:0,0:0:0:0:
125,164,46014,1,8,0:0:0:0:
222,282,46185,6,0,P|258:274|313:278,1,70,2|0,0:0|0:0,0:0:0:0:
448,297,46528,1,2,0:0:0:0:
371,158,46700,1,8,0:0:0:0:
298,343,46871,2,0,L|288:255,1,70,2|0,0:0|3:2,0:0:0:0:
159,127,47214,1,8,0:3:0:0:
79,329,47385,1,8,0:0:0:0:
290,199,47557,1,0,0:0:0:0:
67,58,47728,5,14,3:2:0:0:
93,35,47813,1,8,0:0:0:0:
126,23,47899,1,8,0:0:0:0:
161,22,47985,1,8,0:0:0:0:
193,35,48071,2,0,P|205:55|226:75,1,35,8|8,0:0|0:0,0:0:0:0:
312,122,48242,5,14,3:2:0:0:
277,122,48327,1,8,0:0:0:0:
244,134,48413,1,8,0:0:0:0:
219,158,48499,1,8,0:0:0:0:
210,191,48585,2,0,L|219:250,1,35,8|8,0:0|0:0,0:0:0:0:
169,334,48757,5,14,3:2:0:0:
136,346,48842,1,8,0:0:0:0:
101,347,48928,1,8,0:0:0:0:
68,337,49014,1,8,0:0:0:0:
49,307,49100,2,0,P|44:275|37:247,1,35,8|8,0:0|0:0,0:0:0:0:
66,158,49271,5,14,3:2:0:0:
95,139,49356,1,8,0:0:0:0:
129,132,49442,1,8,0:0:0:0:
163,140,49528,1,8,0:0:0:0:
191,161,49613,1,8,0:0:0:0:
209,190,49699,1,8,0:0:0:0:
220,224,49785,5,2,3:2:0:0:
332,373,49957,1,0,3:2:0:0:
409,124,50128,1,10,0:0:0:0:
391,136,50471,5,10,0:0:0:0:
43,272,50642,1,10,0:0:0:0:
67,258,50985,5,10,0:0:0:0:
283,36,51157,1,10,0:0:0:0:
284,16,51500,5,10,0:0:0:0:
391,326,51671,1,10,0:0:0:0:
405,339,52014,5,10,0:0:0:0:
124,166,52185,1,10,0:0:0:0:
137,176,52528,2,0,L|129:92,1,70,8|0,0:3|3:2,0:0:0:0:
149,288,52871,1,10,0:0:0:0:
162,301,53214,6,0,P|211:273|291:290,1,125.999996154785,6|2,3:2|3:2,0:0:0:0:
358,181,53728,2,0,L|366:262,1,62.9999980773926,2|8,0:0|0:0,0:0:0:0:
268,129,54071,2,0,L|260:205,1,62.9999980773926,2|0,0:0|3:2,0:0:0:0:
95,224,54414,6,0,L|85:161,1,62.9999980773926,10|0,0:0|3:2,0:0:0:0:
229,1,54757,1,10,0:0:0:0:
88,16,54928,1,0,3:2:0:0:
268,129,55100,1,2,0:0:0:0:
86,162,55271,1,8,0:0:0:0:
168,333,55442,2,0,P|174:267|186:197,1,125.999996154785,6|0,3:2|0:0,0:0:0:0:
431,89,55957,5,10,0:0:0:0:
70,40,56129,1,10,0:0:0:0:
87,50,56471,5,10,0:0:0:0:
350,304,56643,1,10,0:0:0:0:
366,317,56985,5,10,0:0:0:0:
38,352,57157,1,10,0:0:0:0:
52,341,57500,5,10,0:0:0:0:
271,97,57671,1,10,0:0:0:0:
285,87,58014,5,8,0:3:0:0:
114,150,58185,1,0,3:2:0:0:
313,217,58357,2,0,P|268:212|220:250,1,105,10|0,0:0|0:0,0:0:0:0:
198,265,58700,6,0,P|129:248|42:244,1,132.999996448517,6|2,3:2|3:2,0:0:0:0:
155,129,59214,2,0,P|194:127|239:119,1,66.4999982242585,2|8,0:0|0:0,0:0:0:0:
109,30,59557,2,0,P|76:25|42:23,1,66.4999982242585,2|0,0:0|3:2,0:0:0:0:
198,46,59900,6,0,P|237:44|282:36,1,66.4999982242585,10|0,0:0|3:2,0:0:0:0:
412,16,60242,1,10,0:0:0:0:
309,177,60414,1,0,3:2:0:0:
473,151,60585,2,0,L|466:73,1,66.4999982242585,2|8,3:2|0:0,0:0:0:0:
290,159,60928,2,0,B|237:150|237:150|177:164|177:164|120:154,1,166.249995560646,6|0,3:2|0:0,0:0:0:0:
3,122,61442,5,6,3:2:0:0:
12,141,61785,5,10,0:0:0:0:
232,307,61956,1,10,0:0:0:0:
4,275,62128,1,8,0:0:0:0:
276,202,62300,1,8,0:0:0:0:
111,51,62471,1,8,0:0:0:0:
201,313,62642,1,8,0:0:0:0:
304,13,62814,5,8,0:0:0:0:
239,290,62985,1,8,0:0:0:0:
103,155,63157,1,10,0:0:0:0:
460,140,63328,1,8,0:0:0:0:
166,16,63500,1,10,0:0:0:0:
324,309,63671,1,8,0:0:0:0:
72,114,63842,1,10,0:0:0:0:
395,67,64014,1,8,0:0:0:0:
202,258,64185,6,0,P|138:263|68:141,1,210.000008010865,14|2,0:0|3:2,0:0:0:0:
205,16,64700,1,8,0:3:0:0:
205,16,64785,1,8,0:3:0:0:
205,16,64871,1,0,3:2:0:0:
309,184,65042,1,0,3:2:0:0:
76,257,65214,6,0,P|69:207|65:130,1,105.000004005432,12|0,0:0|3:2,0:0:0:0:
279,217,65557,1,0,3:2:0:0:
140,356,65728,1,4,0:3:0:0:
140,356,65814,1,8,0:3:0:0:
140,356,65900,2,0,P|191:358|259:377,1,105.000004005432,0|0,3:2|3:2,0:0:0:0:
457,230,66242,1,4,0:3:0:0:
158,160,66414,1,2,3:2:0:0:
394,379,66585,1,10,0:0:0:0:
331,54,66757,5,6,3:2:0:0:
256,192,66842,12,0,68300,0:0:0:0:
75,52,68985,5,4,0:3:0:0:
108,41,69071,1,8,0:0:0:0:
143,42,69157,1,10,0:0:0:0:
176,51,69242,1,8,0:0:0:0:
208,67,69328,2,0,P|239:69|265:60,1,52.5000020027161,10|8,0:0|0:0,0:0:0:0:
343,31,69500,2,0,P|306:24|280:24,1,52.5000020027161,8|8,0:0|0:0,0:0:0:0:
240,154,69671,6,0,P|255:247|271:368,1,195.999994018555,6|8,3:2|0:0,0:0:0:0:
443,375,70185,1,0,0:0:0:0:
490,203,70357,1,2,3:2:0:0:
362,242,70528,2,0,P|315:226|246:236,1,97.9999970092774,2|8,0:0|0:0,0:0:0:0:
86,361,70871,6,0,B|187:328|180:410|287:369,1,195.999994018555,2|0,0:0|0:0,0:0:0:0:
393,252,71385,1,8,0:0:0:0:
213,212,71557,1,0,0:0:0:0:
275,373,71728,1,2,3:2:0:0:
299,115,71900,1,2,0:0:0:0:
133,279,72071,1,10,0:0:0:0:
97,68,72242,1,2,0:0:0:0:
317,204,72414,6,0,P|418:192|531:193,1,195.999994018555,2|8,3:2|0:0,0:0:0:0:
393,64,72928,1,2,0:0:0:0:
305,221,73100,1,2,3:2:0:0:
160,115,73271,2,0,L|169:225,1,97.9999970092774,2|8,0:0|0:0,0:0:0:0:
14,119,73614,6,0,L|23:0,1,97.9999970092774,2|0,0:0|3:2,0:0:0:0:
184,93,73957,1,2,0:0:0:0:
75,280,74128,1,10,0:0:0:0:
267,186,74300,2,0,P|312:174|377:181,1,97.9999970092774,2|0,0:0|0:0,0:0:0:0:
477,339,74642,1,0,0:0:0:0:
325,278,74814,1,10,0:0:0:0:
470,152,74985,1,2,0:0:0:0:
470,152,75071,1,2,0:0:0:0:
470,152,75157,6,0,L|461:259,1,97.9999970092774,6|0,3:2|0:0,0:0:0:0:
333,375,75500,2,0,L|323:256,1,97.9999970092774,10|0,0:0|0:0,0:0:0:0:
197,153,75842,2,0,L|188:260,1,97.9999970092774,2|0,3:2|0:0,0:0:0:0:
41,348,76185,2,0,L|31:229,1,97.9999970092774,10|0,0:0|0:0,0:0:0:0:
51,73,76528,6,0,P|98:61|149:76,1,97.9999970092774,2|0,3:2|0:0,0:0:0:0:
302,165,76871,2,0,P|255:177|208:165,1,97.9999970092774,10|0,0:0|0:0,0:0:0:0:
358,74,77214,2,0,P|405:62|456:77,1,97.9999970092774,2|0,3:2|0:0,0:0:0:0:
412,251,77557,2,0,L|403:130,1,97.9999970092774,10|0,0:0|0:0,0:0:0:0:
247,20,77900,5,0,3:2:0:0:
165,249,78071,1,0,3:2:0:0:
22,41,78242,2,0,P|66:18|131:20,1,97.9999970092774,14|0,0:0|0:0,0:0:0:0:
370,133,78585,5,0,3:2:0:0:
127,166,78757,1,0,3:2:0:0:
326,351,78928,2,0,P|334:301|337:246,1,97.9999970092774,14|0,0:0|0:0,0:0:0:0:
415,54,79271,5,0,3:2:0:0:
480,257,79442,1,0,3:2:0:0:
276,63,79614,2,0,P|227:50|161:53,1,97.9999970092774,14|0,0:0|3:2,0:0:0:0:
8,186,79957,1,6,3:2:0:0:
110,334,80128,5,10,0:0:0:0:
147,365,80214,1,8,0:0:0:0:
195,371,80300,1,10,0:0:0:0:
243,363,80385,1,8,0:0:0:0:
283,334,80471,1,4,0:3:0:0:
304,289,80557,1,8,0:0:0:0:
297,240,80642,6,0,B|188:196|213:281|88:236,1,195.999994018555,6|8,3:2|0:0,0:0:0:0:
32,82,81156,1,0,0:0:0:0:
210,100,81328,1,2,3:2:0:0:
107,242,81499,2,0,L|100:113,1,97.9999970092774,2|8,0:0|0:0,0:0:0:0:
239,23,81842,6,0,L|222:242,1,195.999994018555,2|0,0:0|0:0,0:0:0:0:
129,63,82356,1,8,0:0:0:0:
349,117,82528,1,0,0:0:0:0:
136,232,82699,1,2,3:2:0:0:
321,80,82871,1,2,0:0:0:0:
320,312,83042,1,10,0:0:0:0:
102,201,83213,1,2,0:0:0:0:
247,356,83385,6,0,B|311:347|311:347|373:374|373:374|450:365,1,195.999994018555,6|8,3:2|0:0,0:0:0:0:
492,192,83900,2,0,P|437:108|340:122,1,195.999994018555,6|8,3:2|0:0,0:0:0:0:
189,250,84414,2,0,B|79:211|102:295|-15:253,1,195.999994018555,6|0,3:2|0:0,0:0:0:0:
141,357,84928,1,2,3:2:0:0:
119,148,85100,1,8,0:0:0:0:
335,282,85271,6,0,L|346:134,1,146.999995513916,6|0,3:2|0:0,0:0:0:0:
351,50,85613,1,2,3:2:0:0:
245,194,85785,1,10,0:0:0:0:
449,166,85957,1,2,0:0:0:0:
224,68,86128,6,0,P|151:56|77:51,1,140,4|2,3:2|3:2,0:0:0:0:
162,196,86642,1,2,0:0:0:0:
24,298,86814,2,0,P|17:261|13:211,1,70,8|2,0:0|0:0,0:0:0:0:
85,51,87157,1,2,3:2:0:0:
325,160,87328,1,10,0:0:0:0:
325,160,87414,1,8,0:0:0:0:
325,160,87500,6,0,P|392:145|470:139,1,140,8|2,3:2|3:2,0:0:0:0:
317,41,88014,1,2,0:0:0:0:
215,191,88185,2,0,P|224:233|231:281,1,70,8|2,0:0|0:0,0:0:0:0:
359,368,88528,1,2,3:2:0:0:
457,236,88700,1,10,0:0:0:0:
260,342,88871,6,0,P|216:332|165:328,1,70,4|2,3:2|0:0,0:0:0:0:
3,367,89214,1,2,3:2:0:0:
90,182,89385,1,2,0:0:0:0:
108,352,89557,2,0,L|98:263,1,70,8|2,0:0|0:0,0:0:0:0:
78,78,89900,1,2,3:2:0:0:
199,184,90071,1,10,0:0:0:0:
21,195,90242,6,0,P|60:186|113:179,1,70,0|10,3:2|0:0,0:0:0:0:
306,176,90585,1,2,3:2:0:0:
166,93,90757,1,2,0:0:0:0:
208,271,90928,2,0,L|222:358,1,70,8|2,0:0|0:0,0:0:0:0:
411,291,91271,1,2,3:2:0:0:
272,197,91442,1,10,0:0:0:0:
498,169,91614,6,0,P|430:158|358:154,1,140,6|2,3:2|3:2,0:0:0:0:
134,167,92128,1,8,0:0:0:0:
134,167,92214,1,8,0:0:0:0:
134,167,92300,1,10,0:0:0:0:
312,288,92471,1,8,0:3:0:0:
277,70,92642,1,4,0:3:0:0:
143,328,92814,1,4,0:3:0:0:
85,36,92985,5,6,3:2:0:0:
100,37,93671,1,6,3:2:0:0:
118,38,94357,5,6,3:2:0:0:
161,305,94528,1,10,0:0:0:0:
374,174,94700,1,10,0:0:0:0:
83,145,94871,1,10,0:0:0:0:
385,374,95042,1,10,0:0:0:0:
308,13,95214,1,10,0:0:0:0:
67,278,95385,1,10,0:0:0:0:
499,179,95557,1,10,0:0:0:0:
118,38,95728,5,0,0:0:0:0:
140,56,96071,1,0,0:0:0:0:
160,74,96414,1,0,0:0:0:0:
408,158,96585,1,0,3:2:0:0:
205,318,96757,2,0,P|120:295|129:217,1,178.500003404617,10|0,0:0|0:0,0:0:0:0:
300,45,97100,5,6,3:2:0:0:
338,230,97271,1,2,0:0:0:0:
338,230,97357,1,2,0:0:0:0:
338,230,97443,1,2,3:2:0:0:
199,123,97614,2,0,P|238:124|285:136,1,77.0000023498536,10|0,0:0|3:2,0:0:0:0:
436,211,97957,2,0,P|396:212|350:224,1,77.0000023498536,2|8,0:0|0:0,0:0:0:0:
205,318,98300,6,0,L|196:224,1,77.0000023498536,2|0,0:0|3:2,0:0:0:0:
26,286,98643,2,0,L|17:377,1,77.0000023498536,10|0,0:0|3:2,0:0:0:0:
110,208,98985,2,0,L|102:125,1,77.0000023498536,2|8,0:0|0:0,0:0:0:0:
236,14,99328,1,2,0:0:0:0:
240,194,99500,1,2,3:2:0:0:
139,44,99671,1,2,0:0:0:0:
139,44,99757,1,2,0:0:0:0:
139,44,99843,5,2,3:2:0:0:
316,101,100014,1,2,0:0:0:0:
110,208,100185,1,2,3:2:0:0:
295,283,100357,2,0,L|305:200,1,77.0000023498536,10|0,0:0|3:2,0:0:0:0:
157,244,100700,2,0,L|165:330,1,77.0000023498536,2|8,0:0|0:0,0:0:0:0:
337,372,101043,6,0,P|374:361|434:366,1,77.0000023498536,2|0,0:0|3:2,0:0:0:0:
506,212,101385,2,0,P|469:201|430:200,1,77.0000023498536,10|0,0:0|3:2,0:0:0:0:
302,74,101728,2,0,P|338:63|377:62,1,77.0000023498536,2|8,0:0|0:0,0:0:0:0:
249,187,102071,1,2,0:0:0:0:
184,23,102243,1,2,3:2:0:0:
401,215,102414,1,10,0:0:0:0:
144,248,102585,5,6,3:2:0:0:
334,48,102757,1,2,0:0:0:0:
334,48,102843,1,2,0:0:0:0:
334,48,102928,1,2,3:2:0:0:
235,267,103100,2,0,P|198:257|148:260,1,77.0000023498536,10|0,0:0|3:2,0:0:0:0:
33,126,103442,2,0,L|24:39,1,77.0000023498536,2|8,0:0|0:0,0:0:0:0:
169,153,103785,6,0,L|161:244,1,77.0000023498536,2|0,0:0|3:2,0:0:0:0:
42,360,104128,2,0,P|80:351|125:356,1,77.0000023498536,10|0,0:0|3:2,0:0:0:0:
237,236,104471,2,0,P|198:238|161:229,1,77.0000023498536,2|8,0:0|0:0,0:0:0:0:
99,63,104814,1,2,0:0:0:0:
14,260,104985,1,10,0:0:0:0:
243,133,105157,1,2,0:0:0:0:
0,52,105328,5,10,0:0:0:0:
192,361,105500,1,10,0:0:0:0:
357,40,105843,5,10,0:0:0:0:
12,154,106015,1,10,0:0:0:0:
420,192,106357,5,10,0:0:0:0:
124,81,106528,1,10,0:0:0:0:
393,370,106871,5,10,0:0:0:0:
218,85,107043,1,10,0:0:0:0:
179,274,107214,1,8,0:0:0:0:
179,274,107300,1,8,0:0:0:0:
179,274,107385,1,8,0:0:0:0:
309,93,107557,1,8,0:3:0:0:
86,224,107728,1,4,0:3:0:0:
321,369,107900,1,0,3:2:0:0:
19,284,108071,5,14,0:0:0:0:
309,70,108242,1,10,0:0:0:0:
469,374,108585,5,10,0:0:0:0:
147,211,108757,1,10,0:0:0:0:
468,66,109100,5,10,0:0:0:0:
233,339,109271,1,10,0:0:0:0:
37,50,109614,5,10,0:0:0:0:
347,237,109785,1,10,0:0:0:0:
206,45,109957,2,0,L|198:1,2,25.6666674499512,0|0|0,3:2|3:2|0:0,0:0:0:0:
213,88,110128,1,8,0:3:0:0:
157,286,110300,1,0,3:2:0:0:
440,87,110471,1,8,0:0:0:0:
256,192,111157,5,6,3:2:0:0:
256,192,111242,12,0,117671,0:0:0:0:
