osu file format v14

[General]
AudioFilename: audio.mp3
AudioLeadIn: 0
PreviewTime: 68814
Countdown: 0
SampleSet: Soft
StackLeniency: 0.6
Mode: 0
LetterboxInBreaks: 0
WidescreenStoryboard: 0

[Editor]
DistanceSpacing: 1.12
BeatDivisor: 4
GridSize: 32
TimelineZoom: 2.3

[Metadata]
Title:BEYOND THE STARLIGHT
TitleUnicode:BEYOND THE STARLIGHT
Artist:Yamamoto Nozomi, Yamashita Nanami, Fuchigami Mai, Oozora Naomi, Toyama Nao
ArtistUnicode:山本希望、山下七海、渕上舞、大空直美、東山奈央
Creator:Shunao
Version:Mordred's Insane
Source:アイドルマスター シンデレラガールズ スターライトステージ
Tags:imas im@s idolmaster shogunmoon lafayla _meep_ sanairrt mordred elcheer lit120 THE iDOLM@STER Cinderella Girls Starlight Stage 1st anniversary Rika Jougasaki Chieri Ogata Karen Hojo Mizuki Kawashima Yui Ohtsuki 城ヶ崎莉嘉 緒方智絵里 北条加蓮 川島瑞樹 大槻唯 touyama japanese pop jpop j-pop
BeatmapID:1724734
BeatmapSetID:822974

[Difficulty]
HPDrainRate:7
CircleSize:3.8
OverallDifficulty:8
ApproachRate:9
SliderMultiplier:1.6
SliderTickRate:1

[Events]
//Background and Video events
0,0,"2.jpg",0,0
//Break Periods
//Storyboard Layer 0 (Background)
//Storyboard Layer 1 (Fail)
//Storyboard Layer 2 (Pass)
//Storyboard Layer 3 (Foreground)
//Storyboard Layer 4 (Overlay)
//Storyboard Sound Samples

[TimingPoints]
1100,342.857142857143,4,2,12,60,1,0
3157,-200,4,2,10,60,0,0
3757,-200,4,2,10,5,0,0
3842,-100,4,2,12,60,0,0
6585,-142.857142857143,4,2,10,60,0,0
12757,-125,4,2,10,60,0,0
13442,-111.111111111111,4,2,10,60,0,0
14128,-100,4,2,10,60,0,0
14814,-100,4,2,10,60,0,0
14985,-100,4,2,10,65,0,0
15157,-100,4,2,10,70,0,0
15328,-100,4,2,10,75,0,0
15500,-100,4,2,10,80,0,0
15671,-100,4,2,10,85,0,0
15842,-100,4,2,10,90,0,0
16014,-100,4,2,10,95,0,0
16185,-100,4,2,10,60,0,0
17471,-100,4,2,10,5,0,0
17557,-83.3333333333333,4,2,10,60,0,0
28442,-83.3333333333333,4,2,10,5,0,0
28528,-125,4,2,10,60,0,0
39500,-100,4,2,10,60,0,0
63157,-100,4,2,10,70,0,0
63500,-100,4,2,10,80,0,0
63842,-100,4,2,10,90,0,0
64185,-71.4285714285714,4,2,10,80,0,0
68985,-71.4285714285714,4,2,10,70,0,0
69671,-71.4285714285714,4,2,10,80,0,1
78242,-50,4,2,10,80,0,1
80642,-71.4285714285714,4,2,10,80,0,1
92985,-125,4,2,10,80,0,1
94357,-125,4,2,10,80,0,1
95042,-125,4,2,10,90,0,1
95728,-100,4,2,10,60,0,0
97014,-100,4,2,10,5,0,0
97100,-83.3333333333333,4,2,10,60,0,0
111157,-243.90243902439,4,2,10,60,0,0
111500,-243.90243902439,4,2,10,50,0,0
111842,-243.90243902439,4,2,10,40,0,0
112185,-243.90243902439,4,2,10,30,0,0
112528,-243.90243902439,4,2,10,20,0,0
112871,-243.90243902439,4,2,10,10,0,0
114928,-243.90243902439,4,2,10,5,0,0

[Colours]
Combo1 : 255,192,0
Combo2 : 220,163,163
Combo3 : 199,24,24
Combo4 : 216,84,192

[HitObjects]
146,344,1100,5,10,0:0:0:0:
198,264,1271,1,2,0:3:0:0:
240,349,1442,1,4,0:3:0:0:
388,275,1614,5,10,0:0:0:0:
345,190,1785,1,2,0:3:0:0:
293,269,1957,1,4,0:3:0:0:
154,178,2128,5,10,0:0:0:0:
206,98,2300,1,2,0:3:0:0:
250,184,2471,1,4,0:3:0:0:
398,110,2642,5,10,0:0:0:0:
354,24,2814,1,4,0:3:0:0:
302,104,2985,1,8,0:0:0:0:
374,274,3157,6,0,P|439:281|519:296,1,140,10|0,0:0|0:0,0:0:0:0:
336,355,3842,5,10,0:0:0:0:
256,192,3928,12,0,5900,0:0:0:0:
24,214,6585,6,0,P|33:167|101:241,1,223.999993164063,6|0,3:2|0:0,0:0:0:0:
101,240,7442,1,0,0:0:0:0:
296,294,7785,6,0,P|300:237|321:65,1,223.999993164063,6|0,3:2|0:0,0:0:0:0:
393,30,8642,1,0,0:0:0:0:
455,87,8814,1,0,0:0:0:0:
419,163,8985,1,0,0:0:0:0:
336,153,9157,1,0,0:0:0:0:
184,55,9328,6,0,P|147:52|32:184,1,223.999993164063,6|0,3:2|0:0,0:0:0:0:
31,176,10185,1,0,0:0:0:0:
192,352,10528,6,0,P|189:323|179:237,1,111.999996582031,6|0,3:2|0:0,0:0:0:0:
180,240,11042,1,0,0:0:0:0:
320,224,11214,6,0,P|322:195|332:109,1,111.999996582031,6|0,3:2|3:2,0:0:0:0:
336,115,11728,2,0,L|403:114,1,55.9999982910157,10|0,0:0|0:0,0:0:0:0:
263,32,12071,6,0,P|185:36|80:50,1,167.999994873047,6|0,3:2|0:0,0:0:0:0:
256,128,12757,6,0,P|341:133|456:148,1,192,6|0,3:2|0:0,0:0:0:0:
256,224,13442,6,0,P|154:230|19:248,1,215.999993408203,6|0,3:2|0:0,0:0:0:0:
256,320,14128,6,0,P|372:327|529:348,1,240,6|0,3:2|0:0,0:0:0:0:
512,157,14814,5,14,3:2:0:0:
460,47,14985,1,10,0:0:0:0:
352,98,15157,1,10,0:0:0:0:
402,207,15328,1,10,0:0:0:0:
262,298,15500,5,10,0:0:0:0:
63,206,15671,1,10,0:0:0:0:
156,7,15842,1,10,0:0:0:0:
352,98,16014,1,10,0:0:0:0:
208,152,16185,5,0,0:0:0:0:
208,152,16528,1,0,0:0:0:0:
208,152,16871,1,0,0:0:0:0:
254,53,17042,1,0,3:2:0:0:
208,152,17214,6,0,P|157:154|68:163,1,120,10|0,0:0|0:0,0:0:0:0:
64,230,17557,5,6,3:2:0:0:
48,378,17728,1,2,0:0:0:0:
184,318,17900,1,2,3:2:0:0:
320,378,18071,6,0,P|374:374|429:374,1,95.9999970703126,10|0,0:0|3:2,0:0:0:0:
512,270,18414,2,0,P|458:266|403:266,1,95.9999970703126,2|8,0:0|0:0,0:0:0:0:
320,162,18757,2,0,P|374:158|429:158,1,95.9999970703126,2|0,0:0|3:2,0:0:0:0:
512,54,19100,2,0,P|458:50|403:50,1,95.9999970703126,10|0,0:0|3:2,0:0:0:0:
224,96,19442,2,0,P|176:95|128:91,1,95.9999970703126,2|8,0:0|0:0,0:0:0:0:
21,7,19785,1,2,0:0:0:0:
21,7,19957,1,2,3:2:0:0:
21,7,20128,1,10,0:0:0:0:
37,155,20300,5,2,3:2:0:0:
21,7,20471,1,2,0:0:0:0:
157,67,20643,1,2,3:2:0:0:
293,6,20814,6,0,P|344:20|397:39,1,95.9999970703126,10|0,0:0|3:2,0:0:0:0:
512,96,21157,2,0,P|460:109|407:128,1,95.9999970703126,2|8,0:0|0:0,0:0:0:0:
293,185,21500,2,0,P|344:198|397:217,1,95.9999970703126,2|0,0:0|3:2,0:0:0:0:
512,274,21842,2,0,P|460:287|407:306,1,95.9999970703126,2|0,0:0|3:2,0:0:0:0:
288,352,22185,2,0,P|240:344|192:340,1,95.9999970703126,2|8,0:0|0:0,0:0:0:0:
16,384,22528,1,2,0:0:0:0:
16,192,22700,1,2,3:2:0:0:
79,300,22871,1,10,0:0:0:0:
79,300,22957,1,2,0:0:0:0:
79,300,23042,5,6,3:2:0:0:
87,58,23214,1,2,0:0:0:0:
293,185,23385,1,2,3:2:0:0:
79,300,23557,6,0,P|77:247|78:199,1,95.9999970703126,10|0,0:0|3:2,0:0:0:0:
87,58,23900,2,0,P|133:82|174:107,1,95.9999970703126,2|8,0:0|0:0,0:0:0:0:
293,185,24242,2,0,P|248:212|206:236,1,95.9999970703126,2|0,0:0|3:2,0:0:0:0:
79,300,24585,2,0,P|125:324|166:349,1,95.9999970703126,10|0,0:0|3:2,0:0:0:0:
313,341,24928,2,0,P|360:332|407:325,1,95.9999970703126,2|8,0:0|0:0,0:0:0:0:
480,128,25271,1,2,0:0:0:0:
283,56,25442,1,10,0:0:0:0:
211,253,25614,1,2,0:0:0:0:
480,128,25785,5,10,0:0:0:0:
480,128,25957,1,10,0:0:0:0:
407,324,26300,5,10,0:0:0:0:
407,324,26471,1,10,0:0:0:0:
211,253,26814,5,10,0:0:0:0:
211,253,26985,1,10,0:0:0:0:
283,56,27327,5,10,0:0:0:0:
283,56,27499,1,10,0:0:0:0:
452,178,28014,1,0,3:2:0:0:
344,291,28185,6,0,P|337:232|320:132,1,143.999995605469,8|0,0:0|0:0,0:0:0:0:
323,148,28528,6,0,P|282:151|192:148,1,128,6|0,3:2|3:2,0:0:0:0:
132,81,29042,2,0,P|128:50|127:18,1,64,2|0,0:0|3:2,0:0:0:0:
79,156,29385,2,0,P|47:160|15:161,1,64,2|2,0:0|3:2,0:0:0:0:
153,209,29728,2,0,P|157:240|158:272,1,64,2|0,0:0|3:2,0:0:0:0:
206,135,30071,2,0,P|237:130|269:129,1,64,2|0,0:0|3:2,0:0:0:0:
306,223,30414,2,0,P|274:222|242:217,1,64,2|0,0:0|3:2,0:0:0:0:
159,42,30757,1,2,0:0:0:0:
159,42,30842,1,2,0:0:0:0:
159,42,30928,2,0,P|205:49|251:52,1,64,0|2,3:2|0:0,0:0:0:0:
480,0,31271,6,0,P|495:62|505:125,1,128,2|2,3:2|3:2,0:0:0:0:
426,246,31785,2,0,P|427:214|431:182,1,64,2|0,0:0|0:0,0:0:0:0:
342,93,32128,2,0,P|337:124|336:156,1,64,2|0,0:0|3:2,0:0:0:0:
263,219,32471,6,0,P|208:219|124:229,1,128,2|0,0:0|0:0,0:0:0:0:
55,320,32985,1,2,3:2:0:0:
8,204,33157,2,0,P|6:161|8:114,1,64,2|0,0:0|0:0,0:0:0:0:
90,9,33500,1,10,0:0:0:0:
90,9,33585,1,8,0:0:0:0:
90,9,33671,1,2,3:2:0:0:
251,65,33842,1,14,0:0:0:0:
212,249,34014,6,0,P|210:292|221:380,2,128,2|0|0,3:2|3:2|3:2,0:0:0:0:
302,312,34871,2,0,P|333:317|365:321,1,64,2|2,0:0|3:2,0:0:0:0:
302,218,35214,2,0,P|333:223|365:227,1,64,2|0,0:0|3:2,0:0:0:0:
507,268,35557,2,0,P|475:273|443:277,1,64,2|0,0:0|3:2,0:0:0:0:
457,190,35900,2,0,P|451:158|447:126,1,64,2|0,0:0|3:2,0:0:0:0:
397,48,36242,2,0,P|428:42|460:38,2,64,2|0|0,0:0|0:0|0:0,0:0:0:0:
512,224,36757,6,0,P|515:263|512:366,1,128,2|2,3:2|3:2,0:0:0:0:
427,321,37271,2,0,P|428:289|426:257,1,64,2|0,0:0|3:2,0:0:0:0:
288,184,37614,2,0,P|289:215|288:247,1,64,2|0,0:0|3:2,0:0:0:0:
205,368,37957,6,0,P|168:365|69:362,1,128,2|10,0:0|0:0,0:0:0:0:
0,192,38471,1,4,0:3:0:0:
96,16,38642,1,2,3:2:0:0:
120,8,38985,1,2,3:2:0:0:
448,384,39500,6,0,P|450:340|454:300,1,80,6|0,3:2|0:0,0:0:0:0:
508,177,39842,1,8,0:0:0:0:
399,205,40014,1,2,0:0:0:0:
303,105,40185,2,0,P|263:100|223:98,1,80,2|2,3:2|0:0,0:0:0:0:
144,205,40528,1,10,0:0:0:0:
58,104,40700,2,0,P|50:51|54:6,1,80,2|0,0:0|3:2,0:0:0:0:
150,125,41042,2,0,P|151:165|144:205,1,80,2|8,0:0|0:0,0:0:0:0:
0,256,41385,2,0,P|39:255|79:262,1,80,2|0,0:0|3:2,0:0:0:0:
180,348,41728,2,0,P|140:355|100:354,2,80,2|8|2,0:0|0:0|0:0,0:0:0:0:
256,208,42242,5,2,3:2:0:0:
430,279,42414,1,0,0:0:0:0:
330,149,42585,1,8,0:0:0:0:
354,337,42757,1,2,0:0:0:0:
418,186,42928,1,0,0:0:0:0:
268,301,43100,1,0,0:0:0:0:
430,279,43271,1,8,0:0:0:0:
255,208,43442,6,0,P|194:199|79:189,1,160,2|2,0:0|0:0,0:0:0:0:
0,32,43957,1,8,0:0:0:0:
172,104,44128,1,2,0:0:0:0:
172,104,44214,1,2,0:0:0:0:
172,104,44300,1,0,3:2:0:0:
49,112,44471,1,2,0:0:0:0:
221,24,44642,2,0,P|270:20|329:17,1,80,10|2,0:0|0:0,0:0:0:0:
467,268,44985,6,0,P|463:209|450:96,1,160,6|8,3:2|0:0,0:0:0:0:
383,49,45500,1,2,0:0:0:0:
335,169,45671,2,0,P|324:248|318:328,1,160,2|8,3:2|0:0,0:0:0:0:
140,362,46185,1,2,0:0:0:0:
245,186,46357,1,0,0:0:0:0:
230,345,46528,1,2,0:0:0:0:
155,203,46700,1,8,0:0:0:0:
319,328,46871,2,0,P|375:328|410:325,1,80,2|0,0:0|3:2,0:0:0:0:
512,384,47214,1,8,0:3:0:0:
501,233,47385,2,0,P|491:185|467:94,1,120,8|0,0:0|0:0,0:0:0:0:
400,98,47728,6,0,L|358:96,5,40,14|8|8|8|8|8,3:2|0:0|0:0|0:0|0:0|0:0,0:0:0:0:
302,26,48242,5,14,3:2:0:0:
271,17,48327,1,8,0:0:0:0:
239,12,48413,1,8,0:0:0:0:
207,11,48499,1,8,0:0:0:0:
175,14,48584,1,8,0:0:0:0:
144,21,48670,1,8,0:0:0:0:
113,31,48757,6,0,P|94:44|80:56,5,40,14|8|8|8|8|8,3:2|0:0|0:0|0:0|0:0|0:0,0:0:0:0:
150,113,49271,5,14,3:2:0:0:
151,144,49356,1,8,0:0:0:0:
152,176,49442,1,8,0:0:0:0:
153,208,49528,1,8,0:0:0:0:
155,240,49613,1,8,0:0:0:0:
156,272,49699,1,8,0:0:0:0:
157,304,49785,5,2,3:2:0:0:
256,240,49957,1,0,3:2:0:0:
150,113,50128,2,0,P|97:106|15:103,1,120,10|0,0:0|0:0,0:0:0:0:
0,168,50471,5,10,0:0:0:0:
12,337,50642,1,10,0:0:0:0:
102,348,50985,5,10,0:0:0:0:
90,179,51156,1,10,0:0:0:0:
180,190,51500,5,10,0:0:0:0:
192,359,51671,1,10,0:0:0:0:
282,370,52014,5,10,0:0:0:0:
270,201,52185,1,10,0:0:0:0:
360,212,52528,6,0,L|387:215,1,20,8|0,0:3|0:0,0:0:0:0:
450,223,52700,1,0,3:2:0:0:
281,282,52871,1,10,0:0:0:0:
459,35,53214,6,0,P|465:83|472:169,1,120,6|0,3:2|0:0,0:0:0:0:
450,223,53557,1,2,3:2:0:0:
320,160,53728,2,0,P|273:156|223:158,1,80,2|8,0:0|0:0,0:0:0:0:
172,223,54071,2,0,P|185:260|193:300,1,80,2|0,0:0|3:2,0:0:0:0:
24,225,54414,2,0,P|58:205|90:181,1,80,10|0,0:0|3:2,0:0:0:0:
104,90,54757,2,0,P|71:67|42:41,1,80,10|0,0:0|3:2,0:0:0:0:
223,0,55100,2,0,P|208:36|196:74,1,80,2|8,0:0|0:0,0:0:0:0:
264,234,55442,6,0,P|335:240|434:260,1,160,6|0,3:2|0:0,0:0:0:0:
512,202,55957,5,10,0:0:0:0:
500,33,56128,1,10,0:0:0:0:
410,22,56471,5,10,0:0:0:0:
422,191,56642,1,10,0:0:0:0:
332,180,56986,5,10,0:0:0:0:
320,11,57157,1,10,0:0:0:0:
230,0,57500,5,10,0:0:0:0:
242,169,57671,1,10,0:0:0:0:
152,158,58014,6,0,L|124:154,1,20,8|8,0:3|0:3,0:0:0:0:
62,147,58186,1,0,3:2:0:0:
231,88,58357,2,0,P|290:83|370:83,1,120,10|0,0:0|0:0,0:0:0:0:
409,129,58700,6,0,P|419:194|425:272,1,120,6|0,3:2|0:0,0:0:0:0:
395,317,59042,1,2,3:2:0:0:
302,217,59214,2,0,P|255:225|205:227,1,80,2|8,0:0|0:0,0:0:0:0:
149,167,59557,2,0,P|158:129|163:88,1,80,2|0,0:0|3:2,0:0:0:0:
1,178,59900,2,0,P|36:194|70:216,1,80,10|0,0:0|3:2,0:0:0:0:
92,305,60243,2,0,P|61:330|34:359,1,80,10|0,0:0|3:2,0:0:0:0:
219,384,60586,2,0,P|200:349|185:312,1,80,2|8,3:2|0:0,0:0:0:0:
248,137,60928,2,0,P|291:122|426:153,1,160,6|0,3:2|0:0,0:0:0:0:
439,236,61442,6,0,P|439:156|435:65,1,160,6|10,3:2|0:0,0:0:0:0:
352,0,61957,1,10,0:0:0:0:
201,69,62128,5,8,0:0:0:0:
201,69,62300,1,8,0:0:0:0:
319,137,62471,1,8,0:0:0:0:
319,137,62642,1,8,0:0:0:0:
251,254,62814,1,8,0:0:0:0:
134,187,62985,1,8,0:0:0:0:
290,49,63157,5,10,0:0:0:0:
338,226,63329,1,8,0:0:0:0:
161,273,63500,1,10,0:0:0:0:
114,97,63671,1,8,0:0:0:0:
369,125,63842,1,10,0:0:0:0:
219,326,64014,1,8,0:0:0:0:
252,38,64185,6,0,P|299:34|380:37,1,111.999996582031,14|0,0:0|0:0,0:0:0:0:
512,96,64528,1,2,3:2:0:0:
359,242,64700,1,8,0:3:0:0:
359,242,64785,1,8,0:3:0:0:
359,242,64871,2,0,P|358:300|369:374,1,111.999996582031,0|0,3:2|3:2,0:0:0:0:
512,384,65214,5,12,0:0:0:0:
512,384,65385,1,0,3:2:0:0:
440,167,65557,1,0,3:2:0:0:
253,319,65728,1,4,0:3:0:0:
253,319,65814,1,8,0:3:0:0:
253,319,65900,2,0,P|170:325|119:325,1,111.999996582031,0|0,3:2|3:2,0:0:0:0:
16,205,66242,5,4,0:3:0:0:
182,51,66414,1,2,3:2:0:0:
359,242,66585,1,10,0:0:0:0:
180,185,66757,1,6,3:2:0:0:
256,192,66842,12,0,68300,0:0:0:0:
64,75,68985,5,4,0:3:0:0:
58,102,69070,1,8,0:0:0:0:
56,130,69156,1,10,0:0:0:0:
59,158,69242,1,8,0:0:0:0:
65,185,69328,1,10,0:0:0:0:
70,212,69413,1,8,0:0:0:0:
72,240,69499,1,8,0:0:0:0:
69,268,69585,1,8,0:0:0:0:
63,295,69671,6,0,P|134:290|296:287,1,223.999993164063,6|8,3:2|0:0,0:0:0:0:
418,370,70185,1,0,0:0:0:0:
367,193,70357,1,2,3:2:0:0:
512,299,70528,2,0,P|510:234|513:178,1,111.999996582031,2|8,0:0|0:0,0:0:0:0:
432,35,70871,6,0,P|361:30|199:27,1,223.999993164063,2|0,0:0|0:0,0:0:0:0:
9,103,71385,2,0,P|66:104|132:107,1,111.999996582031,8|0,0:0|0:0,0:0:0:0:
239,180,71728,1,2,3:2:0:0:
199,332,71900,1,2,0:0:0:0:
351,372,72071,1,10,0:0:0:0:
391,220,72242,1,2,0:0:0:0:
178,340,72414,6,0,P|175:283|178:95,1,223.999993164063,2|8,3:2|0:0,0:0:0:0:
221,16,72928,1,2,0:0:0:0:
286,105,73100,1,2,3:2:0:0:
112,27,73271,2,0,P|46:24|-1:25,1,111.999996582031,2|8,0:0|0:0,0:0:0:0:
96,192,73614,6,0,P|167:193|328:204,1,223.999993164063,2|2,0:0|0:0,0:0:0:0:
471,318,74128,1,10,0:0:0:0:
338,370,74300,2,0,P|343:286|368:138,1,223.999993164063,2|0,0:0|0:0,0:0:0:0:
495,15,74814,1,10,0:0:0:0:
491,197,74985,1,2,0:0:0:0:
491,197,75071,1,2,0:0:0:0:
491,197,75157,6,0,P|418:193|303:194,1,167.999994873047,6|0,3:2|0:0,0:0:0:0:
267,240,75500,2,0,P|218:243|154:242,1,111.999996582031,10|0,0:0|0:0,0:0:0:0:
8,274,75842,2,0,P|29:230|62:175,1,111.999996582031,2|0,3:2|0:0,0:0:0:0:
108,32,76185,2,0,P|135:72|166:128,1,111.999996582031,10|0,0:0|0:0,0:0:0:0:
257,352,76528,6,0,P|312:357|368:359,1,111.999996582031,2|0,3:2|0:0,0:0:0:0:
491,276,76871,2,0,P|496:220|498:164,1,111.999996582031,10|0,0:0|0:0,0:0:0:0:
415,42,77214,2,0,P|359:36|303:34,1,111.999996582031,2|0,3:2|0:0,0:0:0:0:
181,118,77557,2,0,P|175:173|173:229,1,111.999996582031,10|0,0:0|0:0,0:0:0:0:
257,352,77900,5,0,3:2:0:0:
257,352,78071,1,0,3:2:0:0:
64,384,78242,6,0,P|59:326|58:201,1,160,14|0,0:0|0:0,0:0:0:0:
101,22,78585,5,0,3:2:0:0:
101,22,78757,1,0,3:2:0:0:
304,0,78928,6,0,P|309:58|310:183,1,160,14|0,0:0|0:0,0:0:0:0:
261,379,79270,5,0,3:2:0:0:
261,379,79442,1,0,3:2:0:0:
512,384,79614,6,0,P|511:291|493:59,1,320,14|6,0:0|3:2,0:0:0:0:
465,50,80042,1,8,0:0:0:0:
433,46,80128,1,10,0:0:0:0:
402,55,80214,1,8,0:0:0:0:
377,75,80300,1,10,0:0:0:0:
353,96,80385,1,8,0:0:0:0:
321,102,80471,1,4,0:3:0:0:
289,99,80557,1,8,0:0:0:0:
257,88,80642,6,0,P|187:85|14:101,1,223.999993164063,6|8,3:2|0:0,0:0:0:0:
0,224,81157,1,0,0:0:0:0:
190,168,81328,1,2,3:2:0:0:
103,336,81500,2,0,P|100:270|102:203,1,111.999996582031,2|8,0:0|0:0,0:0:0:0:
257,88,81842,6,0,P|327:85|500:101,1,223.999993164063,2|0,0:0|0:0,0:0:0:0:
512,256,82357,2,0,P|448:253|376:254,1,111.999996582031,8|0,0:0|0:0,0:0:0:0:
224,192,82700,1,2,3:2:0:0:
264,344,82871,1,2,0:0:0:0:
112,384,83042,1,10,0:0:0:0:
72,232,83214,1,2,0:0:0:0:
285,352,83385,6,0,P|288:295|285:107,1,223.999993164063,6|8,3:2|0:0,0:0:0:0:
0,263,83900,2,0,P|47:294|212:385,1,223.999993164063,6|8,3:2|0:0,0:0:0:0:
220,61,84414,2,0,P|169:86|7:183,1,223.999993164063,6|0,3:2|0:0,0:0:0:0:
285,352,84928,1,2,3:2:0:0:
286,128,85100,1,8,0:0:0:0:
512,224,85271,6,0,P|434:219|339:221,1,167.999994873047,6|0,3:2|0:0,0:0:0:0:
280,255,85614,1,2,3:2:0:0:
402,122,85785,1,10,0:0:0:0:
456,294,85957,1,2,0:0:0:0:
302,153,86128,5,4,3:2:0:0:
302,153,86300,2,0,P|233:153|182:155,1,111.999996582031,0|2,0:0|3:2,0:0:0:0:
137,253,86642,2,0,P|67:253|16:251,1,111.999996582031,2|8,0:0|0:0,0:0:0:0:
96,106,86985,1,2,0:0:0:0:
218,239,87156,1,2,3:2:0:0:
272,67,87328,1,10,0:0:0:0:
272,67,87414,1,8,0:0:0:0:
272,67,87500,5,8,3:2:0:0:
347,135,87671,2,0,P|411:134|463:136,1,111.999996582031,0|2,0:0|3:2,0:0:0:0:
272,67,88014,2,0,P|208:66|156:68,1,111.999996582031,2|8,0:0|0:0,0:0:0:0:
64,198,88357,1,2,0:0:0:0:
32,32,88528,1,2,3:2:0:0:
64,198,88700,1,10,0:0:0:0:
256,224,88871,5,4,3:2:0:0:
256,224,89042,2,0,P|261:282|262:338,1,111.999996582031,2|2,0:0|3:2,0:0:0:0:
383,384,89385,2,0,P|378:328|376:272,1,111.999996582031,2|8,0:0|0:0,0:0:0:0:
288,143,89728,1,2,0:0:0:0:
454,111,89899,1,2,3:2:0:0:
288,143,90071,1,10,0:0:0:0:
262,335,90242,5,0,3:2:0:0:
165,300,90414,2,0,P|105:299|49:303,1,111.999996582031,10|2,0:0|3:2,0:0:0:0:
0,192,90757,2,0,P|60:193|116:189,1,111.999996582031,2|8,0:0|0:0,0:0:0:0:
192,32,91100,1,2,0:0:0:0:
48,83,91271,1,2,3:2:0:0:
228,176,91442,1,10,0:0:0:0:
382,12,91614,6,0,P|395:83|416:258,1,223.999993164063,6|2,3:2|3:2,0:0:0:0:
335,380,92128,1,8,0:0:0:0:
335,380,92214,1,8,0:0:0:0:
335,380,92300,1,10,0:0:0:0:
231,370,92471,1,8,0:3:0:0:
241,266,92642,1,4,0:3:0:0:
345,276,92814,1,4,0:3:0:0:
137,256,92985,6,0,P|124:201|119:43,1,192,6|0,3:2|0:0,0:0:0:0:
366,0,93671,2,0,P|364:95|345:189,1,192,6|0,3:2|0:0,0:0:0:0:
234,270,94357,5,6,3:2:0:0:
176,170,94528,1,10,0:0:0:0:
276,112,94700,1,10,0:0:0:0:
334,212,94871,1,10,0:0:0:0:
115,272,95042,5,10,0:0:0:0:
174,51,95213,1,10,0:0:0:0:
395,110,95385,1,10,0:0:0:0:
336,331,95556,1,10,0:0:0:0:
256,192,95728,5,0,0:0:0:0:
256,192,96071,1,0,0:0:0:0:
256,192,96414,1,0,0:0:0:0:
194,103,96585,1,0,3:2:0:0:
256,192,96757,6,0,P|306:185|395:178,1,120,10|0,0:0|0:0,0:0:0:0:
436,226,97100,5,6,3:2:0:0:
477,369,97271,1,2,0:0:0:0:
333,333,97443,1,2,3:2:0:0:
179,372,97614,2,0,P|130:378|83:381,1,95.9999970703126,10|0,0:0|3:2,0:0:0:0:
220,203,97957,2,0,P|226:252|229:299,1,95.9999970703126,2|8,0:0|0:0,0:0:0:0:
51,162,98300,2,0,P|100:156|147:153,1,95.9999970703126,2|0,0:0|3:2,0:0:0:0:
10,331,98642,2,0,P|4:282|1:235,1,95.9999970703126,10|0,0:0|3:2,0:0:0:0:
146,153,98985,2,0,P|152:104|155:57,1,95.9999970703126,2|8,0:0|0:0,0:0:0:0:
303,13,99328,5,2,0:0:0:0:
326,159,99499,1,2,3:2:0:0:
441,66,99671,1,2,0:0:0:0:
272,92,99842,5,2,3:2:0:0:
387,0,100013,1,2,0:0:0:0:
410,145,100185,1,2,3:2:0:0:
303,13,100357,6,0,P|234:10|195:12,1,95.9999970703126,10|0,0:0|3:2,0:0:0:0:
61,97,100700,2,0,P|130:94|169:96,1,95.9999970703126,2|8,0:0|0:0,0:0:0:0:
303,181,101042,2,0,P|234:178|195:180,1,95.9999970703126,2|0,0:0|3:2,0:0:0:0:
61,265,101385,2,0,P|130:262|169:264,1,95.9999970703126,10|0,0:0|3:2,0:0:0:0:
207,347,101728,2,0,P|255:346|303:349,1,95.9999970703126,2|8,0:0|0:0,0:0:0:0:
450,384,102071,1,2,0:0:0:0:
450,192,102243,1,2,3:2:0:0:
387,300,102414,1,10,0:0:0:0:
387,300,102500,1,0,0:0:0:0:
387,300,102585,5,6,3:2:0:0:
379,58,102757,1,2,0:0:0:0:
173,185,102928,1,2,3:2:0:0:
387,300,103100,6,0,P|389:247|388:199,1,95.9999970703126,10|0,0:0|3:2,0:0:0:0:
379,58,103443,2,0,P|333:82|292:107,1,95.9999970703126,2|8,0:0|0:0,0:0:0:0:
173,185,103785,2,0,P|218:212|260:236,1,95.9999970703126,2|0,0:0|3:2,0:0:0:0:
387,300,104128,2,0,P|341:324|300:349,1,95.9999970703126,10|0,0:0|3:2,0:0:0:0:
167,341,104471,2,0,P|120:332|73:325,1,95.9999970703126,2|8,0:0|0:0,0:0:0:0:
0,128,104814,1,2,0:0:0:0:
197,56,104985,1,10,0:0:0:0:
269,253,105157,1,2,0:0:0:0:
0,128,105328,5,10,0:0:0:0:
0,128,105500,1,10,0:0:0:0:
72,324,105843,5,10,0:0:0:0:
72,324,106014,1,10,0:0:0:0:
269,253,106357,5,10,0:0:0:0:
269,253,106528,1,10,0:0:0:0:
197,56,106870,5,10,0:0:0:0:
197,56,107042,2,0,P|255:51|314:48,1,95.9999970703126,10|8,0:0|0:0,0:0:0:0:
292,48,107300,1,8,0:0:0:0:
292,48,107385,1,8,0:0:0:0:
318,159,107557,1,8,0:3:0:0:
421,141,107728,1,4,0:3:0:0:
403,38,107900,1,0,3:2:0:0:
318,159,108071,5,14,0:0:0:0:
439,244,108242,1,10,0:0:0:0:
336,262,108585,5,10,0:0:0:0:
215,177,108756,1,10,0:0:0:0:
112,195,109100,5,10,0:0:0:0:
233,280,109271,1,10,0:0:0:0:
130,298,109614,5,10,0:0:0:0:
9,213,109785,2,0,P|9:154|11:95,1,95.9999970703126,10|0,0:0|3:2,0:0:0:0:
9,116,110043,1,0,3:2:0:0:
9,116,110128,1,8,0:3:0:0:
122,101,110300,1,0,3:2:0:0:
227,80,110471,1,8,0:0:0:0:
197,293,111157,6,0,B|253:309|314:277|314:277|326:347|381:372|381:372|423:327|411:259|411:259|478:271|524:226|524:226|492:171|423:161|423:161|456:100|429:43|429:43|367:56|336:118|336:118|286:69|226:80|226:80|218:142|270:188|270:188|207:220|201:282,1,1213.60001851807,6|0,3:2|0:0,0:0:0:0:
