osu file format v14

[General]
AudioFilename: audio.mp3
AudioLeadIn: 0
PreviewTime: 68814
Countdown: 0
SampleSet: Soft
StackLeniency: 0.6
Mode: 0
LetterboxInBreaks: 0
WidescreenStoryboard: 0

[Editor]
Bookmarks: 16851,27822,38794,49765,60736,68965,79936,85422,96394
DistanceSpacing: 1
BeatDivisor: 4
GridSize: 8
TimelineZoom: 1.1

[Metadata]
Title:BEYOND THE STARLIGHT
TitleUnicode:BEYOND THE STARLIGHT
Artist:Yamamoto Nozomi, Yamashita Nanami, Fuchigami Mai, Oozora Naomi, Toyama Nao
ArtistUnicode:山本希望、山下七海、渕上舞、大空直美、東山奈央
Creator:Shunao
Version:Lafa's Normal
Source:アイドルマスター シンデレラガールズ スターライトステージ
Tags:imas im@s idolmaster shogunmoon lafayla _meep_ sanairrt mordred elcheer lit120 THE iDOLM@STER Cinderella Girls Starlight Stage 1st anniversary Rika Jougasaki Chieri Ogata Karen Hojo Mizuki Kawashima Yui Ohtsuki 城ヶ崎莉嘉 緒方智絵里 北条加蓮 川島瑞樹 大槻唯 touyama japanese pop jpop j-pop
BeatmapID:1724732
BeatmapSetID:822974

[Difficulty]
HPDrainRate:4
CircleSize:3.3
OverallDifficulty:4
ApproachRate:5.5
SliderMultiplier:1
SliderTickRate:1

[Events]
//Background and Video events
0,0,"1.jpg",0,0
//Break Periods
//Storyboard Layer 0 (Background)
//Storyboard Layer 1 (Fail)
//Storyboard Layer 2 (Pass)
//Storyboard Layer 3 (Foreground)
//Storyboard Layer 4 (Overlay)
//Storyboard Sound Samples

[TimingPoints]
1100,342.857142857143,4,2,12,60,1,0
1100,-111.111111111111,4,2,12,60,0,0
3157,-111.111111111111,4,2,13,60,0,0
3842,-200,4,2,12,60,0,0
6585,-105.263157894737,4,2,10,60,0,0
69671,-105.263157894737,4,2,10,80,0,1
86128,-105.263157894737,4,2,10,60,0,0
114928,-105.263157894737,4,2,10,50,0,0
115614,-105.263157894737,4,2,10,40,0,0
116300,-105.263157894737,4,2,10,30,0,0
116642,-105.263157894737,4,2,10,25,0,0
116985,-105.263157894737,4,2,10,20,0,0
117328,-105.263157894737,4,2,10,10,0,0
117671,-105.263157894737,4,2,10,5,0,0

[Colours]
Combo1 : 255,192,0
Combo2 : 220,163,163
Combo3 : 199,24,24
Combo4 : 216,84,192

[HitObjects]
47,357,1100,6,0,P|33:291|4:231,1,134.999995880127,10|10,0:0|0:0,0:0:0:0:
64,125,2128,2,0,P|33:65|20:-1,2,134.999995880127,10|10|10,0:0|0:0|0:0,0:0:0:0:
211,196,3842,2,0,B|389:217|303:104|499:123,1,300,10|0,0:0|0:0,0:0:0:0:
509,291,6585,6,0,P|475:347|393:365,1,142.49999619484,6|0,3:2|0:0,0:0:0:0:
362,358,7271,1,0,0:0:0:0:
362,358,7442,1,0,0:0:0:0:
317,274,7785,2,0,P|355:215|422:197,1,142.49999619484,6|0,3:2|0:0,0:0:0:0:
483,124,8642,2,0,L|511:65,2,47.4999987316132
395,85,9328,6,0,B|275:100|328:138|202:148,1,189.999994926453,6|0,3:2|0:0,0:0:0:0:
170,139,10185,1,0,0:0:0:0:
75,144,10528,2,0,P|32:163|11:204,1,94.9999974632264,6|0,3:2|0:0,0:0:0:0:
43,246,11042,1,0,0:0:0:0:
43,246,11214,2,0,P|85:265|106:306,1,94.9999974632264,6|0,3:2|3:2,0:0:0:0:
118,353,11728,1,10,0:0:0:0:
209,380,12071,5,6,3:2:0:0:
366,273,12757,1,6,3:2:0:0:
220,151,13442,1,6,3:2:0:0:
384,55,14128,1,6,3:2:0:0:
413,242,14814,6,0,P|409:264|405:288,2,47.4999987316132,14|10|10,3:2|0:0|0:0,0:0:0:0:
495,194,15500,2,0,P|497:166|505:130,2,47.4999987316132,10|10|10,0:0|0:0|0:0,0:0:0:0:
504,240,16014,1,10,0:0:0:0:
504,240,16185,1,0,0:0:0:0:
323,93,17042,1,0,3:2:0:0:
323,93,17214,1,10,0:0:0:0:
235,128,17557,6,0,L|226:182,1,47.4999987316132,6|2,3:2|0:0,0:0:0:0:
255,221,17900,1,2,3:2:0:0:
255,221,18071,2,0,P|306:232|334:282,2,94.9999974632264,10|2|2,0:0|0:0|0:0,0:0:0:0:
188,288,19100,1,10,0:0:0:0:
93,296,19442,2,0,P|41:284|13:234,1,94.9999974632264,2|2,0:0|0:0,0:0:0:0:
2,206,19957,1,2,3:2:0:0:
37,117,20300,6,0,L|20:69,2,47.4999987316132,2|2|2,3:2|0:0|3:2,0:0:0:0:
83,125,20814,1,10,0:0:0:0:
144,52,21157,1,2,0:0:0:0:
224,102,21500,2,0,P|235:147|216:190,1,94.9999974632264,2|2,0:0|0:0,0:0:0:0:
190,230,22014,1,0,3:2:0:0:
190,230,22185,1,2,0:0:0:0:
251,309,22528,1,2,0:0:0:0:
251,309,22700,2,0,L|297:301,1,47.4999987316132,2|10,3:2|0:0,0:0:0:0:
329,265,23042,6,0,L|375:257,1,47.4999987316132,6|2,3:2|0:0,0:0:0:0:
426,267,23385,1,2,3:2:0:0:
426,267,23557,2,0,P|448:313|482:353,2,94.9999974632264,10|2|2,0:0|0:0|0:0,0:0:0:0:
412,172,24585,1,10,0:0:0:0:
484,110,24928,1,2,0:0:0:0:
413,45,25271,2,0,L|423:-1,2,47.4999987316132,2|10|2,0:0|0:0|0:0,0:0:0:0:
369,50,25785,5,10,0:0:0:0:
369,50,25957,2,0,P|325:66|304:113,1,94.9999974632264,10|10,0:0|0:0,0:0:0:0:
302,155,26471,2,0,P|269:188|223:192,1,94.9999974632264,10|10,0:0|0:0,0:0:0:0:
185,162,26985,2,0,P|153:127|107:122,1,94.9999974632264,10|10,0:0|0:0,0:0:0:0:
62,137,27500,1,10,0:0:0:0:
5,269,28014,1,0,3:2:0:0:
5,269,28185,1,8,0:0:0:0:
87,317,28528,6,0,P|135:311|182:292,1,94.9999974632264,6|0,3:2|3:2,0:0:0:0:
218,319,29042,2,0,P|262:301|309:296,1,94.9999974632264,2|2,0:0|0:0,0:0:0:0:
354,323,29557,1,2,3:2:0:0:
354,323,29728,2,0,P|377:363|420:382,2,94.9999974632264,2|2|2,0:0|0:0|0:0,0:0:0:0:
400,239,30757,2,0,L|423:141,1,94.9999974632264,2|2,0:0|0:0,0:0:0:0:
438,102,31271,5,2,3:2:0:0:
362,53,31614,1,2,3:2:0:0:
362,53,31785,2,0,P|315:61|284:105,1,94.9999974632264,2|2,0:0|0:0,0:0:0:0:
240,180,32471,2,0,B|154:195|195:220|100:230,1,142.49999619484,2|2,0:0|3:2,0:0:0:0:
64,210,33157,2,0,P|22:173|22:124,1,94.9999974632264,2|10,0:0|0:0,0:0:0:0:
37,92,33671,1,2,3:2:0:0:
114,34,34014,6,0,L|211:49,1,94.9999974632264,2|0,3:2|3:2,0:0:0:0:
255,53,34528,1,2,0:0:0:0:
228,144,34871,2,0,L|238:199,1,47.4999987316132,2|2,0:0|3:2,0:0:0:0:
276,217,35214,2,0,P|330:226|379:259,1,94.9999974632264,2|2,0:0|0:0,0:0:0:0:
417,324,35900,1,2,0:0:0:0:
330,362,36242,2,0,P|276:353|227:320,1,94.9999974632264,2|0,0:0|0:0,0:0:0:0:
225,288,36757,6,0,P|171:297|122:330,1,94.9999974632264,2|2,3:2|3:2,0:0:0:0:
101,349,37271,1,2,0:0:0:0:
13,312,37614,1,2,0:0:0:0:
39,220,37957,2,0,P|49:168|58:104,1,94.9999974632264,2|10,0:0|0:0,0:0:0:0:
91,95,38471,1,4,0:3:0:0:
91,95,38642,1,2,3:2:0:0:
183,118,38985,2,0,P|234:108|269:73,1,94.9999974632264,2|0,3:2|0:0,0:0:0:0:
312,85,39500,6,0,L|323:179,1,94.9999974632264,6|8,3:2|0:0,0:0:0:0:
375,187,40014,1,2,0:0:0:0:
375,187,40185,2,0,L|386:281,1,94.9999974632264,2|10,3:2|0:0,0:0:0:0:
420,315,40700,2,0,P|467:317|518:336,2,94.9999974632264,2|2|2,0:0|0:0|0:0,0:0:0:0:
352,381,41728,2,0,P|304:378|253:359,1,94.9999974632264,2|2,0:0|0:0,0:0:0:0:
222,333,42242,5,2,3:2:0:0:
203,191,42757,2,0,P|167:134|85:136,1,142.49999619484,2|8,0:0|0:0,0:0:0:0:
59,157,43442,2,0,P|44:224|89:275,1,142.49999619484,2|8,0:0|0:0,0:0:0:0:
114,316,44128,2,0,P|167:307|211:309,1,94.9999974632264,2|2,0:0|0:0,0:0:0:0:
254,316,44642,1,10,0:0:0:0:
298,231,44985,6,0,P|308:184|309:137,1,94.9999974632264,6|8,3:2|0:0,0:0:0:0:
321,94,45500,1,2,0:0:0:0:
321,94,45671,2,0,P|360:70|406:81,1,94.9999974632264,2|8,3:2|0:0,0:0:0:0:
443,50,46185,2,0,P|483:72|496:117,1,94.9999974632264,2|2,0:0|0:0,0:0:0:0:
477,210,46871,1,2,0:0:0:0:
398,260,47214,1,8,0:3:0:0:
398,260,47385,2,0,L|392:325,1,47.4999987316132,8|0,0:0|0:0,0:0:0:0:
358,339,47728,6,0,L|252:321,1,94.9999974632264,6|8,3:2|0:0,0:0:0:0:
230,359,48242,2,0,L|124:341,1,94.9999974632264,6|8,3:2|0:0,0:0:0:0:
89,339,48757,1,6,3:2:0:0:
50,258,49100,1,8,0:0:0:0:
50,258,49271,2,0,P|54:211|86:177,1,94.9999974632264,6|8,3:2|0:0,0:0:0:0:
130,162,49785,1,2,3:2:0:0:
189,236,50128,1,10,0:0:0:0:
276,194,50471,5,10,0:0:0:0:
276,194,50642,2,0,L|295:88,1,94.9999974632264,10|10,0:0|0:0,0:0:0:0:
307,54,51157,1,10,0:0:0:0:
405,43,51500,1,10,0:0:0:0:
405,43,51671,2,0,P|446:63|467:105,1,94.9999974632264,10|10,0:0|0:0,0:0:0:0:
504,135,52185,2,0,P|462:155|441:197,1,94.9999974632264,10|8,0:0|0:3,0:0:0:0:
436,248,52700,1,0,3:2:0:0:
436,248,52871,1,10,0:0:0:0:
345,276,53214,6,0,P|306:276|237:266,1,94.9999974632264,6|2,3:2|3:2,0:0:0:0:
203,259,53728,1,2,0:0:0:0:
139,329,54071,1,2,0:0:0:0:
53,286,54414,2,0,P|18:250|11:200,2,94.9999974632264,10|10|2,0:0|0:0|0:0,0:0:0:0:
131,232,55442,2,0,P|121:186|88:152,1,94.9999974632264,6|0,3:2|0:0,0:0:0:0:
119,116,55957,5,10,0:0:0:0:
119,116,56128,2,0,L|229:102,1,94.9999974632264,10|10,0:0|0:0,0:0:0:0:
223,57,56642,2,0,L|333:43,1,94.9999974632264,10|10,0:0|0:0,0:0:0:0:
362,27,57157,1,10,0:0:0:0:
446,81,57500,1,10,0:0:0:0:
446,81,57671,2,0,P|445:133|407:177,1,94.9999974632264,10|8,0:0|0:3,0:0:0:0:
384,196,58185,1,0,3:2:0:0:
384,196,58357,1,10,0:0:0:0:
311,134,58700,5,6,3:2:0:0:
222,158,59042,1,2,3:2:0:0:
222,158,59214,2,0,P|196:197|197:244,1,94.9999974632264,2|2,0:0|0:0,0:0:0:0:
177,337,59900,2,0,P|132:354|86:365,2,94.9999974632264,10|10|2,0:0|0:0|3:2,0:0:0:0:
265,370,60928,2,0,P|309:352|355:341,1,94.9999974632264,6|0,3:2|0:0,0:0:0:0:
402,332,61442,6,0,L|419:229,1,94.9999974632264,6|10,3:2|0:0,0:0:0:0:
405,196,61957,1,10,0:0:0:0:
405,196,62128,2,0,L|418:137,2,47.4999987316132,8|8|8,0:0|0:0|0:0,0:0:0:0:
312,218,62814,1,8,0:0:0:0:
295,124,63157,2,0,L|282:65,1,47.4999987316132,10|8,0:0|0:0,0:0:0:0:
241,56,63500,2,0,P|193:51|147:42,1,94.9999974632264,10|10,0:0|0:0,0:0:0:0:
69,96,64185,6,0,P|60:150|86:189,1,94.9999974632264,14|2,0:0|3:2,0:0:0:0:
127,185,64700,2,0,P|148:226|138:272,1,94.9999974632264,8|0,0:3|3:2,0:0:0:0:
119,315,65214,1,12,0:0:0:0:
209,358,65557,1,0,3:2:0:0:
209,358,65728,2,0,P|262:345|318:325,1,94.9999974632264,4|0,0:3|3:2,0:0:0:0:
330,295,66242,2,0,L|329:247,2,47.4999987316132,4|2|10,0:3|3:2|0:0,0:0:0:0:
375,310,66757,1,6,3:2:0:0:
256,192,66928,12,0,68300,0:0:0:0:
297,263,69671,6,0,P|331:225|381:211,1,94.9999974632264,6|8,3:2|0:0,0:0:0:0:
469,195,70357,1,2,3:2:0:0:
469,195,70528,1,2,0:0:0:0:
425,110,70871,2,0,P|390:72|340:58,1,94.9999974632264,2|0,0:0|0:0,0:0:0:0:
301,59,71385,1,8,0:0:0:0:
263,146,71728,2,0,L|271:192,2,47.4999987316132,2|2|10,3:2|0:0|0:0,0:0:0:0:
167,148,72414,6,0,P|115:135|64:131,1,94.9999974632264,2|8,3:2|0:0,0:0:0:0:
10,203,73100,1,2,3:2:0:0:
10,203,73271,2,0,B|5:241|-4:266,1,47.4999987316132,2|8,0:0|0:0,0:0:0:0:
3,297,73614,2,0,P|32:334|93:339,1,94.9999974632264,2|2,0:0|0:0,0:0:0:0:
129,351,74128,1,10,0:0:0:0:
129,351,74300,2,0,P|158:313|219:308,1,94.9999974632264,2|0,0:0|0:0,0:0:0:0:
248,313,74814,1,10,0:0:0:0:
325,367,75157,5,6,3:2:0:0:
388,294,75500,2,0,B|394:246,1,47.4999987316132,10|0,0:0|0:0,0:0:0:0:
420,207,75842,2,0,P|466:200|510:182,1,94.9999974632264,2|10,3:2|0:0,0:0:0:0:
457,103,76528,2,0,P|410:96|366:78,1,94.9999974632264,2|10,3:2|0:0,0:0:0:0:
280,36,77214,1,2,3:2:0:0:
204,93,77557,1,10,0:0:0:0:
255,173,77900,6,0,L|264:227,1,47.4999987316132,0|0,3:2|3:2,0:0:0:0:
307,234,78242,2,0,P|357:241|395:288,1,94.9999974632264,14|0,0:0|3:2,0:0:0:0:
364,363,78928,2,0,P|313:368|264:333,1,94.9999974632264,14|0,0:0|3:2,0:0:0:0:
200,289,79614,2,0,P|153:294|118:325,1,94.9999974632264,14|6,0:0|3:2,0:0:0:0:
90,365,80128,1,10,0:0:0:0:
90,365,80300,1,10,0:0:0:0:
5,321,80642,6,0,L|0:213,1,94.9999974632264,6|8,3:2|0:0,0:0:0:0:
26,137,81328,1,2,3:2:0:0:
26,137,81500,1,2,0:0:0:0:
115,168,81842,2,0,L|119:262,1,94.9999974632264,2|0,0:0|0:0,0:0:0:0:
123,310,82357,1,8,0:0:0:0:
206,355,82700,2,0,P|228:352|252:346,1,47.4999987316132,2|2,3:2|0:0,0:0:0:0:
279,307,83042,2,0,P|302:301|325:298,1,47.4999987316132,10|2,0:0|0:0,0:0:0:0:
373,296,83385,6,0,L|396:185,1,94.9999974632264,6|8,3:2|0:0,0:0:0:0:
418,163,83900,1,6,3:2:0:0:
377,83,84242,1,8,0:0:0:0:
377,83,84414,2,0,B|277:93|330:120|225:134,1,142.49999619484,6|2,3:2|3:2,0:0:0:0:
201,130,85100,1,8,0:0:0:0:
201,130,85271,1,6,3:2:0:0:
149,49,85614,6,0,L|164:3,2,47.4999987316132,2|10|2,3:2|0:0|0:0,0:0:0:0:
106,62,86128,1,4,3:2:0:0:
106,62,86300,2,0,L|91:107,1,47.4999987316132,2|2,0:0|3:2,0:0:0:0:
81,153,86642,1,2,0:0:0:0:
135,230,86985,2,0,P|156:237|181:239,2,47.4999987316132,2|2|10,0:0|3:2|0:0,0:0:0:0:
45,262,87671,2,0,P|22:254|-1:253,2,47.4999987316132,10|2|2,0:0|3:2|0:0,0:0:0:0:
102,337,88357,6,0,L|94:392,2,47.4999987316132,2|2|10,0:0|3:2|0:0,0:0:0:0:
151,327,88871,1,4,3:2:0:0:
151,327,89042,2,0,L|198:318,1,47.4999987316132,2|2,0:0|3:2,0:0:0:0:
244,309,89385,1,2,0:0:0:0:
268,217,89728,2,0,P|262:194|252:172,2,47.4999987316132,2|2|10,0:0|3:2|0:0,0:0:0:0:
349,265,90414,2,0,P|359:286|364:309,2,47.4999987316132,10|2|2,0:0|3:2|0:0,0:0:0:0:
397,182,91100,6,0,L|446:173,1,47.4999987316132,2|2,0:0|3:2,0:0:0:0:
494,170,91442,1,10,0:0:0:0:
494,170,91614,1,6,3:2:0:0:
510,76,91957,1,2,3:2:0:0:
430,24,92300,2,0,L|383:15,1,47.4999987316132,10|8,0:0|0:3,0:0:0:0:
353,52,92642,2,0,L|306:43,1,47.4999987316132,4|4,0:3|0:3,0:0:0:0:
259,33,92985,5,6,3:2:0:0:
195,212,93671,1,6,3:2:0:0:
32,113,94357,2,0,P|24:91|19:67,2,47.4999987316132,6|10|10,3:2|0:0|0:0,0:0:0:0:
79,195,95042,2,0,P|71:217|66:240,2,47.4999987316132,10|10|10,0:0|0:0|0:0,0:0:0:0:
123,173,95557,1,10,0:0:0:0:
123,173,95728,1,0,0:0:0:0:
333,59,96585,1,0,3:2:0:0:
333,59,96757,1,10,0:0:0:0:
408,117,97100,6,0,P|413:140|414:163,1,47.4999987316132,6|2,3:2|0:0,0:0:0:0:
411,215,97442,1,2,3:2:0:0:
411,215,97614,2,0,P|372:242|326:250,2,94.9999974632264,10|2|2,0:0|0:0|0:0,0:0:0:0:
492,265,98642,1,10,0:0:0:0:
436,342,98985,2,0,P|391:358|344:354,1,94.9999974632264,2|2,0:0|0:0,0:0:0:0:
297,346,99500,1,2,3:2:0:0:
230,278,99842,6,0,L|245:233,2,47.4999987316132,2|2|2,3:2|0:0|3:2,0:0:0:0:
187,298,100357,1,10,0:0:0:0:
109,353,100700,1,2,0:0:0:0:
41,286,101042,2,0,L|31:177,1,94.9999974632264,2|10,0:0|0:0,0:0:0:0:
14,153,101557,1,0,3:2:0:0:
14,153,101728,1,2,0:0:0:0:
82,87,102071,1,2,0:0:0:0:
82,87,102242,2,0,P|104:79|128:85,1,47.4999987316132,2|10,3:2|0:0,0:0:0:0:
162,116,102585,6,0,P|184:123|208:117,1,47.4999987316132,6|2,3:2|0:0,0:0:0:0:
255,103,102928,1,2,3:2:0:0:
255,103,103100,2,0,P|242:45|238:-4,2,94.9999974632264,10|2|2,0:0|0:0|0:0,0:0:0:0:
284,193,104128,1,10,0:0:0:0:
217,261,104471,1,2,0:0:0:0:
282,330,104814,2,0,L|272:376,2,47.4999987316132,2|10|2,0:0|0:0|0:0,0:0:0:0:
328,313,105328,5,10,0:0:0:0:
329,313,105500,2,0,P|370:291|386:248,1,94.9999974632264,10|10,0:0|0:0,0:0:0:0:
375,200,106014,2,0,P|333:178|317:135,1,94.9999974632264,10|10,0:0|0:0,0:0:0:0:
326,88,106528,2,0,P|361:58|407:60,1,94.9999974632264,10|10,0:0|0:0,0:0:0:0:
453,73,107042,1,10,0:0:0:0:
502,154,107385,2,0,L|512:200,2,47.4999987316132,8|8|4,0:0|0:3|0:3,0:0:0:0:
415,190,108071,5,14,0:0:0:0:
415,190,108242,2,0,L|318:204,1,94.9999974632264,10|10,0:0|0:0,0:0:0:0:
308,249,108757,2,0,L|214:263,1,94.9999974632264,10|10,0:0|0:0,0:0:0:0:
208,216,109271,2,0,L|114:201,1,94.9999974632264,10|10,0:0|0:0,0:0:0:0:
66,199,109785,1,10,0:0:0:0:
1,129,110128,2,0,L|13:76,1,47.4999987316132,8|0,0:3|3:2,0:0:0:0:
28,38,110471,1,8,0:0:0:0:
216,61,111157,5,6,3:2:0:0:
256,192,111328,12,0,117671,0:0:0:0:
