osu file format v14

[General]
AudioFilename: audio.mp3
AudioLeadIn: 0
PreviewTime: 68814
Countdown: 0
SampleSet: Soft
StackLeniency: 0.6
Mode: 0
LetterboxInBreaks: 0
WidescreenStoryboard: 0

[Editor]
DistanceSpacing: 1
BeatDivisor: 4
GridSize: 16
TimelineZoom: 2

[Metadata]
Title:BEYOND THE STARLIGHT
TitleUnicode:BEYOND THE STARLIGHT
Artist:Yamamoto Nozomi, Yamashita Nanami, Fuchigami Mai, Oozora Naomi, Toyama Nao
ArtistUnicode:山本希望、山下七海、渕上舞、大空直美、東山奈央
Creator:Shunao
Version:Easy
Source:アイドルマスター シンデレラガールズ スターライトステージ
Tags:imas im@s idolmaster shogunmoon lafayla _meep_ sanairrt mordred elcheer lit120 THE iDOLM@STER Cinderella Girls Starlight Stage 1st anniversary Rika Jougasaki Chieri Ogata Karen Hojo Mizuki Kawashima Yui Ohtsuki 城ヶ崎莉嘉 緒方智絵里 北条加蓮 川島瑞樹 大槻唯 touyama japanese pop jpop j-pop
BeatmapID:1724731
BeatmapSetID:822974

[Difficulty]
HPDrainRate:2
CircleSize:3
OverallDifficulty:2
ApproachRate:3
SliderMultiplier:0.9
SliderTickRate:1

[Events]
//Background and Video events
0,0,"1.jpg",0,0
//Break Periods
//Storyboard Layer 0 (Background)
//Storyboard Layer 1 (Fail)
//Storyboard Layer 2 (Pass)
//Storyboard Layer 3 (Foreground)
//Storyboard Layer 4 (Overlay)
//Storyboard Sound Samples

[TimingPoints]
1100,342.857142857143,4,2,12,60,1,0
3157,-100,4,2,13,60,0,0
3842,-100,4,2,12,60,0,0
6585,-100,4,2,10,60,0,0
69671,-100,4,2,10,80,0,1
86128,-100,4,2,10,60,0,1
95728,-100,4,2,10,60,0,0
114928,-100,4,2,10,50,0,0
115614,-100,4,2,10,40,0,0
116300,-100,4,2,10,30,0,0
116642,-100,4,2,10,25,0,0
116985,-100,4,2,10,20,0,0
117328,-100,4,2,10,10,0,0
117671,-100,4,2,10,5,0,0

[Colours]
Combo1 : 255,192,0
Combo2 : 220,163,163
Combo3 : 199,24,24
Combo4 : 216,84,192

[HitObjects]
254,78,1100,6,0,P|319:73|373:18,2,135,10|10|10,0:0|0:0|0:0,0:0:0:0:
124,39,2642,2,0,L|133:176,1,135,10|10,0:0|0:0,0:0:0:0:
66,341,3842,6,0,B|121:316|169:343|169:343|199:324|199:324|253:381|356:398|410:347|436:260|345:165|259:234,1,540,10|0,0:0|0:0,0:0:0:0:
150,92,6585,6,0,B|297:29|291:169|460:102,1,315,6|6,3:2|3:2,0:0:0:0:
53,35,9328,6,0,B|31:130|31:130|74:236|74:236|52:339,1,315,6|6,3:2|3:2,0:0:0:0:
228,374,11214,2,0,L|218:227,1,135,6|10,3:2|0:0,0:0:0:0:
167,165,12071,6,0,P|78:169|16:108,2,180,6|6|6,3:2|3:2|3:2,0:0:0:0:
310,55,14128,1,6,3:2:0:0:
483,104,14814,6,0,L|475:212,1,90,14|10,3:2|0:0,0:0:0:0:
502,280,15500,1,10,0:0:0:0:
457,358,15842,1,10,0:0:0:0:
367,369,16185,5,0,0:0:0:0:
131,235,17214,1,10,0:0:0:0:
68,170,17557,6,0,P|117:146|193:171,1,135,6|10,3:2|0:0,0:0:0:0:
274,200,18414,2,0,L|268:302,1,90,2|2,0:0|0:0,0:0:0:0:
337,348,19100,1,10,0:0:0:0:
415,304,19442,2,0,L|406:153,1,135,2|2,0:0|3:2,0:0:0:0:
338,110,20300,6,0,P|401:123|465:81,1,135,2|10,3:2|0:0,0:0:0:0:
388,33,21157,2,0,P|344:20|297:17,1,90,2|2,0:0|0:0,0:0:0:0:
210,22,21842,1,2,0:0:0:0:
123,46,22185,2,0,B|96:75|96:75|105:172,1,135,2|2,0:0|3:2,0:0:0:0:
184,211,23042,6,0,P|249:192|311:237,1,135,6|10,3:2|0:0,0:0:0:0:
378,274,23900,2,0,L|367:381,1,90,2|2,0:0|0:0,0:0:0:0:
278,369,24585,1,10,0:0:0:0:
190,346,24928,2,0,B|121:320|125:372|49:347,1,135,2|10,0:0|0:0,0:0:0:0:
4,278,25785,5,10,0:0:0:0:
10,142,26300,1,10,0:0:0:0:
94,36,26814,1,10,0:0:0:0:
228,31,27328,1,10,0:0:0:0:
437,113,28185,1,8,0:0:0:0:
389,189,28528,6,0,P|331:177|239:181,1,135,6|2,3:2|0:0,0:0:0:0:
173,214,29385,2,0,P|180:263|184:318,1,90,2|2,0:0|0:0,0:0:0:0:
244,369,30071,1,2,0:0:0:0:
331,346,30414,2,0,P|396:319|461:348,1,135,2|0,0:0|3:2,0:0:0:0:
507,268,31271,6,0,L|498:130,1,135,2|2,3:2|0:0,0:0:0:0:
483,44,32128,1,2,0:0:0:0:
393,48,32471,2,0,P|349:54|297:33,1,90,2|0,0:0|0:0,0:0:0:0:
219,15,33157,2,0,L|229:160,1,135,2|2,0:0|3:2,0:0:0:0:
139,166,34014,6,0,P|75:151|15:182,1,135,2|2,3:2|0:0,0:0:0:0:
3,270,34871,2,0,L|9:369,1,90,2|2,0:0|0:0,0:0:0:0:
97,372,35557,1,2,0:0:0:0:
185,355,35900,2,0,B|255:328|248:388|333:363,1,135,2|0,0:0|0:0,0:0:0:0:
403,349,36757,6,0,P|382:284|412:215,1,135,2|2,3:2|0:0,0:0:0:0:
473,166,37614,1,2,0:0:0:0:
460,76,37957,2,0,L|366:69,1,90,2|4,0:0|0:3,0:0:0:0:
289,29,38642,1,2,3:2:0:0:
202,55,38985,1,2,3:2:0:0:
194,189,39500,6,0,P|149:185|100:204,1,90,6|8,3:2|0:0,0:0:0:0:
19,218,40185,2,0,L|9:84,1,135,2|2,3:2|0:0,0:0:0:0:
72,19,41042,1,2,0:0:0:0:
161,10,41385,1,2,0:0:0:0:
233,62,41728,1,2,0:0:0:0:
255,194,42242,6,0,L|391:183,1,135,2|2,3:2|0:0,0:0:0:0:
468,138,43100,1,0,0:0:0:0:
506,219,43442,2,0,P|517:265|508:320,1,90,2|2,0:0|0:0,0:0:0:0:
449,372,44128,2,0,L|295:361,1,135,2|10,0:0|0:0,0:0:0:0:
237,316,44985,6,0,L|137:324,1,90,6|8,3:2|0:0,0:0:0:0:
61,294,45671,2,0,P|34:240|64:159,1,135,2|2,3:2|0:0,0:0:0:0:
103,96,46528,1,2,0:0:0:0:
188,124,46871,2,0,L|293:116,1,90,2|8,0:0|0:3,0:0:0:0:
411,96,47728,6,0,P|446:43|515:29,2,135,14|6|6,3:2|3:2|3:2,0:0:0:0:
343,212,49271,2,0,L|351:363,1,135,6|2,3:2|3:2,0:0:0:0:
263,371,50128,1,10,0:0:0:0:
174,356,50471,5,10,0:0:0:0:
39,347,50985,1,10,0:0:0:0:
6,215,51500,1,10,0:0:0:0:
127,156,52014,1,10,0:0:0:0:
231,240,52528,2,0,P|274:251|324:233,1,90,8|10,0:3|0:0,0:0:0:0:
391,188,53214,6,0,L|382:52,1,135,6|2,3:2|0:0,0:0:0:0:
303,10,54071,1,2,0:0:0:0:
225,55,54414,2,0,P|181:60|137:42,1,90,10|10,0:0|0:0,0:0:0:0:
49,31,55100,2,0,L|54:129,1,90,2|6,0:0|3:2,0:0:0:0:
63,255,55957,5,10,0:0:0:0:
148,359,56471,1,10,0:0:0:0:
282,373,56985,1,10,0:0:0:0:
409,327,57500,1,10,0:0:0:0:
496,224,58014,2,0,L|501:124,1,90,8|10,0:3|0:0,0:0:0:0:
449,59,58700,6,0,P|392:41|328:76,1,135,6|2,3:2|0:0,0:0:0:0:
264,137,59557,1,2,0:0:0:0:
192,191,59900,2,0,L|97:183,1,90,10|10,0:0|0:0,0:0:0:0:
79,96,60585,2,0,L|172:89,1,90,2|6,3:2|3:2,0:0:0:0:
286,22,61442,6,0,L|390:30,1,90,6|10,3:2|0:0,0:0:0:0:
465,38,62128,2,0,P|481:79|468:132,1,90,8|8,0:0|0:0,0:0:0:0:
390,160,62814,2,0,P|374:201|387:254,1,90,8|10,0:0|0:0,0:0:0:0:
459,291,63500,1,10,0:0:0:0:
412,367,63842,1,10,0:0:0:0:
322,372,64185,6,0,L|176:360,1,135,14|8,0:0|0:3,0:0:0:0:
55,330,65214,2,0,B|36:289|36:289|62:187,1,135,12|4,0:0|0:3,0:0:0:0:
102,74,66242,1,4,0:3:0:0:
256,192,66757,12,0,68300,0:0:0:0:
23,28,69671,6,0,L|30:131,1,90,6|8,3:2|0:0,0:0:0:0:
84,188,70357,2,0,P|137:159|214:181,2,135,2|2|8,3:2|0:0|0:0,0:0:0:0:
28,259,71728,1,2,3:2:0:0:
57,344,72071,1,10,0:0:0:0:
147,345,72414,6,0,P|192:339|244:346,1,90,2|8,3:2|0:0,0:0:0:0:
325,356,73100,1,2,3:2:0:0:
458,338,73614,2,0,L|453:234,1,90,2|2,0:0|0:0,0:0:0:0:
508,175,74300,2,0,P|445:195|377:163,1,135,2|10,0:0|0:0,0:0:0:0:
333,95,75157,6,0,L|236:89,1,90,6|10,3:2|0:0,0:0:0:0:
180,25,75842,1,2,3:2:0:0:
89,26,76185,1,10,0:0:0:0:
22,86,76528,2,0,P|11:128|28:180,1,90,2|10,3:2|0:0,0:0:0:0:
98,220,77214,2,0,L|89:313,1,90,2|10,3:2|0:0,0:0:0:0:
168,353,77900,5,0,3:2:0:0:
257,352,78242,2,0,P|302:351|346:330,1,90,14|0,0:0|3:2,0:0:0:0:
396,259,78928,2,0,L|388:161,1,90,14|0,0:0|3:2,0:0:0:0:
442,96,79614,1,14,0:0:0:0:
399,16,79957,1,6,3:2:0:0:
309,19,80300,1,10,0:0:0:0:
241,78,80642,6,0,L|249:180,1,90,6|8,3:2|0:0,0:0:0:0:
187,234,81328,2,0,P|130:207|51:236,2,135,2|2|8,3:2|0:0|0:0,0:0:0:0:
218,318,82699,1,2,3:2:0:0:
300,354,83042,1,10,0:0:0:0:
389,345,83385,5,6,3:2:0:0:
487,252,83900,1,6,3:2:0:0:
409,141,84414,2,0,P|343:141|297:202,1,135,6|2,3:2|3:2,0:0:0:0:
221,234,85271,2,0,L|212:84,1,135,6|10,3:2|0:0,0:0:0:0:
281,37,86128,6,0,P|322:47|377:33,2,90,4|2|8,3:2|3:2|0:0,0:0:0:0:
194,11,87157,1,2,3:2:0:0:
113,51,87499,2,0,L|122:158,1,90,0|2,3:2|3:2,0:0:0:0:
182,206,88185,2,0,L|175:308,1,90,8|2,0:0|3:2,0:0:0:0:
95,335,88871,6,0,P|53:318|0:323,2,90,4|2|8,3:2|3:2|0:0,0:0:0:0:
175,375,89900,1,2,3:2:0:0:
257,339,90242,2,0,L|265:237,1,90,0|2,3:2|3:2,0:0:0:0:
333,191,90928,2,0,L|325:88,1,90,8|2,0:0|3:2,0:0:0:0:
384,32,91614,6,0,P|427:20|479:39,1,90,6|2,3:2|3:2,0:0:0:0:
509,113,92300,1,10,0:0:0:0:
495,201,92642,1,4,0:3:0:0:
480,289,92985,2,0,B|420:283|420:283|359:302|359:302|288:294,1,180,6|6,3:2|3:2,0:0:0:0:
130,243,94357,6,0,L|34:250,1,90,6|10,3:2|0:0,0:0:0:0:
0,168,95042,1,10,0:0:0:0:
30,83,95385,1,10,0:0:0:0:
118,66,95728,1,0,0:0:0:0:
362,180,96757,1,10,0:0:0:0:
307,251,97100,6,0,P|246:264|181:234,1,135,6|10,3:2|0:0,0:0:0:0:
112,177,97957,2,0,L|121:78,1,90,2|2,0:0|0:0,0:0:0:0:
182,21,98643,1,10,0:0:0:0:
266,51,98985,2,0,B|338:25|331:82|416:58,1,135,2|2,0:0|3:2,0:0:0:0:
486,58,99843,6,0,L|476:200,1,135,2|10,3:2|0:0,0:0:0:0:
395,232,100700,2,0,P|352:224|301:236,1,90,2|2,0:0|0:0,0:0:0:0:
233,285,101385,1,10,0:0:0:0:
162,341,101728,2,0,B|18:326,1,135,2|2,0:0|3:2,0:0:0:0:
5,239,102585,6,0,L|147:227,1,135,6|10,3:2|0:0,0:0:0:0:
216,179,103442,2,0,P|228:140|214:89,1,90,2|2,0:0|0:0,0:0:0:0:
157,24,104128,1,10,0:0:0:0:
68,38,104471,2,0,B|35:64|35:64|41:163,1,135,2|10,0:0|0:0,0:0:0:0:
44,246,105328,5,10,0:0:0:0:
112,362,105843,1,10,0:0:0:0:
246,375,106357,1,10,0:0:0:0:
378,352,106871,1,10,0:0:0:0:
451,299,107214,2,0,L|443:152,1,135,8|4,0:0|0:3,0:0:0:0:
435,74,108071,5,14,0:0:0:0:
324,1,108585,1,10,0:0:0:0:
215,81,109100,1,10,0:0:0:0:
258,208,109614,1,10,0:0:0:0:
161,301,110128,2,0,P|118:294|76:264,1,90,8|8,0:3|0:0,0:0:0:0:
7,102,111157,5,6,3:2:0:0:
256,192,111242,12,0,117671,0:0:0:0:
