osu file format v14

[General]
AudioFilename: audio.mp3
AudioLeadIn: 0
PreviewTime: 196906
Countdown: 0
SampleSet: Soft
StackLeniency: 0.7
Mode: 0
LetterboxInBreaks: 0
WidescreenStoryboard: 1

[Editor]
Bookmarks: 12048,22957,33866,44775,61139,81593,93866,104775,115684,132048,153866,164775,175684,186593,197502,197587,197758,197928,198099,198269,198354,198440,198610,198695,198781,198866,198951,199121,199207,199292,199377,199548,199633,199718,199803,199889,199974,200144,200229,200315,200400,200485,200656,200741,200826,200911,201082,201167,201252,201337,201423,201508,201593,201678,201764,201849,201934,202019,202104,202190,202275,202360,202445,202531,202616,202786,202871,202957,203127,203212,203383,203468,203553,203724,203809,203894,204065,204150,204320,204406,204491,204661,204746,204832,205002,205087,205173,205343,205428,205599,205684,205769,205940,206025,206195,206281,206451,206536,206707,206792,206877,207048,207218,207303,207389,207559,207644,207815,207900,208070,208411,219320,241139,254775,260400
DistanceSpacing: 1.3
BeatDivisor: 4
GridSize: 32
TimelineZoom: 0.7999998

[Metadata]
Title:Shiroi Sakura Saite
TitleUnicode:白いサクラ咲いて
Artist:Yamamoto Mineko
ArtistUnicode:山本美禰子
Creator:Kowari
Version:Insane
Source:アストラエアの白き永遠 Finale -白き星の夢-
Tags:fuyuyu- Mamayu Kanau Silky Shizuku- Kazato Asa -_Ex_- ending ed favorite full ver version galgame eroge visual novel astral air no shiroki towa of white eternity grand finale shiroki hoshi no yume star's dream japanese video game j-pop jpop memories
BeatmapID:2722837
BeatmapSetID:1313749

[Difficulty]
HPDrainRate:5
CircleSize:4
OverallDifficulty:8
ApproachRate:8.5
SliderMultiplier:1.6
SliderTickRate:1

[Events]
//Background and Video events
0,0,"Yuuki.jpg",0,0
//Break Periods
2,197702,207395
//Storyboard Layer 0 (Background)
//Storyboard Layer 1 (Fail)
//Storyboard Layer 2 (Pass)
//Storyboard Layer 3 (Foreground)
//Storyboard Layer 4 (Overlay)
//Storyboard Sound Samples

[TimingPoints]
1139,340.909090909091,4,2,1,50,1,0
1139,-133.333333333333,4,2,1,50,0,0
11707,-100,4,2,1,60,0,0
11962,-100,4,2,1,5,0,0
12048,-90.9090909090909,4,2,1,70,0,0
22957,-133.333333333333,4,2,1,50,0,0
33184,-111.111111111111,4,2,1,50,0,0
33525,-100,4,2,1,60,0,0
33866,-111.111111111111,4,2,1,65,0,0
44775,-100,4,2,1,70,0,0
50229,-100,4,2,1,65,0,0
59775,-133.333333333333,4,2,1,65,0,0
60798,-100,4,2,1,65,0,0
61139,-83.3333333333333,4,2,1,80,0,1
71707,-100,4,2,1,80,0,0
72048,-83.3333333333333,4,2,1,80,0,1
81593,-100,4,2,1,80,0,0
82616,-100,4,2,1,80,0,0
82957,-90.9090909090909,4,2,1,70,0,0
93866,-125,4,2,1,60,0,0
104093,-100,4,2,1,60,0,0
104775,-111.111111111111,4,2,1,65,0,0
115684,-100,4,2,1,70,0,0
121139,-100,4,2,1,65,0,0
129320,-100,4,2,1,70,0,0
131366,-83.3333333333333,4,2,1,70,0,0
132048,-83.3333333333333,4,2,1,80,0,1
142616,-100,4,2,1,80,0,0
142957,-83.3333333333333,4,2,1,80,0,1
153866,-90.9090909090909,4,2,1,80,0,0
163411,-76.9230769230769,4,2,1,80,0,0
164775,-90.9090909090909,4,2,1,80,0,0
175684,-100,4,2,1,70,0,0
183866,-111.111111111111,4,2,1,70,0,0
186593,-100,4,2,1,70,0,0
197502,-142.857142857143,4,2,1,70,0,0
208070,-111.111111111111,4,2,1,70,0,0
208411,-111.111111111111,4,2,1,60,0,0
213866,-100,4,2,1,65,0,0
216593,-100,4,2,1,70,0,0
219320,-125,4,2,1,70,0,0
221707,-76.9230769230769,4,2,1,70,0,0
222048,-83.3333333333333,4,2,1,80,0,1
229889,-100,4,2,1,80,0,0
230229,-83.3333333333333,4,2,1,80,0,1
241139,-90.9090909090909,4,2,1,70,0,0
254775,-312.5,4,2,1,70,0,0
260400,-100,4,2,1,10,0,0

[Colours]
Combo1 : 250,180,240
Combo2 : 120,200,230
Combo3 : 255,230,130
Combo4 : 160,230,150

[HitObjects]
474,341,1139,6,0,P|501:276|487:220,1,120.000004577637,2|2,0:3|0:3,0:0:0:0:
418,182,1650,1,2,0:3:0:0:
418,182,1991,2,0,L|347:195,2,60.0000022888184,2|0|2,0:3|0:3|0:3,0:0:0:0:
464,97,2502,1,0,0:3:0:0:
272,18,2843,6,0,P|256:58|271:134,2,120.000004577637,2|2|2,0:3|0:3|0:3,0:0:0:0:
472,79,3866,2,0,L|477:145,1,60.0000022888184,2|0,0:3|0:0,0:0:0:0:
379,50,4207,1,2,0:3:0:0:
379,50,4377,2,0,L|366:184,1,120.000004577637,2|2,0:3|0:3,0:0:0:0:
438,241,4889,1,2,0:3:0:0:
367,308,5059,6,0,B|325:321|325:321|246:283,1,120.000004577637,2|2,0:3|0:3,0:0:0:0:
176,245,5570,1,2,0:3:0:0:
217,162,5741,2,0,B|259:149|259:149|338:187,1,120.000004577637,2|2,0:3|0:3,0:0:0:0:
422,151,6252,2,0,P|434:116|428:83,1,60.0000022888184,2|2,0:3|0:3,0:0:0:0:
339,16,6593,6,0,L|214:31,1,120.000004577637,2|2,0:3|0:3,0:0:0:0:
124,40,7104,2,0,P|102:79|114:163,1,120.000004577637,2|0,0:3|0:3,0:0:0:0:
196,323,7786,5,2,0:3:0:0:
253,246,7957,2,0,B|278:215|278:215|373:229,1,120.000004577637,2|2,0:3|0:3,0:0:0:0:
438,313,8468,2,0,P|463:258|449:195,1,120.000004577637,2|0,0:3|0:3,0:0:0:0:
363,166,8979,2,0,L|356:238,1,60.0000022888184,2|2,0:3|0:3,0:0:0:0:
344,342,9320,1,2,0:3:0:0:
256,192,9406,12,0,10684,0:0:0:0:
109,341,11536,5,4,0:3:0:0:
109,341,11707,2,0,P|64:336|52:259,1,120,8|0,1:3|0:0,0:0:0:0:
16,182,12048,6,0,B|115:157|92:225|192:202,1,176.000005371094,4|8,1:2|0:0,0:0:0:0:
277,64,12559,2,0,L|175:80,1,88.000002685547,4|0,1:2|0:0,0:0:0:0:
322,167,12900,1,0,1:0:0:0:
388,50,13070,1,8,0:0:0:0:
388,50,13241,1,0,1:0:0:0:
487,176,13411,6,0,B|506:195|516:217|516:217|510:284|463:348,1,176.000005371094,4|8,1:2|0:0,0:0:0:0:
360,384,13923,2,0,L|350:279,1,88.000002685547,4|0,1:2|0:0,0:0:0:0:
228,354,14264,1,0,1:0:0:0:
228,354,14434,2,0,L|238:249,1,88.000002685547,8|0,0:0|0:0,0:0:0:0:
318,142,14775,6,0,P|271:107|155:117,1,176.000005371094,4|8,1:2|0:0,0:0:0:0:
17,225,15286,2,0,L|113:237,1,88.000002685547,4|0,1:2|0:0,0:0:0:0:
248,266,15627,1,0,1:0:0:0:
110,348,15798,1,8,0:0:0:0:
240,383,15968,1,2,1:0:0:0:
240,383,16309,5,2,1:0:0:0:
134,243,16479,1,8,0:0:0:0:
271,269,16650,2,0,P|285:219|279:165,1,88.000002685547,2|0,1:0|0:0,0:0:0:0:
208,39,16991,1,8,0:0:0:0:
208,39,17076,1,8,0:0:0:0:
208,39,17161,1,8,0:0:0:0:
208,39,17246,1,8,0:0:0:0:
208,39,17332,1,8,0:3:0:0:
208,39,17417,1,4,0:3:0:0:
208,39,17502,6,0,B|246:76|246:76|370:50,1,176.000005371094,6|8,1:2|0:2,0:0:0:0:
508,103,18014,1,2,0:0:0:0:
508,103,18099,1,2,0:0:0:0:
508,103,18184,2,0,P|525:150|518:195,1,88.000002685547,0|2,1:0|1:0,0:0:0:0:
388,251,18525,2,0,P|371:204|378:159,1,88.000002685547,10|0,0:0|0:0,0:0:0:0:
486,319,18866,5,2,1:0:0:0:
416,379,19036,2,0,L|319:385,1,88.000002685547,2|10,1:0|0:0,0:0:0:0:
153,294,19377,2,0,B|179:346|226:341|226:341|250:292|309:287,1,176.000005371094,2|0,1:0|1:0,0:0:0:0:
229,97,19889,2,0,P|209:150|222:194,1,88.000002685547,8|0,0:0|1:0,0:0:0:0:
227,193,20144,1,0,1:0:0:0:
243,202,20229,6,0,L|347:191,1,88.000002685547,4|0,1:2|1:0,0:0:0:0:
483,127,20570,1,8,0:0:0:0:
456,36,20741,2,0,P|394:10|276:36,1,176.000005371094,4|0,1:2|1:0,0:0:0:0:
173,14,21252,2,0,L|190:117,1,88.000002685547,8|0,0:0|1:0,0:0:0:0:
218,235,21593,5,6,1:2:0:0:
218,235,21764,1,0,1:0:0:0:
87,197,21934,1,8,0:0:0:0:
87,197,22104,1,0,1:0:0:0:
179,347,22275,1,10,0:0:0:0:
48,309,22445,1,4,1:3:0:0:
0,221,22616,5,8,0:3:0:0:
0,199,22701,1,8,0:3:0:0:
3,177,22786,1,4,0:3:0:0:
13,157,22871,1,4,0:3:0:0:
26,140,22956,1,4,1:2:0:0:
167,89,23809,5,2,0:3:0:0:
167,89,23979,2,0,L|239:95,1,60.0000022888184,2|0,0:3|0:0,0:0:0:0:
314,25,24320,2,0,P|326:77|300:149,1,120.000004577637,2|2,1:3|0:3,0:0:0:0:
429,197,24832,2,0,P|417:145|443:73,2,120.000004577637,2|2|0,0:3|0:3|0:0,0:0:0:0:
503,264,25684,1,0,3:0:0:0:
503,264,26536,5,2,0:3:0:0:
453,338,26707,2,0,L|380:347,1,60.0000022888184,2|0,0:3|0:0,0:0:0:0:
321,269,27048,2,0,B|262:256|261:300|187:277,1,120.000004577637,2|2,1:3|0:3,0:0:0:0:
117,356,27559,2,0,B|93:325|93:325|110:236,1,120.000004577637,2|2,0:3|0:3,0:0:0:0:
191,184,28070,2,0,L|201:122,1,60.0000022888184
216,31,28411,1,0,3:0:0:0:
216,31,29264,5,2,0:3:0:0:
216,31,29434,2,0,P|176:21|145:25,1,60.0000022888184,2|0,0:3|0:0,0:0:0:0:
42,70,29775,2,0,B|37:137|75:125|61:193,1,120.000004577637,2|2,1:3|0:3,0:0:0:0:
73,291,30286,2,0,L|8:280,1,60.0000022888184,2|0,0:3|0:0,0:0:0:0:
154,374,30627,2,0,L|94:384,1,60.0000022888184,2|0,0:3|0:0,0:0:0:0:
198,261,30968,5,0,0:0:0:0:
261,324,31139,2,0,P|316:348|382:333,1,120.000004577637,2|0,3:2|0:0,0:0:0:0:
486,233,31650,2,0,P|431:209|365:224,1,120.000004577637,2|0,0:3|0:0,0:0:0:0:
261,324,32161,6,0,L|271:198,1,120.000004577637,2|0,0:3|1:0,0:0:0:0:
161,276,32673,1,2,0:3:0:0:
161,276,32843,2,0,L|156:212,1,60.0000022888184,0|0,1:0|0:0,0:0:0:0:
124,72,33184,1,0,3:3:0:0:
124,72,33269,1,0,3:3:0:0:
124,72,33354,1,2,3:1:0:0:
207,13,33525,2,0,P|246:2|268:70,1,120,8|0,1:2|0:0,0:0:0:0:
208,137,33866,6,0,P|271:162|353:130,1,143.999995605469,6|0,1:2|1:0,0:0:0:0:
450,59,34377,2,0,B|477:95|477:95|455:203,1,143.999995605469,2|2,0:3|0:3,0:0:0:0:
380,315,34889,2,0,P|370:270|374:233,1,71.9999978027344,2|2,1:3|0:3,0:0:0:0:
290,362,35229,6,0,B|211:336|220:394|142:364,1,143.999995605469,2|2,1:3|1:3,0:0:0:0:
81,276,35741,1,2,3:0:0:0:
81,276,35826,1,0,3:0:0:0:
81,276,35911,2,0,L|154:265,1,71.9999978027344,0|2,1:3|0:3,0:0:0:0:
253,164,36252,2,0,P|203:167|176:104,1,107.999996704102,8|0,0:2|0:0,0:0:0:0:
245,73,36593,6,0,L|396:49,1,143.999995605469,6|0,1:2|1:0,0:0:0:0:
482,142,37104,2,0,P|430:186|346:184,1,143.999995605469,2|2,0:0|0:3,0:0:0:0:
254,270,37616,2,0,L|258:194,1,71.9999978027344,2|2,1:3|0:3,0:0:0:0:
185,54,37957,6,0,B|202:71|215:102|215:102|167:124|165:171,1,143.999995605469,2|2,1:3|1:3,0:0:0:0:
44,231,38468,2,0,P|35:173|46:134,1,71.9999978027344,2|0,0:3|1:3,0:0:0:0:
111,331,38809,1,2,0:3:0:0:
185,285,38979,2,0,P|224:271|294:272,1,107.999996704102,8|0,0:0|3:0,0:0:0:0:
352,348,39320,6,0,B|389:323|389:323|369:208,1,143.999995605469,2|0,1:0|1:0,0:0:0:0:
306,83,39832,2,0,P|269:70|245:150,1,143.999995605469,2|2,0:0|0:3,0:0:0:0:
396,122,40343,2,0,P|403:73|389:40,1,71.9999978027344,2|2,1:3|0:3,0:0:0:0:
345,221,40684,6,0,L|494:231,1,143.999995605469,2|2,1:3|1:3,0:0:0:0:
370,346,41195,2,0,L|456:337,1,71.9999978027344,2|0,0:3|1:0,0:0:0:0:
269,297,41536,2,0,P|258:340|263:370,1,71.9999978027344,2|8,0:3|0:0,0:0:0:0:
261,182,41877,5,2,0:3:0:0:
179,147,42048,2,0,B|101:139|120:192|39:178,1,143.999995605469,2|0,1:3|1:0,0:0:0:0:
189,295,42559,5,2,0:3:0:0:
262,366,42729,2,0,P|285:318|278:228,1,143.999995605469,2|0,1:3|1:0,0:0:0:0:
184,68,43241,5,2,0:3:0:0:
111,129,43411,2,0,B|143:172|143:172|245:150,1,143.999995605469,2|0,1:3|1:0,0:0:0:0:
409,118,43923,5,2,0:3:0:0:
352,244,44093,2,0,P|336:196|339:163,1,71.9999978027344,2|0,1:3|0:0,0:0:0:0:
485,320,44434,1,8,0:0:0:0:
485,320,44775,6,0,B|428:324|428:324|396:358|396:358|318:363,1,160,14|8,0:2|0:2,0:0:0:0:
190,267,45286,1,2,0:3:0:0:
259,191,45457,2,0,B|294:177|294:177|336:195,1,80,10|0,0:0|1:0,0:0:0:0:
173,291,45798,5,10,0:0:0:0:
87,246,45968,2,0,P|77:207|83:167,1,80,2|8,1:0|0:0,0:0:0:0:
259,191,46309,2,0,P|268:141|260:105,1,80,2|8,0:0|0:0,0:0:0:0:
89,32,46650,6,0,L|176:42,1,80,2|8,0:0|0:0,0:0:0:0:
342,132,46991,1,2,1:0:0:0:
259,191,47161,2,0,L|172:201,1,80,8|2,0:0|1:0,0:0:0:0:
0,319,47502,6,0,B|9:350|31:365|31:365|70:373|153:336,1,160,10|8,0:0|0:0,0:0:0:0:
251,241,48014,1,2,0:0:0:0:
102,212,48184,1,10,0:0:0:0:
161,338,48354,1,0,1:0:0:0:
269,225,48525,1,10,0:0:0:0:
371,348,48695,6,0,P|426:363|463:315,1,120,2|0,1:2|0:0,0:0:0:0:
398,252,49036,2,0,P|391:204|408:166,1,80,2|8,1:0|0:0,0:0:0:0:
511,46,49377,2,0,B|507:89|471:109|471:109|426:71|378:81,1,160,6|0,1:2|1:0,0:0:0:0:
293,192,49889,5,8,0:0:0:0:
231,119,50059,1,8,0:0:0:0:
231,119,50144,1,8,0:0:0:0:
231,119,50229,2,0,B|148:103|151:162|66:131,1,160,6|10,1:2|0:2,0:0:0:0:
17,37,50741,1,2,1:0:0:0:
17,37,50826,1,0,1:0:0:0:
17,37,50911,2,0,P|61:29|103:42,1,80,0|0,1:0|1:0,0:0:0:0:
138,216,51252,2,0,P|94:224|52:211,1,80,10|2,0:0|0:0,0:0:0:0:
232,118,51593,6,0,P|273:180|250:280,1,160,0|10,1:0|0:0,0:0:0:0:
122,120,52104,2,0,P|173:105|221:113,1,80,2|0,1:0|0:0,0:0:0:0:
355,181,52445,1,0,1:0:0:0:
438,137,52616,2,0,P|448:95|441:46,1,80,10|2,0:0|3:0,0:0:0:0:
429,41,52871,1,0,3:0:0:0:
414,26,52957,6,0,B|351:15|351:15|313:32|313:32|236:19,1,160,6|10,1:2|0:0,0:0:0:0:
139,135,53468,2,0,L|129:25,1,80,2|0,3:0|1:0,0:0:0:0:
252,216,53809,1,2,1:0:0:0:
252,216,53979,2,0,L|262:106,1,80,8|2,0:0|0:0,0:0:0:0:
351,285,54320,2,0,P|360:327|296:371,1,120,4|0,1:2|0:0,0:0:0:0:
226,329,54661,6,0,P|182:311|134:312,1,80,8|0,0:0|1:0,0:0:0:0:
36,209,55002,2,0,P|72:192|112:189,1,80,2|0,0:0|1:0,0:0:0:0:
211,221,55343,2,0,B|240:185|240:185|227:105,1,120,8|0,0:0|0:0,0:0:0:0:
203,25,55684,6,0,L|111:33,1,80,4|0,3:2|3:0,0:0:0:0:
123,31,55940,1,0,3:0:0:0:
123,31,56025,1,0,1:0:0:0:
23,170,56195,1,4,0:2:0:0:
95,236,56366,2,0,L|187:244,1,80,0|0,1:0|3:0,0:0:0:0:
178,246,56621,1,0,3:0:0:0:
181,249,56707,1,4,1:2:0:0:
323,159,56877,5,0,3:0:0:0:
323,159,56962,1,0,3:0:0:0:
323,159,57048,1,4,1:2:0:0:
405,220,57218,2,0,P|416:268|406:302,1,80,0|8,3:0|1:3,0:0:0:0:
248,363,57559,1,4,3:2:0:0:
185,284,57729,1,8,0:3:0:0:
182,264,57814,1,8,0:3:0:0:
181,244,57899,1,8,0:3:0:0:
183,224,57984,1,8,0:3:0:0:
186,203,58070,2,0,L|192:159,3,40,4|4|4|4,0:3|0:3|0:3|0:3,0:0:0:0:
204,127,58411,6,0,L|286:140,1,80,4|0,1:2|1:0,0:0:0:0:
385,294,58752,2,0,L|303:281,1,80,0|0,1:0|1:0,0:0:0:0:
163,207,59093,5,8,1:2:0:0:
191,356,59264,1,8,1:2:0:0:
50,237,59434,1,8,1:2:0:0:
83,383,59604,1,8,1:2:0:0:
172,191,59775,1,2,0:0:0:0:
172,191,60627,5,0,1:0:0:0:
172,191,60712,1,0,1:0:0:0:
172,191,60798,2,0,L|47:175,1,120,8|0,0:0|0:0,0:0:0:0:
28,169,61139,5,6,1:2:0:0:
112,62,61309,1,0,1:0:0:0:
172,191,61479,1,10,0:0:0:0:
254,82,61650,2,0,B|371:50|339:128|459:90,1,191.999994140625,2|2,1:0|1:0,0:0:0:0:
504,257,62161,5,8,0:0:0:0:
431,330,62332,1,2,3:0:0:0:
431,330,62417,1,0,3:0:0:0:
431,330,62502,2,0,L|330:326,1,95.9999970703126,0|0,1:0|0:0,0:0:0:0:
159,167,62843,6,0,P|208:176|248:214,1,95.9999970703126,10|0,0:0|1:0,0:0:0:0:
96,320,63184,2,0,P|79:273|92:219,1,95.9999970703126,2|0,0:0|1:0,0:0:0:0:
212,318,63525,1,10,0:0:0:0:
38,133,63866,5,2,1:0:0:0:
38,133,64036,1,0,1:0:0:0:
141,18,64207,1,10,0:0:0:0:
161,168,64377,1,2,1:0:0:0:
161,168,64718,1,2,1:0:0:0:
251,47,64889,1,10,0:0:0:0:
291,134,65059,6,0,B|312:179|367:182|367:182|404:123|468:123,1,191.999994140625,6|0,1:2|1:0,0:0:0:0:
463,226,65570,1,8,0:0:0:0:
371,349,65741,2,0,B|351:371|323:383|323:383|251:373|169:323,1,191.999994140625,4|2,1:2|1:0,0:0:0:0:
48,270,66252,5,10,0:0:0:0:
126,207,66423,1,10,0:0:0:0:
126,207,66508,1,8,0:0:0:0:
126,207,66593,2,0,P|111:158|112:112,1,95.9999970703126,6|0,1:2|1:0,0:0:0:0:
270,268,66934,1,10,0:0:0:0:
360,224,67104,2,0,P|390:132|367:38,1,191.999994140625,2|0,1:0|1:0,0:0:0:0:
264,3,67616,2,0,B|260:26|260:26|255:29|255:29|259:33|259:33|248:108,1,95.9999970703126,10|2,0:0|3:0,0:0:0:0:
235,108,67871,1,0,3:0:0:0:
215,120,67957,6,0,P|163:127|116:102,1,95.9999970703126,4|0,1:2|1:0,0:0:0:0:
4,235,68298,2,0,P|47:216|94:224,1,95.9999970703126,10|0,0:0|1:0,0:0:0:0:
186,289,68639,2,0,L|169:392,1,95.9999970703126,2|0,1:0|1:0,0:0:0:0:
62,329,68979,1,10,0:0:0:0:
359,357,69235,5,0,3:0:0:0:
376,347,69320,2,0,P|389:297|376:238,1,95.9999970703126,6|0,1:2|1:0,0:0:0:0:
232,191,69661,1,8,0:0:0:0:
145,251,69832,2,0,P|117:160|151:62,1,191.999994140625,4|2,1:2|3:0,0:0:0:0:
231,14,70343,1,10,0:0:0:0:
300,96,70514,1,2,1:0:0:0:
426,1,70684,6,0,B|442:46|442:46|427:97,1,95.9999970703126,4|0,1:2|1:0,0:0:0:0:
317,174,71025,1,8,0:0:0:0:
428,261,71195,1,4,1:2:0:0:
314,325,71366,1,4,0:3:0:0:
314,325,71451,1,4,0:3:0:0:
314,325,71536,1,2,1:3:0:0:
201,236,71707,1,10,0:0:0:0:
182,227,71792,1,8,0:0:0:0:
163,223,71877,1,10,0:3:0:0:
143,223,71962,1,8,0:3:0:0:
124,228,72047,5,6,1:2:0:0:
30,350,72218,1,0,1:0:0:0:
11,222,72389,1,10,0:0:0:0:
136,345,72559,2,0,P|215:365|317:316,1,191.999994140625,2|2,1:0|1:0,0:0:0:0:
362,158,73070,5,8,0:0:0:0:
270,198,73241,1,2,3:0:0:0:
270,198,73326,1,0,3:0:0:0:
270,198,73411,2,0,L|253:92,1,95.9999970703126,0|0,1:0|1:0,0:0:0:0:
373,17,73752,5,10,0:0:0:0:
488,73,73923,1,2,1:0:0:0:
361,134,74093,1,2,0:0:0:0:
361,134,74264,1,2,1:0:0:0:
493,183,74434,2,0,B|505:228|505:228|489:276,1,95.9999970703126,10|0,0:0|3:0,0:0:0:0:
477,289,74690,1,0,3:0:0:0:
466,303,74775,5,6,1:2:0:0:
354,383,74945,1,0,1:0:0:0:
265,282,75116,1,10,0:0:0:0:
378,208,75286,1,2,1:0:0:0:
378,208,75627,1,2,1:0:0:0:
266,97,75798,1,8,0:0:0:0:
188,187,75968,6,0,B|144:227|80:209|80:209|75:158|103:126,1,191.999994140625,6|0,1:2|1:0,0:0:0:0:
177,86,76479,1,8,0:0:0:0:
293,209,76650,2,0,P|325:273|282:399,1,191.999994140625,4|2,1:2|1:0,0:0:0:0:
167,283,77161,5,10,0:0:0:0:
82,340,77332,1,10,0:0:0:0:
82,340,77417,1,8,0:0:0:0:
82,340,77502,2,0,B|58:303|58:303|64:245,1,95.9999970703126,6|0,1:2|1:0,0:0:0:0:
208,174,77843,1,10,0:0:0:0:
276,251,78014,2,0,B|317:218|317:218|298:77,1,191.999994140625,2|0,1:0|3:0,0:0:0:0:
294,58,78440,1,0,3:0:0:0:
290,38,78525,2,0,P|337:13|409:21,1,95.9999970703126,8|0,0:0|0:0,0:0:0:0:
486,53,78866,5,6,1:2:0:0:
486,53,79036,1,0,1:0:0:0:
344,140,79207,1,10,0:0:0:0:
429,206,79377,2,0,B|446:311|372:282|379:385,1,191.999994140625,2|0,1:0|1:0,0:0:0:0:
286,270,79889,1,10,0:0:0:0:
189,315,80059,5,2,0:0:0:0:
189,315,80144,1,2,0:0:0:0:
189,315,80229,2,0,P|164:266|169:213,1,95.9999970703126,6|0,1:2|1:0,0:0:0:0:
330,133,80570,1,10,0:0:0:0:
422,195,80741,2,0,P|449:99|415:3,1,191.999994140625,6|10,1:2|0:0,0:0:0:0:
422,13,81167,1,8,0:0:0:0:
422,13,81252,1,8,0:3:0:0:
286,0,81423,1,6,0:3:0:0:
286,0,81508,1,4,0:3:0:0:
286,0,81593,1,4,1:2:0:0:
286,0,82445,5,0,1:0:0:0:
231,89,82616,2,0,L|254:225,1,120,10|0,0:0|0:0,0:0:0:0:
324,257,82957,6,0,B|281:316|218:314|218:314|177:276,1,176.000005371094,4|10,1:2|0:0,0:0:0:0:
48,322,83468,2,0,L|64:220,1,88.000002685547,4|0,1:2|0:0,0:0:0:0:
89,84,83809,1,0,1:0:0:0:
177,194,83979,1,8,0:0:0:0:
177,194,84150,1,0,1:0:0:0:
231,39,84320,6,0,B|335:17|307:76|403:63,1,176.000005371094,4|8,1:2|0:0,0:0:0:0:
328,241,84832,2,0,P|319:184|338:136,1,88.000002685547,4|0,1:2|0:0,0:0:0:0:
472,286,85173,1,0,1:0:0:0:
472,286,85343,2,0,P|481:229|462:181,1,88.000002685547,8|0,0:0|0:0,0:0:0:0:
359,349,85684,6,0,B|319:378|319:378|178:338,1,176.000005371094,4|8,1:2|0:0,0:0:0:0:
80,234,86195,2,0,L|167:223,1,88.000002685547,4|0,1:2|0:0,0:0:0:0:
328,212,86536,1,0,1:0:0:0:
190,103,86707,1,8,0:0:0:0:
349,81,86877,1,2,1:0:0:0:
349,81,87218,5,2,1:0:0:0:
320,240,87388,1,8,0:0:0:0:
194,77,87559,2,0,P|144:63|90:69,1,88.000002685547,2|0,1:0|0:0,0:0:0:0:
20,187,87900,1,8,0:0:0:0:
14,200,87985,1,8,0:0:0:0:
9,214,88070,1,8,0:0:0:0:
6,228,88155,1,8,0:0:0:0:
3,243,88240,1,8,0:3:0:0:
3,257,88326,1,4,0:3:0:0:
1,272,88411,6,0,P|56:316|182:297,1,176.000005371094,6|8,1:2|0:2,0:0:0:0:
287,374,88923,1,2,3:0:0:0:
287,374,89008,1,0,3:0:0:0:
287,374,89093,2,0,L|297:282,1,88.000002685547,0|2,1:0|1:0,0:0:0:0:
157,312,89434,2,0,L|147:224,1,88.000002685547,10|0,0:0|0:0,0:0:0:0:
40,84,89775,5,2,1:0:0:0:
114,18,89945,2,0,P|157:8|211:24,1,88.000002685547,2|8,1:0|0:0,0:0:0:0:
322,173,90286,2,0,B|292:162|277:139|277:139|279:75|329:17,1,176.000005371094,2|0,1:0|1:0,0:0:0:0:
423,150,90798,2,0,L|424:249,1,88.000002685547,8|0,0:0|3:0,0:0:0:0:
420,261,91053,1,0,3:0:0:0:
404,270,91138,6,0,P|342:278|300:259,1,88.000002685547,6|0,1:2|1:0,0:0:0:0:
191,167,91479,1,8,0:0:0:0:
117,247,91650,2,0,B|80:207|80:207|117:67,1,176.000005371094,4|0,1:2|1:0,0:0:0:0:
254,14,92161,2,0,P|265:58|259:125,1,88.000002685547,8|0,0:0|1:0,0:0:0:0:
230,242,92502,5,6,1:2:0:0:
230,242,92673,1,0,1:0:0:0:
381,214,92843,1,8,0:0:0:0:
381,214,93013,1,0,1:0:0:0:
236,106,93184,1,10,0:0:0:0:
208,272,93354,1,8,1:3:0:0:
345,330,93525,5,4,0:3:0:0:
367,330,93610,1,4,0:3:0:0:
389,327,93695,1,4,0:3:0:0:
409,317,93780,1,4,0:3:0:0:
425,303,93866,6,0,L|413:225,1,64,4|0,1:2|0:0,0:0:0:0:
506,194,94207,2,0,L|496:130,1,64,0|0,1:2|0:0,0:0:0:0:
377,133,94548,2,0,L|367:69,1,64,0|2,1:2|0:0,0:0:0:0:
446,13,94889,1,2,1:2:0:0:
446,13,95059,1,2,0:0:0:0:
377,133,95229,6,0,P|319:150|238:124,1,128,2|2,1:0|1:0,0:0:0:0:
157,178,95741,2,0,P|151:141|159:97,1,64,2|0,0:0|1:0,0:0:0:0:
234,252,96082,1,2,0:0:0:0:
158,309,96252,2,0,P|112:316|79:312,1,64,8|0,0:0|0:0,0:0:0:0:
22,231,96593,5,0,1:0:0:0:
22,231,96934,2,0,L|33:154,1,64,0|0,1:0|0:0,0:0:0:0:
142,147,97275,2,0,L|153:70,1,64,0|2,1:0|0:0,0:0:0:0:
231,12,97616,1,2,1:0:0:0:
231,12,97786,1,2,0:0:0:0:
319,115,97957,6,0,B|393:110|369:150|448:147,1,128,2|2,1:0|1:0,0:0:0:0:
349,282,98468,2,0,L|339:205,1,64,2|0,0:0|1:0,0:0:0:0:
239,84,98809,1,2,0:0:0:0:
158,128,98980,2,0,L|149:191,1,64,8|0,0:0|0:0,0:0:0:0:
129,294,99320,5,0,1:0:0:0:
129,294,99661,2,0,P|173:313|218:313,1,64,0|0,1:0|0:0,0:0:0:0:
261,382,100002,2,0,P|305:364|337:332,1,64,0|2,1:0|0:0,0:0:0:0:
346,262,100343,1,2,1:0:0:0:
346,262,100514,1,2,0:0:0:0:
453,329,100684,6,0,B|488:298|488:298|469:208,1,128,2|2,1:0|1:0,0:0:0:0:
482,102,101195,2,0,P|445:106|407:126,1,64,2|0,0:0|1:0,0:0:0:0:
353,225,101536,2,0,P|321:222|291:210,1,64,2|8,0:0|0:0,0:0:0:0:
181,123,101877,1,0,0:0:0:0:
104,183,102048,6,0,P|82:143|79:47,1,128,2|0,1:0|1:0,0:0:0:0:
232,11,102559,2,0,P|254:51|257:147,1,128,2|0,0:0|0:0,0:0:0:0:
189,269,103070,6,0,B|154:299|154:299|55:279,1,128,2|0,1:0|1:0,0:0:0:0:
0,158,103582,2,0,B|35:128|35:128|134:148,1,128,2|0,0:0|0:0,0:0:0:0:
216,178,104093,1,2,3:2:0:0:
216,178,104178,1,0,3:0:0:0:
216,178,104264,1,0,3:0:0:0:
290,58,104434,2,0,P|331:39|369:93,1,120,10|0,0:0|0:0,0:0:0:0:
309,154,104775,6,0,L|290:314,1,143.999995605469,6|8,1:2|0:0,0:0:0:0:
403,371,105286,2,0,P|418:323|414:285,1,71.9999978027344,2|0,0:0|1:0,0:0:0:0:
511,185,105627,1,2,1:0:0:0:
427,138,105798,2,0,L|351:147,1,71.9999978027344,10|2,0:0|0:0,0:0:0:0:
246,209,106139,6,0,P|230:139|251:71,1,143.999995605469,2|10,1:0|0:0,0:0:0:0:
130,143,106650,2,0,P|76:145|46:134,1,71.9999978027344,2|0,1:0|0:0,0:0:0:0:
246,209,106991,1,2,1:0:0:0:
303,283,107161,2,0,P|306:325|297:353,1,71.9999978027344,8|2,0:0|0:0,0:0:0:0:
277,362,107417,1,2,0:0:0:0:
259,356,107502,6,0,B|181:334|194:383|113:355,1,143.999995605469,2|8,1:0|0:0,0:0:0:0:
19,260,108014,2,0,L|99:245,1,71.9999978027344,2|0,0:0|1:0,0:0:0:0:
203,139,108354,1,2,1:0:0:0:
131,84,108525,2,0,P|124:42|135:1,1,71.9999978027344,10|2,0:0|0:0,0:0:0:0:
230,161,108866,6,0,P|281:125|382:151,1,143.999995605469,2|10,1:0|0:0,0:0:0:0:
487,88,109377,2,0,L|476:173,1,71.9999978027344,2|0,1:0|0:0,0:0:0:0:
414,323,109718,1,2,1:0:0:0:
322,288,109889,2,0,L|312:216,1,71.9999978027344,8|0,0:0|3:0,0:0:0:0:
292,73,110229,6,0,B|259:47|259:47|142:66,1,143.999995605469,2|8,1:0|0:0,0:0:0:0:
51,160,110741,2,0,P|96:175|134:171,1,71.9999978027344,2|0,0:0|1:0,0:0:0:0:
200,316,111082,1,2,1:0:0:0:
267,242,111252,2,0,L|258:158,1,71.9999978027344,10|2,0:0|3:0,0:0:0:0:
386,286,111593,6,0,P|416:206|397:136,1,143.999995605469,0|10,1:0|0:0,0:0:0:0:
261,241,112104,2,0,P|256:186|266:145,1,71.9999978027344,2|0,1:0|0:0,0:0:0:0:
338,43,112445,1,2,1:0:0:0:
245,8,112616,2,0,L|156:15,1,71.9999978027344,8|2,0:0|3:0,0:0:0:0:
154,19,112871,1,0,3:0:0:0:
135,27,112957,6,0,B|119:38|105:61|105:61|108:112|155:178,1,143.999995605469,2|8,1:2|0:0,0:0:0:0:
44,269,113468,1,2,0:0:0:0:
110,333,113639,2,0,P|150:341|187:331,1,71.9999978027344,2|0,1:0|1:0,0:0:0:0:
260,215,113979,2,0,P|295:208|329:216,1,71.9999978027344,8|2,0:0|0:0,0:0:0:0:
348,233,114235,1,2,0:0:0:0:
361,251,114320,6,0,L|355:333,1,71.9999978027344,2|0,1:0|1:0,0:0:0:0:
449,384,114661,1,8,0:0:0:0:
449,384,114832,1,2,1:0:0:0:
512,268,115002,1,10,0:0:0:0:
512,268,115173,1,0,1:0:0:0:
422,176,115343,1,8,0:0:0:0:
414,159,115428,1,8,0:0:0:0:
409,142,115513,1,8,0:3:0:0:
408,124,115598,1,4,0:3:0:0:
413,108,115684,6,0,B|321:95|347:149|250:134,1,160,14|8,0:2|0:2,0:0:0:0:
142,30,116195,1,2,0:0:0:0:
90,176,116366,1,10,0:0:0:0:
232,129,116536,1,0,1:0:0:0:
120,28,116707,1,10,0:0:0:0:
77,212,116877,6,0,L|-8:197,1,80,2|8,1:0|0:0,0:0:0:0:
157,335,117218,2,0,L|78:348,1,80,2|8,0:0|0:0,0:0:0:0:
244,146,117559,2,0,L|165:132,1,80,2|8,0:0|0:0,0:0:0:0:
326,257,117900,1,2,1:0:0:0:
401,193,118070,2,0,P|415:145|406:102,1,80,8|2,0:0|1:0,0:0:0:0:
212,245,118411,6,0,P|187:175|209:77,1,160,10|8,0:0|0:0,0:0:0:0:
351,24,118923,1,2,0:0:0:0:
301,163,119093,1,10,0:0:0:0:
211,50,119264,1,0,1:0:0:0:
368,3,119434,1,10,0:0:0:0:
398,196,119604,6,0,B|405:244|448:264|448:264|495:242,1,120,6|0,1:2|0:0,0:0:0:0:
498,257,119945,2,0,L|517:155,1,80,2|8,1:0|0:0,0:0:0:0:
372,330,120286,2,0,B|279:313|299:375|197:348,1,160,6|2,1:2|1:0,0:0:0:0:
129,265,120798,5,8,0:0:0:0:
111,255,120883,1,8,0:0:0:0:
92,250,120968,1,8,0:3:0:0:
72,250,121053,1,8,0:3:0:0:
53,257,121139,2,0,B|19:211|19:211|48:93,1,160,6|10,1:2|0:0,0:0:0:0:
176,41,121650,1,2,3:0:0:0:
176,41,121735,1,0,3:0:0:0:
176,41,121820,2,0,L|160:122,1,80,0|0,1:0|1:0,0:0:0:0:
310,68,122161,2,0,L|326:149,1,80,10|2,0:0|0:0,0:0:0:0:
331,167,122417,1,2,0:0:0:0:
337,185,122502,6,0,P|390:200|503:148,1,160,4|10,1:2|0:0,0:0:0:0:
481,27,123014,2,0,P|439:19|399:29,1,80,2|0,1:0|0:0,0:0:0:0:
274,119,123354,1,0,1:0:0:0:
194,82,123525,2,0,L|205:-14,1,80,10|2,0:0|0:0,0:0:0:0:
94,174,123866,6,0,B|44:150|44:150|56:23,1,160,6|10,1:2|0:0,0:0:0:0:
198,239,124377,1,2,0:0:0:0:
198,239,124462,1,0,0:0:0:0:
198,239,124548,1,0,1:0:0:0:
288,193,124718,2,0,P|305:149|305:113,1,80,2|8,1:0|0:0,0:0:0:0:
131,286,125059,5,2,3:0:0:0:
131,286,125144,1,0,3:0:0:0:
131,286,125229,2,0,P|183:272|244:330,1,120,4|0,1:2|0:0,0:0:0:0:
288,383,125570,2,0,P|342:371|374:353,1,80,10|0,0:0|1:0,0:0:0:0:
512,279,125911,2,0,P|458:267|426:249,1,80,2|0,0:0|1:0,0:0:0:0:
368,138,126252,2,0,B|368:115|368:115|365:111|365:111|368:108|368:108|368:49,1,80,14|0,0:0|0:0,0:0:0:0:
264,193,126593,6,0,L|173:177,1,80,6|0,1:2|3:0,0:0:0:0:
185,179,126849,1,0,3:0:0:0:
185,179,126934,1,0,1:0:0:0:
67,305,127104,1,6,3:2:0:0:
0,246,127275,1,2,1:0:0:0:
0,246,127360,1,0,3:0:0:0:
0,246,127445,1,0,3:0:0:0:
106,130,127616,6,0,P|112:88|97:34,1,80,4|0,1:2|3:0,0:0:0:0:
92,38,127871,1,0,3:0:0:0:
79,25,127957,2,0,L|-6:31,1,80,4|0,1:2|3:0,0:0:0:0:
204,113,128298,1,8,0:3:0:0:
204,113,128383,1,8,0:3:0:0:
204,113,128468,1,12,0:0:0:0:
270,32,128639,2,0,L|352:28,1,80,8|8,0:3|0:3,0:0:0:0:
359,35,128894,1,8,0:3:0:0:
368,42,128979,1,4,0:3:0:0:
370,53,129065,1,4,0:3:0:0:
368,64,129150,1,4,0:3:0:0:
299,179,129320,5,12,0:0:0:0:
423,231,129491,1,0,1:0:0:0:
423,231,129661,1,0,1:0:0:0:
266,295,129832,1,12,0:0:0:0:
390,347,130002,1,0,1:0:0:0:
390,347,130173,1,0,1:0:0:0:
317,190,130343,2,0,P|319:148|337:113,1,80,12|0,0:0|1:0,0:0:0:0:
214,25,130684,5,12,1:2:0:0:
146,150,130854,1,8,1:2:0:0:
82,22,131025,2,0,L|-9:8,1,80,12|8,1:2|1:2,0:0:0:0:
56,206,131366,5,6,1:3:0:0:
146,150,131536,1,10,0:0:0:0:
161,149,131621,1,8,0:0:0:0:
177,150,131706,1,8,0:2:0:0:
193,154,131791,1,8,0:2:0:0:
208,159,131876,1,10,0:0:0:0:
222,167,131962,1,8,0:0:0:0:
236,179,132048,6,0,L|224:280,1,95.9999970703126,6|0,1:2|1:0,0:0:0:0:
389,359,132389,1,10,0:0:0:0:
477,315,132559,2,0,P|484:252|409:234,1,143.999995605469,2|0,1:0|0:0,0:0:0:0:
334,268,132900,2,0,P|327:222|341:174,1,95.9999970703126,2|8,1:0|0:0,0:0:0:0:
449,62,133241,5,2,3:0:0:0:
449,62,133326,1,0,3:0:0:0:
449,62,133411,1,0,1:0:0:0:
353,161,133582,1,0,1:0:0:0:
278,46,133752,2,0,L|178:31,1,95.9999970703126,10|0,0:0|1:0,0:0:0:0:
219,184,134093,2,0,L|124:198,1,95.9999970703126,2|0,0:0|1:0,0:0:0:0:
0,341,134434,2,0,B|31:301|31:301|72:342|130:333,1,143.999995605469,10|0,0:0|0:0,0:0:0:0:
181,276,134775,5,2,1:0:0:0:
52,207,134945,1,0,1:0:0:0:
208,135,135116,1,10,0:0:0:0:
193,299,135286,1,2,1:0:0:0:
193,299,135627,1,2,1:0:0:0:
112,130,135798,1,10,0:0:0:0:
240,177,135968,6,0,B|270:171|292:139|292:139|290:60|231:20,1,191.999994140625,6|0,1:2|1:0,0:0:0:0:
143,230,136479,1,8,0:0:0:0:
226,289,136650,2,0,B|327:259|319:336|422:292,1,191.999994140625,4|2,1:2|1:0,0:0:0:0:
412,295,137076,1,0,1:0:0:0:
412,295,137161,1,10,0:0:0:0:
501,156,137332,5,10,0:0:0:0:
501,156,137417,1,8,0:0:0:0:
501,156,137502,2,0,P|510:100|499:57,1,95.9999970703126,6|0,1:2|1:0,0:0:0:0:
311,17,137843,1,10,0:0:0:0:
238,75,138014,2,0,P|211:143|244:275,1,191.999994140625,2|0,1:0|1:0,0:0:0:0:
325,359,138525,1,10,0:0:0:0:
410,239,138695,5,2,3:0:0:0:
410,239,138781,1,0,3:0:0:0:
410,239,138866,2,0,L|515:226,1,95.9999970703126,4|0,1:2|1:0,0:0:0:0:
306,105,139207,2,0,L|401:116,1,95.9999970703126,10|0,0:0|1:0,0:0:0:0:
325,359,139548,2,0,L|420:347,1,95.9999970703126,2|0,0:0|1:0,0:0:0:0:
237,212,139889,2,0,P|188:226|174:328,1,143.999995605469,10|0,0:0|0:0,0:0:0:0:
96,368,140229,6,0,P|44:373|0:352,1,95.9999970703126,6|0,1:2|1:0,0:0:0:0:
114,177,140570,1,8,0:0:0:0:
32,136,140741,2,0,P|14:85|19:35,1,95.9999970703126,4|2,1:2|0:0,0:0:0:0:
133,0,141082,1,2,1:0:0:0:
184,116,141252,1,10,0:0:0:0:
259,5,141423,1,2,1:0:0:0:
317,155,141593,6,0,L|418:168,1,95.9999970703126,4|0,1:2|1:0,0:0:0:0:
512,57,141934,1,8,0:0:0:0:
366,13,142104,1,4,1:2:0:0:
450,175,142275,1,4,0:3:0:0:
450,175,142360,1,4,0:3:0:0:
450,175,142445,1,2,1:0:0:0:
365,281,142616,1,10,0:0:0:0:
347,290,142701,1,8,0:0:0:0:
328,297,142786,1,10,0:3:0:0:
308,299,142871,1,4,0:3:0:0:
288,297,142957,6,0,P|229:275|176:273,1,95.9999970703126,6|0,1:2|1:0,0:0:0:0:
73,360,143298,1,10,0:0:0:0:
11,284,143468,2,0,B|-15:242|-15:242|21:134,1,143.999995605469,2|0,1:0|0:0,0:0:0:0:
49,64,143809,2,0,L|170:100,1,95.9999970703126,2|8,1:0|0:0,0:0:0:0:
302,144,144150,5,2,3:0:0:0:
302,144,144235,1,0,3:0:0:0:
302,144,144320,1,0,1:0:0:0:
186,244,144491,1,0,1:0:0:0:
249,322,144661,2,0,P|306:334|361:319,1,95.9999970703126,10|2,0:0|1:0,0:0:0:0:
476,242,145002,1,2,0:0:0:0:
346,164,145173,1,2,1:0:0:0:
430,110,145343,2,0,B|443:62|443:62|424:13,1,95.9999970703126,10|0,0:0|3:0,0:0:0:0:
426,18,145599,1,0,3:0:0:0:
426,18,145684,5,6,1:2:0:0:
345,163,145854,1,0,1:0:0:0:
277,2,146025,1,10,0:0:0:0:
462,21,146196,1,2,1:0:0:0:
462,21,146536,1,2,1:0:0:0:
292,92,146707,1,8,0:0:0:0:
334,189,146877,6,0,B|355:241|410:246|410:246|431:197|498:184,1,191.999994140625,6|0,1:2|1:0,0:0:0:0:
419,339,147389,1,8,0:0:0:0:
332,373,147559,2,0,L|223:349,1,95.9999970703126,4|0,1:2|0:0,0:0:0:0:
162,235,147900,1,2,1:0:0:0:
81,347,148070,1,10,0:0:0:0:
11,213,148241,5,0,3:0:0:0:
11,213,148326,1,0,3:0:0:0:
11,213,148411,2,0,L|13:111,1,95.9999970703126,6|0,1:2|1:0,0:0:0:0:
167,18,148752,1,10,0:0:0:0:
238,78,148923,2,0,L|220:280,1,191.999994140625,2|0,1:0|1:0,0:0:0:0:
103,354,149434,2,0,P|95:303|109:254,1,95.9999970703126,10|0,0:0|3:0,0:0:0:0:
105,260,149690,1,0,3:0:0:0:
105,260,149775,5,6,1:2:0:0:
200,376,149945,1,0,1:0:0:0:
262,245,150116,1,10,0:0:0:0:
344,358,150286,2,0,B|396:339|396:339|430:384|504:371,1,143.999995605469,2|0,1:0|0:0,0:0:0:0:
469,287,150627,1,0,1:0:0:0:
346,191,150798,2,0,P|294:186|241:216,1,95.9999970703126,10|2,0:0|0:0,0:0:0:0:
370,207,151139,5,6,1:2:0:0:
439,82,151309,1,0,1:0:0:0:
282,94,151479,1,10,0:0:0:0:
385,232,151650,2,0,L|403:335,1,95.9999970703126,6|0,1:2|0:0,0:0:0:0:
255,375,151991,1,2,1:0:0:0:
185,315,152161,2,0,P|173:258|186:211,1,95.9999970703126,8|2,0:0|1:0,0:0:0:0:
271,64,152502,6,0,L|171:45,1,95.9999970703126,4|0,1:2|1:0,0:0:0:0:
310,199,152843,2,0,L|215:216,1,95.9999970703126,14|0,0:0|1:0,0:0:0:0:
72,300,153184,1,6,1:2:0:0:
136,369,153354,1,8,0:0:0:0:
158,376,153439,1,8,0:0:0:0:
182,379,153524,1,10,0:0:0:0:
206,375,153609,1,8,0:0:0:0:
228,366,153694,1,10,0:0:0:0:
361,286,153866,6,0,B|386:264|386:264|376:200,1,88.000002685547,4|2,1:2|0:0,0:0:0:0:
227,231,154207,2,0,B|202:209|202:209|212:145,1,88.000002685547,10|0,0:2|0:0,0:0:0:0:
308,67,154548,1,2,1:0:0:0:
308,67,154718,1,2,1:0:0:0:
371,186,154889,2,0,P|419:191|461:167,1,88.000002685547,10|0,0:0|0:0,0:0:0:0:
499,34,155229,6,0,L|397:18,1,88.000002685547,2|0,1:0|1:0,0:0:0:0:
293,151,155570,1,10,0:0:0:0:
210,97,155741,2,0,B|119:76|130:139|36:114,1,176.000005371094,2|0,1:0|1:0,0:0:0:0:
135,290,156252,6,0,B|147:246|147:246|131:196,1,88.000002685547,10|0,0:0|0:0,0:0:0:0:
134,205,156508,1,0,0:0:0:0:
134,205,156593,1,2,1:0:0:0:
39,114,156764,1,0,1:0:0:0:
140,27,156934,1,10,0:0:0:0:
232,114,157104,1,2,1:0:0:0:
232,114,157445,1,2,1:0:0:0:
61,140,157616,1,10,0:0:0:0:
135,290,157786,6,0,B|155:319|183:329|183:329|250:317|307:281,1,176.000005371094,6|2,1:2|1:0,0:0:0:0:
429,169,158298,1,8,0:0:0:0:
502,234,158468,2,0,P|508:288|415:259,1,176.000005371094,6|0,1:2|1:0,0:0:0:0:
483,99,158979,1,8,0:0:0:0:
415,28,159150,5,8,0:0:0:0:
415,28,159235,1,8,0:0:0:0:
415,28,159320,2,0,L|323:18,1,88.000002685547,6|2,1:2|0:0,0:0:0:0:
222,185,159661,1,10,0:0:0:0:
130,157,159832,2,0,P|118:109|123:70,1,88.000002685547,2|0,1:0|0:0,0:0:0:0:
312,191,160173,2,0,P|324:143|319:104,1,88.000002685547,2|8,1:0|0:0,0:0:0:0:
114,210,160514,5,2,3:0:0:0:
114,210,160599,1,0,3:0:0:0:
114,210,160684,2,0,P|89:159|101:37,1,176.000005371094,4|10,1:2|0:0,0:0:0:0:
257,8,161195,1,2,1:0:0:0:
318,92,161366,2,0,L|420:75,1,88.000002685547,2|0,1:0|1:0,0:0:0:0:
257,226,161707,2,0,L|359:243,1,88.000002685547,10|0,0:0|3:0,0:0:0:0:
363,245,161962,1,0,3:0:0:0:
379,251,162048,6,0,B|389:294|389:294|374:344,1,88.000002685547,6|0,1:2|1:0,0:0:0:0:
194,370,162389,1,8,0:0:0:0:
117,299,162559,2,0,B|86:251|86:251|112:121,1,176.000005371094,6|2,1:2|1:0,0:0:0:0:
117,109,162985,1,0,1:0:0:0:
131,86,163070,1,10,0:0:0:0:
155,75,163156,1,8,0:0:0:0:
180,69,163241,1,10,0:3:0:0:
205,75,163326,1,4,0:3:0:0:
223,90,163411,6,0,B|250:141|306:147|306:147|333:87|412:74,1,207.999990478516,6|8,1:2|0:0,0:0:0:0:
512,242,163923,2,0,P|440:279|423:164,1,207.999990478516,6|8,1:2|0:0,0:0:0:0:
424,169,164349,1,8,0:0:0:0:
447,158,164434,1,8,0:0:0:0:
463,137,164519,1,8,0:0:0:0:
470,112,164604,1,8,0:0:0:0:
471,85,164690,1,8,0:0:0:0:
460,61,164775,6,0,L|361:44,1,88.000002685547,6|0,1:2|0:0,0:0:0:0:
231,157,165116,1,8,0:0:0:0:
320,212,165286,2,0,P|339:272|329:402,1,176.000005371094,2|0,1:0|1:0,0:0:0:0:
167,259,165798,2,0,P|151:317|156:361,1,88.000002685547,10|0,0:0|0:0,0:0:0:0:
119,137,166139,6,0,P|74:119|19:115,2,88.000002685547,2|0|8,1:0|1:0|0:0,0:0:0:0:
320,212,166650,2,0,P|366:236|366:144,1,176.000005371094,2|0,1:0|1:0,0:0:0:0:
249,96,167161,1,10,0:0:0:0:
243,74,167246,1,2,0:0:0:0:
241,52,167331,1,2,0:0:0:0:
241,30,167416,1,2,0:0:0:0:
245,9,167501,5,2,1:0:0:0:
387,58,167673,1,0,1:0:0:0:
258,123,167843,1,8,0:0:0:0:
412,187,168014,1,2,1:0:0:0:
412,187,168354,2,0,P|424:233|416:279,1,88.000002685547,2|8,1:0|0:0,0:0:0:0:
294,120,168695,6,0,B|190:103|225:165|111:142,1,176.000005371094,6|0,1:2|1:0,0:0:0:0:
6,279,169207,1,8,0:0:0:0:
78,354,169377,2,0,L|165:364,1,88.000002685547,6|0,1:2|0:0,0:0:0:0:
287,289,169718,1,0,1:0:0:0:
186,187,169889,1,8,0:0:0:0:
296,98,170059,5,8,0:0:0:0:
296,98,170144,1,8,0:0:0:0:
296,98,170229,2,0,P|304:45|290:4,1,88.000002685547,6|0,1:2|1:0,0:0:0:0:
121,105,170570,1,8,0:0:0:0:
186,187,170741,2,0,P|259:184|329:107,1,176.000005371094,2|0,1:0|1:0,0:0:0:0:
490,234,171252,5,8,0:0:0:0:
471,222,171337,1,0,3:0:0:0:
450,214,171422,1,0,3:0:0:0:
429,209,171507,1,0,3:0:0:0:
408,210,171593,2,0,B|390:248|390:248|397:311,1,88.000002685547,6|0,1:2|1:0,0:0:0:0:
510,138,171934,1,8,0:0:0:0:
435,69,172104,2,0,B|378:59|378:59|330:84|330:84|249:73,1,176.000005371094,2|0,1:0|1:0,0:0:0:0:
136,12,172616,1,10,0:0:0:0:
128,32,172701,1,0,3:0:0:0:
123,54,172786,1,0,3:0:0:0:
121,75,172871,1,0,3:0:0:0:
121,97,172956,5,6,1:2:0:0:
226,186,173127,1,0,1:0:0:0:
98,239,173298,1,8,0:0:0:0:
213,321,173468,2,0,B|254:347|254:347|382:317,1,176.000005371094,4|0,1:2|1:0,0:0:0:0:
497,202,173979,2,0,P|446:187|394:195,1,88.000002685547,10|2,0:0|1:0,0:0:0:0:
279,90,174320,6,0,P|322:91|364:77,1,88.000002685547,6|0,1:2|1:0,0:0:0:0:
503,8,174661,1,12,0:0:0:0:
442,166,174832,1,0,1:0:0:0:
367,37,175002,1,8,0:0:0:0:
453,187,175173,1,0,3:0:0:0:
458,208,175258,1,0,3:0:0:0:
460,230,175343,1,8,3:2:0:0:
460,252,175428,1,0,3:0:0:0:
457,273,175513,1,4,3:3:0:0:
357,344,175684,6,0,B|275:313|282:373|197:346,1,160,6|2,1:2|1:0,0:0:0:0:
77,251,176195,2,0,P|85:197|104:162,1,80,14|0,3:2|1:0,0:0:0:0:
210,64,176536,1,2,3:0:0:0:
210,64,176621,1,0,3:0:0:0:
210,64,176707,1,0,1:0:0:0:
255,148,176877,5,10,3:2:0:0:
255,148,176962,1,0,3:0:0:0:
255,148,177048,2,0,L|349:132,1,80,4|0,1:2|0:0,0:0:0:0:
453,22,177389,1,10,1:2:0:0:
506,101,177559,2,0,P|514:157|501:202,1,80,6|0,0:2|0:0,0:0:0:0:
401,295,177900,1,10,0:3:0:0:
401,295,177985,1,0,3:0:0:0:
401,295,178070,1,6,1:3:0:0:
330,227,178241,5,2,3:0:0:0:
330,227,178326,1,0,3:0:0:0:
330,227,178411,2,0,L|231:241,1,80,6|0,1:2|0:0,0:0:0:0:
112,136,178752,1,2,1:0:0:0:
152,51,178923,2,0,P|199:34|234:35,1,80,14|0,3:2|1:0,0:0:0:0:
94,168,179264,1,2,3:0:0:0:
20,97,179434,2,0,P|11:46|20:8,1,80,0|10,1:0|3:2,0:0:0:0:
80,202,179775,6,0,L|61:290,1,80,4|0,1:2|3:0,0:0:0:0:
63,280,180031,1,0,3:0:0:0:
63,280,180116,1,10,1:2:0:0:
199,145,180286,2,0,L|215:223,1,80,6|0,0:0|0:0,0:0:0:0:
261,384,180627,1,8,3:3:0:0:
261,384,180712,1,0,3:0:0:0:
261,384,180798,1,10,1:2:0:0:
333,319,180968,5,4,0:3:0:0:
333,319,181053,1,0,3:0:0:0:
333,319,181139,2,0,B|424:301|406:363|501:332,1,160,6|2,1:2|1:0,0:0:0:0:
512,196,181650,2,0,B|473:185|473:185|423:194,1,80,14|0,0:2|1:0,0:0:0:0:
304,228,181991,1,2,3:0:0:0:
304,228,182076,1,0,3:0:0:0:
304,228,182161,1,4,1:3:0:0:
237,149,182332,5,2,3:0:0:0:
237,149,182417,1,0,3:0:0:0:
237,149,182502,2,0,P|226:99|238:53,1,80,4|0,1:2|0:0,0:0:0:0:
391,199,182843,2,0,P|402:149|390:103,1,80,10|12,1:3|0:0,0:0:0:0:
306,12,183184,1,2,1:0:0:0:
445,0,183354,1,8,0:3:0:0:
381,109,183525,1,6,0:3:0:0:
275,16,183695,5,2,3:0:0:0:
275,16,183781,1,0,3:0:0:0:
275,16,183866,2,0,B|236:-14|236:-14|126:1,1,143.999995605469,6|0,1:2|3:0,0:0:0:0:
14,134,184377,1,0,1:0:0:0:
52,218,184548,2,0,B|79:251|117:252|117:252|146:212|197:202,1,143.999995605469,14|0,0:0|1:0,0:0:0:0:
301,304,185059,5,0,1:0:0:0:
219,371,185229,2,0,L|204:287,1,71.9999978027344,2|8,0:0|0:0,0:0:0:0:
374,384,185570,2,0,L|389:300,1,71.9999978027344,0|0,1:0|1:0,0:0:0:0:
301,196,185911,1,8,0:0:0:0:
413,141,186082,1,6,1:3:0:0:
413,141,186167,1,4,1:3:0:0:
413,141,186252,1,10,0:0:0:0:
280,219,186423,5,10,0:0:0:0:
280,219,186508,1,8,0:0:0:0:
280,219,186593,2,0,P|215:232|119:168,1,160,6|10,1:2|0:0,0:0:0:0:
29,93,187104,2,0,L|118:80,1,80,2|0,1:0|0:0,0:0:0:0:
266,7,187445,1,2,1:0:0:0:
335,72,187616,2,0,P|339:127|327:164,1,80,8|2,0:0|3:0,0:0:0:0:
320,168,187871,1,0,3:0:0:0:
305,185,187957,6,0,P|301:240|313:277,1,80,0|0,1:2|1:0,0:0:0:0:
432,343,188298,1,10,0:0:0:0:
498,280,188468,2,0,P|508:220|477:122,1,160,2|2,1:0|1:0,0:0:0:0:
366,7,188979,5,10,0:0:0:0:
268,101,189150,1,2,3:0:0:0:
268,101,189235,1,0,3:0:0:0:
268,101,189320,2,0,B|227:110|227:110|183:98,1,80,6|0,1:2|1:0,0:0:0:0:
71,0,189661,1,10,0:0:0:0:
0,72,189832,2,0,P|-2:105|83:124,1,120,2|0,1:0|0:0,0:0:0:0:
148,195,190173,2,0,P|150:246|125:291,1,80,2|8,1:0|0:0,0:0:0:0:
10,354,190514,6,0,B|57:340|57:340|90:376|144:371,1,120,6|0,1:2|0:0,0:0:0:0:
208,334,190855,2,0,P|248:320|311:337,1,80,2|8,1:0|0:0,0:0:0:0:
112,231,191195,2,0,P|94:165|115:67,1,160,6|8,1:2|0:0,0:0:0:0:
215,11,191707,1,8,0:0:0:0:
234,7,191792,1,8,0:0:0:0:
254,6,191877,1,8,0:3:0:0:
274,9,191962,1,4,0:3:0:0:
293,17,192048,6,0,L|279:104,1,80,6|0,1:2|0:0,0:0:0:0:
387,239,192389,1,10,0:0:0:0:
475,203,192559,2,0,B|508:162|508:162|490:54,1,160,2|0,1:0|1:0,0:0:0:0:
347,169,193070,5,10,0:0:0:0:
267,221,193241,1,2,3:0:0:0:
267,221,193326,1,0,3:0:0:0:
267,221,193411,2,0,P|219:232|178:222,1,80,4|0,1:2|1:0,0:0:0:0:
70,111,193752,1,10,0:0:0:0:
142,47,193923,2,0,B|240:38|203:88|309:82,1,160,2|2,1:0|1:0,0:0:0:0:
411,8,194434,1,10,0:0:0:0:
495,144,194604,5,2,0:0:0:0:
495,144,194690,1,0,3:0:0:0:
495,144,194775,2,0,B|505:183|505:183|490:253,1,80,6|0,1:2|1:0,0:0:0:0:
380,342,195116,1,8,0:0:0:0:
309,278,195286,2,0,B|252:263|252:263|208:279|208:279|138:266,1,160,4|0,1:2|1:0,0:0:0:0:
15,342,195798,2,0,P|16:289|33:257,1,80,10|2,0:0|1:0,0:0:0:0:
134,165,196139,5,4,1:2:0:0:
0,123,196309,1,0,1:0:0:0:
166,43,196479,1,12,0:0:0:0:
31,5,196650,1,0,1:0:0:0:
150,177,196820,1,12,0:2:0:0:
266,118,196991,5,10,1:3:0:0:
273,99,197076,1,8,1:3:0:0:
277,79,197161,1,10,0:3:0:0:
278,59,197246,1,8,0:3:0:0:
276,40,197331,1,6,0:3:0:0:
269,20,197417,1,4,0:3:0:0:
260,3,197502,1,6,1:2:0:0:
476,169,208070,6,0,P|472:137|394:136,1,107.999996704102,0|0,3:0|0:0,0:0:0:0:
349,191,208411,6,0,P|315:207|270:201,1,71.9999978027344,2|0,1:0|0:0,0:0:0:0:
208,146,208752,2,0,P|192:112|198:67,1,71.9999978027344,2|2,1:0|0:0,0:0:0:0:
271,25,209093,2,0,P|305:9|350:15,1,71.9999978027344,0|2,1:0|0:0,0:0:0:0:
412,70,209434,2,0,P|428:104|422:149,1,71.9999978027344,0|2,1:0|3:0,0:0:0:0:
353,221,209775,6,0,L|330:313,1,71.9999978027344,0|0,1:0|0:0,0:0:0:0:
223,291,210116,2,0,L|246:383,1,71.9999978027344,2|2,1:0|0:0,0:0:0:0:
122,287,210457,2,0,L|140:218,1,71.9999978027344,2|2,1:0|0:0,0:0:0:0:
27,357,210798,2,0,L|10:288,1,71.9999978027344,10|2,0:0|3:0,0:0:0:0:
5,268,211053,1,0,3:0:0:0:
0,246,211139,6,0,B|14:192|14:192|40:174|40:174|59:105,1,143.999995605469,2|2,1:0|1:0,0:0:0:0:
10,8,211650,2,0,P|55:1|84:6,1,71.9999978027344,2|0,0:0|1:0,0:0:0:0:
163,112,211991,2,0,P|208:119|237:114,1,71.9999978027344,2|0,0:0|1:0,0:0:0:0:
339,16,212332,6,0,L|349:100,1,71.9999978027344,2|0,0:0|1:0,0:0:0:0:
478,96,212673,2,0,L|488:180,1,71.9999978027344,2|2,0:0|1:0,0:0:0:0:
340,274,213014,2,0,P|320:238|399:201,1,143.999995605469,2|2,0:0|0:0,0:0:0:0:
399,354,213525,2,0,P|353:368|302:353,1,71.9999978027344,2|0,1:0|0:0,0:0:0:0:
215,281,213866,6,0,L|226:179,1,80,6|0,1:2|0:0,0:0:0:0:
223,201,214122,1,0,3:0:0:0:
223,201,214207,1,10,1:2:0:0:
101,337,214377,2,0,L|82:163,1,160,6|2,0:0|3:0,0:0:0:0:
0,69,214889,1,2,1:0:0:0:
15,56,214974,1,0,3:0:0:0:
33,47,215059,1,10,0:0:0:0:
52,42,215144,1,8,0:0:0:0:
76,43,215229,6,0,B|171:40|136:93|241:80,1,160,6|2,1:2|1:0,0:0:0:0:
373,14,215741,2,0,B|411:3|411:3|461:21,1,80,6|0,0:0|1:0,0:0:0:0:
511,193,216082,1,2,3:0:0:0:
423,234,216252,2,0,L|330:214,1,80,10|10,0:0|0:0,0:0:0:0:
206,249,216593,5,14,1:2:0:0:
99,211,216764,1,8,1:2:0:0:
137,104,216934,1,10,1:2:0:0:
244,142,217104,1,10,1:2:0:0:
180,266,217275,5,8,1:2:0:0:
218,373,217445,1,10,1:2:0:0:
325,335,217616,1,8,1:2:0:0:
287,228,217786,1,10,1:2:0:0:
378,120,217957,5,12,0:0:0:0:
492,235,218127,1,0,1:0:0:0:
492,235,218298,1,0,1:0:0:0:
352,307,218468,2,0,P|308:313|268:298,1,80,12|2,0:0|1:0,0:0:0:0:
201,187,218809,1,2,1:0:0:0:
204,167,218894,1,0,1:0:0:0:
207,147,218979,1,10,0:0:0:0:
211,127,219064,1,8,0:0:0:0:
214,108,219149,1,10,0:0:0:0:
218,88,219235,1,8,0:0:0:0:
222,67,219320,6,0,B|178:8|116:15|116:15|129:0|129:0|53:-7|4:10|4:10|8:89|52:119,1,384,6|0,1:2|0:0,0:0:0:0:
219,178,220514,5,0,1:0:0:0:
219,178,220599,1,0,1:0:0:0:
219,178,220684,2,0,B|278:172|312:136|312:136|306:153|306:153|357:110|425:128|439:169,1,256,4|0,1:2|0:0,0:0:0:0:
499,301,221536,1,0,1:0:0:0:
499,301,221621,1,0,1:0:0:0:
499,301,221707,2,0,P|490:358|408:305,1,155.999992858887,10|0,0:0|0:0,0:0:0:0:
364,261,222048,6,0,B|256:237|289:316|174:292,1,191.999994140625,6|10,1:2|0:0,0:0:0:0:
47,165,222559,2,0,B|24:118|41:75|41:75|104:77|126:144,1,191.999994140625,0|2,1:0|1:0,0:0:0:0:
122,222,223070,1,10,0:0:0:0:
200,344,223241,6,0,B|225:365|254:379|254:379|322:367|391:325,1,191.999994140625,6|0,1:2|1:0,0:0:0:0:
512,227,223752,1,8,0:0:0:0:
435,161,223923,2,0,P|421:105|431:53,1,95.9999970703126,4|0,1:2|0:0,0:0:0:0:
336,222,224264,1,10,0:0:0:0:
313,231,224349,1,8,0:0:0:0:
290,235,224434,1,10,0:0:0:0:
266,233,224519,1,8,0:0:0:0:
243,225,224604,1,10,0:0:0:0:
223,213,224690,1,8,0:0:0:0:
204,198,224775,6,0,L|97:181,1,95.9999970703126,6|0,1:2|1:0,0:0:0:0:
7,62,225116,1,10,0:0:0:0:
87,11,225286,2,0,B|162:6|162:6|202:38|202:38|286:30,1,191.999994140625,2|0,1:0|1:0,0:0:0:0:
383,138,225798,5,10,0:0:0:0:
464,86,225968,1,2,3:0:0:0:
464,86,226053,1,0,3:0:0:0:
464,86,226139,2,0,P|478:30|471:-15,1,95.9999970703126,4|0,1:2|1:0,0:0:0:0:
273,125,226479,2,0,P|259:69|266:24,1,95.9999970703126,10|0,0:0|1:0,0:0:0:0:
413,223,226820,2,0,P|462:215|520:237,1,95.9999970703126,2|0,0:0|1:0,0:0:0:0:
327,303,227161,2,0,P|300:352|207:335,1,143.999995605469,10|0,0:0|0:0,0:0:0:0:
176,265,227502,6,0,B|133:250|133:250|56:263,1,95.9999970703126,6|0,1:2|1:0,0:0:0:0:
7,122,227843,1,8,0:0:0:0:
60,274,228014,1,4,1:2:0:0:
153,128,228184,2,0,L|164:25,1,95.9999970703126,2|2,0:0|1:0,0:0:0:0:
302,148,228525,1,10,0:0:0:0:
145,161,228695,1,2,1:0:0:0:
266,40,228866,6,0,P|316:31|374:45,1,95.9999970703126,4|0,1:2|1:0,0:0:0:0:
463,134,229207,1,8,0:0:0:0:
332,191,229377,1,4,1:2:0:0:
476,262,229548,1,4,0:3:0:0:
476,262,229633,1,4,0:3:0:0:
476,262,229718,1,2,1:0:0:0:
320,333,229889,5,10,0:0:0:0:
320,333,229974,1,8,0:0:0:0:
320,333,230059,1,10,0:3:0:0:
320,333,230144,1,4,0:3:0:0:
320,333,230229,2,0,B|298:374|242:385|242:385|207:324|124:330,1,191.999994140625,6|10,1:2|0:0,0:0:0:0:
47,258,230741,2,0,P|101:227|145:217,1,95.9999970703126,2|0,1:0|0:0,0:0:0:0:
289,236,231082,1,2,1:0:0:0:
356,152,231252,2,0,P|302:121|258:111,1,95.9999970703126,8|2,0:0|3:0,0:0:0:0:
269,112,231508,1,0,3:0:0:0:
269,112,231593,5,0,1:0:0:0:
168,215,231764,1,0,1:0:0:0:
72,111,231934,2,0,L|54:13,1,95.9999970703126,10|2,0:0|1:0,0:0:0:0:
239,127,232275,2,0,L|257:29,1,95.9999970703126,2|2,0:0|1:0,0:0:0:0:
360,214,232616,2,0,P|361:273|282:278,1,143.999995605469,10|0,0:0|3:0,0:0:0:0:
215,222,232957,5,6,1:2:0:0:
91,348,233127,1,0,1:0:0:0:
264,295,233298,1,10,0:0:0:0:
108,238,233468,1,2,1:0:0:0:
108,238,233809,1,2,1:0:0:0:
171,384,233979,1,8,0:0:0:0:
255,207,234150,6,0,P|277:141|253:58,1,143.999995605469,6|0,1:2|0:0,0:0:0:0:
191,19,234491,2,0,L|87:39,1,95.9999970703126,0|8,1:0|0:0,0:0:0:0:
0,203,234832,2,0,B|36:244|36:244|130:228,1,143.999995605469,4|0,1:2|0:0,0:0:0:0:
184,159,235173,1,2,1:0:0:0:
273,284,235343,1,10,0:0:0:0:
362,149,235514,5,2,3:0:0:0:
362,149,235599,1,0,3:0:0:0:
362,149,235684,2,0,P|409:131|465:135,1,95.9999970703126,6|0,1:2|1:0,0:0:0:0:
509,308,236025,1,10,0:0:0:0:
437,365,236195,2,0,P|313:373|242:341,1,191.999994140625,2|0,1:0|1:0,0:0:0:0:
175,239,236707,2,0,L|294:213,1,95.9999970703126,10|0,0:0|0:0,0:0:0:0:
366,105,237048,5,6,1:2:0:0:
277,0,237218,1,0,1:0:0:0:
213,132,237389,1,10,0:0:0:0:
119,40,237559,2,0,P|74:29|23:42,1,95.9999970703126,2|0,1:0|0:0,0:0:0:0:
212,157,237900,1,0,1:0:0:0:
130,219,238070,2,0,P|118:278|150:354,1,143.999995605469,10|0,0:0|0:0,0:0:0:0:
245,358,238411,6,0,L|361:340,1,95.9999970703126,6|0,1:2|1:0,0:0:0:0:
502,226,238752,1,10,0:0:0:0:
448,153,238923,2,0,L|252:125,1,191.999994140625,6|6,1:2|0:3,0:0:0:0:
257,125,239349,1,4,0:3:0:0:
257,125,239434,1,8,0:0:0:0:
150,276,239604,5,6,0:3:0:0:
150,276,239690,1,4,0:3:0:0:
150,276,239775,1,12,0:0:0:0:
4,210,239945,1,0,1:0:0:0:
158,169,240116,1,14,0:0:0:0:
23,95,240286,2,0,B|13:49|13:49|31:-6,1,95.9999970703126,0|10,1:0|0:0,0:0:0:0:
179,146,240627,1,8,0:0:0:0:
199,132,240712,1,8,0:0:0:0:
220,121,240797,1,10,0:0:0:0:
242,113,240882,1,8,0:3:0:0:
266,107,240967,1,10,0:3:0:0:
289,104,241053,1,4,0:3:0:0:
314,104,241139,6,0,P|371:114|419:129,1,88.000002685547,4|2,1:2|1:0,0:0:0:0:
507,259,241479,1,10,0:0:0:0:
446,343,241650,2,0,B|400:372|400:372|351:352|259:342,1,176.000005371094,4|0,1:2|1:0,0:0:0:0:
138,259,242161,2,0,P|191:234|234:228,1,88.000002685547,8|2,0:0|0:0,0:0:0:0:
219,228,242417,1,2,0:0:0:0:
219,228,242502,5,4,1:2:0:0:
346,265,242673,1,0,1:0:0:0:
373,137,242843,1,8,0:0:0:0:
245,107,243014,2,0,P|182:95|67:136,1,176.000005371094,4|0,1:2|1:0,0:0:0:0:
11,295,243525,2,0,P|45:343|123:322,1,132.00000402832,8|0,0:0|0:0,0:0:0:0:
172,269,243866,6,0,L|157:174,1,88.000002685547,4|0,1:2|1:0,0:0:0:0:
50,34,244207,1,8,0:0:0:0:
26,124,244377,2,0,L|12:210,1,88.000002685547,4|0,1:2|0:0,0:0:0:0:
143,91,244718,1,0,1:0:0:0:
192,172,244889,2,0,P|254:182|301:162,1,88.000002685547,8|0,0:0|0:0,0:0:0:0:
405,32,245229,6,0,B|391:61|391:61|412:132,1,88.000002685547,4|0,1:2|1:0,0:0:0:0:
509,236,245570,1,8,1:2:0:0:
509,236,245741,1,4,1:3:0:0:
386,325,245911,1,8,1:2:0:0:
386,325,246082,1,0,1:0:0:0:
287,207,246252,1,8,0:0:0:0:
267,196,246337,1,8,0:0:0:0:
247,188,246422,1,8,0:3:0:0:
225,184,246507,1,4,0:3:0:0:
204,186,246593,6,0,L|186:277,1,88.000002685547,4|0,1:0|1:0,0:0:0:0:
336,360,246934,1,8,0:0:0:0:
418,297,247104,2,0,P|442:248|427:117,1,176.000005371094,4|0,1:2|1:0,0:0:0:0:
326,17,247616,2,0,L|310:111,1,88.000002685547,8|0,0:0|3:0,0:0:0:0:
184,195,247957,6,0,B|168:153|168:153|176:102,1,88.000002685547,4|0,1:2|1:0,0:0:0:0:
74,339,248298,1,8,0:0:0:0:
170,307,248468,2,0,B|271:288|254:344|356:328,1,176.000005371094,4|0,1:2|1:0,0:0:0:0:
495,234,248979,2,0,P|476:186|399:208,1,132.00000402832,8|0,0:0|0:0,0:0:0:0:
315,235,249320,6,0,P|307:183|317:134,1,88.000002685547,4|0,1:2|1:0,0:0:0:0:
469,91,249661,1,8,0:0:0:0:
401,22,249832,2,0,B|360:-6|360:-6|237:25,1,176.000005371094,4|0,1:2|1:0,0:0:0:0:
99,140,250343,2,0,L|5:120,1,88.000002685547,8|0,0:0|0:0,0:0:0:0:
193,244,250684,5,4,1:2:0:0:
193,244,250854,1,0,1:0:0:0:
80,334,251025,1,8,1:2:0:0:
80,334,251195,1,0,1:0:0:0:
229,375,251366,1,8,1:2:0:0:
176,211,251536,1,0,3:0:0:0:
168,190,251621,1,0,3:0:0:0:
163,168,251706,1,8,0:0:0:0:
161,147,251791,1,8,0:0:0:0:
161,125,251876,1,8,0:3:0:0:
165,103,251962,1,4,0:3:0:0:
172,82,252048,6,0,L|266:96,1,88.000002685547,12|0,1:2|1:0,0:0:0:0:
390,221,252389,1,0,1:0:0:0:
341,305,252559,2,0,L|253:317,2,88.000002685547,12|0|0,1:2|1:0|1:0,0:0:0:0:
512,181,253070,6,0,L|418:195,1,88.000002685547,12|0,1:2|1:0,0:0:0:0:
256,77,253411,1,0,1:0:0:0:
326,10,253582,2,0,L|413:22,2,88.000002685547,12|0|0,1:2|1:0|1:0,0:0:0:0:
171,127,254093,5,8,0:0:0:0:
316,194,254264,1,8,0:0:0:0:
316,194,254349,1,8,0:0:0:0:
316,194,254434,1,8,0:3:0:0:
187,275,254604,1,4,0:3:0:0:
257,358,254775,6,0,B|266:308|322:285|322:285|275:298|213:291|179:244|179:244|218:167|307:162|364:194|364:194|292:143|275:68|325:11|400:-2|462:39|479:85|455:110|427:121|394:88,1,844.8,6|0,1:2|0:0,0:0:0:0:
