osu file format v14

[General]
AudioFilename: audio.mp3
AudioLeadIn: 0
PreviewTime: 64382
Countdown: 0
SampleSet: Normal
StackLeniency: 0.7
Mode: 1
LetterboxInBreaks: 0
WidescreenStoryboard: 0

[Editor]
Bookmarks: 1114,11840,17203,25248,35974,46700,57426,65471,76197,86924,92287,103013,113739,124465,135192,143236,153963,164689,170052,180778,191505,202231,207594,212957,215639,226365,237091,247817,258544,263907,271951,274633
DistanceSpacing: 1.1
BeatDivisor: 4
GridSize: 32
TimelineZoom: 1.8

[Metadata]
Title:Rinne
TitleUnicode:輪廻
Artist:Yamamoto Mineko
ArtistUnicode:山本美禰子
Creator:Slyme
Version:Oni
Source:さくら、もゆ。-as the Night's, Reincarnation-
Tags:mari 0hara mari_0hara 山本 美禰子 Sakura Moyu 2nd opening op2 Takayuki Ishikura 石倉 誉之 maro Masato Yokoe 横江将人 Kotaro Odaka 小高 光太郎 FVS-SAKREC Japanese Vocal FAVORITE 15th ANNIVERSARY SPECIAL LIVE Denkigai Matsuri 2019 SUMMER FVS-SAKOST OST Original Soundtrack CD Cherry Blossom Dark Fantasy eroge video game galgame pop japanese j-pop jpop visual novel vn nights favosoft トム mineko yamamoto
BeatmapID:3879380
BeatmapSetID:1884167

[Difficulty]
HPDrainRate:5.5
CircleSize:2
OverallDifficulty:5.5
ApproachRate:10
SliderMultiplier:1.4
SliderTickRate:1

[Events]
//Background and Video events
Video,-141,"output.mp4"
0,0,"Rinnee.jpg",0,50
//Break Periods
//Storyboard Layer 0 (Background)
//Storyboard Layer 1 (Fail)
//Storyboard Layer 2 (Pass)
//Storyboard Layer 3 (Foreground)
//Storyboard Layer 4 (Overlay)
//Storyboard Sound Samples

[TimingPoints]
1114,335.195530726257,4,1,0,40,1,0
1114,-142.857142857143,4,1,0,40,0,0
10331,-142.857142857143,4,1,0,40,0,0
10499,-138.453069088907,4,1,0,43,0,0
10667,-134.312416555407,4,1,0,47,0,0
10834,-130.434782608696,4,1,0,50,0,0
11002,-126.753464930701,4,1,0,53,0,0
11169,-123.294386796307,4,1,0,57,0,0
11337,-120,4,1,0,60,0,0
11505,-116.877081558361,4,1,0,63,0,0
11840,-111.111111111111,4,1,0,70,0,0
15695,-111.111111111111,4,1,0,70,0,0
15862,-109.760535701288,4,1,0,71,0,0
16030,-108.434601279931,4,1,0,72,0,0
16197,-107.147932357539,4,1,0,73,0,0
16365,-105.88400505547,4,1,0,74,0,0
16532,-104.6568117149,4,1,0,76,0,0
16700,-103.450641421417,4,1,0,77,0,0
16868,-102.271956595456,4,1,0,78,0,0
17035,-101.12660944206,4,1,0,79,0,0
17119,-100.560149373166,4,1,0,79,0,0
17203,-100,4,1,0,80,0,0
21896,-100,4,1,0,80,0,0
22063,-101.006448502381,4,1,0,79,0,0
22231,-102.039573820396,4,1,0,78,0,0
22398,-103.087710665519,4,1,0,77,0,0
22566,-104.164077066501,4,1,0,76,0,0
23739,-112.355031172488,4,1,0,69,0,0
23823,-112.991303175352,4,1,0,69,0,0
23907,-113.634822699844,4,1,0,68,0,0
24410,-117.647058823529,4,1,0,65,0,0
24745,-120.480195528718,4,1,0,63,0,0
24912,-121.944121071013,4,1,0,62,0,0
25248,-125,4,1,0,60,0,0
45024,-125,4,1,0,60,0,0
45192,-123.453152622275,4,1,0,61,0,0
45359,-121.952994251619,4,1,0,62,0,0
45527,-120.480195528718,4,1,0,63,0,0
45695,-119.042545635343,4,1,0,64,0,0
45778,-118.344866544273,4,1,0,64,0,0
45862,-117.647058823529,4,1,0,65,0,0
46030,-116.275842930484,4,1,0,66,0,0
46197,-114.944105342569,4,1,0,67,0,0
46365,-113.634822699844,4,1,0,68,0,0
46700,-111.111111111111,4,1,0,70,0,0
56421,-111.111111111111,4,1,0,70,0,0
56588,-109.09683022145,4,1,0,72,0,0
56756,-107.142857142857,4,1,0,73,0,0
56924,-105.257645580226,4,1,0,75,0,0
57007,-104.350534731596,4,1,0,76,0,0
57091,-103.448275862069,4,1,0,77,0,0
57259,-101.689770312658,4,1,0,78,0,0
57426,-100,4,1,0,80,0,0
62789,-100,4,1,0,80,0,0
62957,-99.377501111605,4,1,0,81,0,0
63125,-98.762704374724,4,1,0,81,0,0
63292,-98.159060132489,4,1,0,82,0,0
63460,-97.559201193118,4,1,0,83,0,0
63627,-96.970135223082,4,1,0,83,0,0
63795,-96.384676202113,4,1,0,84,0,0
63879,-96.094589752777,4,1,0,84,0,0
63963,-95.806244195185,4,1,0,84,0,0
64298,-94.673302975749,4,1,0,86,0,0
64465,-94.118472768108,4,1,0,86,0,0
64801,-93.021642619312,4,1,0,88,0,0
64884,-92.754625626837,4,1,0,88,0,0
64968,-92.485947791303,4,1,0,88,0,0
65052,-92.218821992229,4,1,0,88,0,0
65136,-91.953234820173,4,1,0,89,0,0
65303,-91.429740233177,4,1,0,89,0,0
65471,-90.909090909091,4,1,0,90,0,1
85918,-90.909090909091,4,1,0,80,0,1
86086,-89.549581627203,4,1,0,82,0,1
86253,-88.237873870713,4,1,0,83,0,1
86421,-86.95652173913,4,1,0,85,0,1
86505,-86.329700506307,4,1,0,86,0,1
86588,-85.71915473756,4,1,0,87,0,1
86756,-84.509408602151,4,1,0,88,0,1
86924,-83.333333333333,4,1,0,90,0,1
89605,-83.333333333333,4,1,0,90,0,1
89773,-85.110434120335,4,1,0,89,0,1
89857,-86.027713625866,4,1,0,88,0,1
89940,-86.953702502918,4,1,0,88,0,1
90108,-88.890361924964,4,1,0,86,0,1
90276,-90.915254237288,4,1,0,85,0,1
90359,-91.950082281953,4,1,0,84,0,1
90443,-93.021642619312,4,1,0,84,0,1
90611,-95.241477272727,4,1,0,82,0,1
90778,-97.55565255347,4,1,0,81,0,1
90862,-98.762704374724,4,1,0,81,0,1
90946,-100,4,1,0,80,0,0
97650,-100,4,1,0,90,0,0
97985,-102.56312165264,4,1,0,86,0,0
98320,-105.261091480173,4,1,0,83,0,0
98655,-108.104838709677,4,1,0,79,0,0
98823,-109.589601046436,4,1,0,77,0,0
98907,-110.34738228515,4,1,0,76,0,0
98991,-111.115716180371,4,1,0,75,0,0
99158,-112.675464402791,4,1,0,73,0,0
99326,-114.289368232586,4,1,0,71,0,0
99493,-115.94014876319,4,1,0,69,0,0
99661,-117.649640161488,4,1,0,67,0,0
99829,-119.410297523606,4,1,0,66,0,0
99912,-120.299739746926,4,1,0,65,0,0
99996,-121.213491274075,4,1,0,64,0,0
100164,-123.083279772289,4,1,0,62,0,0
100331,-125,4,1,0,60,0,0
100667,-100,4,1,0,90,0,0
100834,-101.444261869757,4,1,0,88,0,0
101002,-102.939885914875,4,1,0,86,0,0
101169,-104.470965443534,4,1,0,84,0,0
101337,-106.057866184448,4,1,0,81,0,0
101505,-107.693720161586,4,1,0,79,0,0
101672,-109.370629370629,4,1,0,77,0,0
101840,-111.111111111111,4,1,0,75,0,0
101924,-112.002291606989,4,1,0,74,0,0
102007,-112.897016361886,4,1,0,73,0,0
102091,-113.81719386765,4,1,0,72,0,0
102175,-114.752494619448,4,1,0,71,0,0
102259,-114.752494619448,4,1,0,71,0,0
102343,-116.669982096678,4,1,0,69,0,0
102426,-117.64115936215,4,1,0,68,0,0
102510,-118.640639223222,4,1,0,66,0,0
102594,-119.657247781291,4,1,0,65,0,0
102678,-120.691429159379,4,1,0,64,0,0
102762,-121.743642968345,4,1,0,63,0,0
102845,-122.801507537688,4,1,0,62,0,0
102929,-123.891001267427,4,1,0,61,0,0
103013,-125,4,1,0,60,0,0
112398,-125,4,1,0,60,0,0
112566,-123.07268722467,4,1,0,61,0,0
112734,-121.203904555315,4,1,0,63,0,0
112817,-120.301426392751,4,1,0,63,0,0
112901,-119.401656130353,4,1,0,64,0,0
113069,-117.641898412141,4,1,0,65,0,0
113236,-115.943282033547,4,1,0,66,0,0
113404,-114.283279359127,4,1,0,68,0,0
113572,-112.670139472358,4,1,0,69,0,0
113739,-111.111111111111,4,1,0,70,0,0
118097,-111.111111111111,4,1,0,70,0,0
118264,-109.09683022145,4,1,0,72,0,0
118432,-107.142857142857,4,1,0,73,0,0
118600,-105.257645580226,4,1,0,75,0,0
118683,-104.350534731596,4,1,0,76,0,0
118767,-103.448275862069,4,1,0,77,0,0
118935,-101.689770312658,4,1,0,78,0,0
119102,-100,4,1,0,80,0,0
123292,-100,4,1,0,80,0,0
123460,-101.453035806954,4,1,0,79,0,0
123544,-102.195504443283,4,1,0,78,0,0
123627,-102.939885914875,4,1,0,77,0,0
123795,-104.480270775808,4,1,0,76,0,0
123963,-106.067456370377,4,1,0,74,0,0
124130,-107.693720161586,4,1,0,73,0,0
124298,-109.380828049235,4,1,0,71,0,0
124382,-110.244360902256,4,1,0,71,0,0
124465,-111.111111111111,4,1,0,70,0,0
134186,-111.111111111111,4,1,0,70,0,0
134354,-109.086965950987,4,1,0,72,0,0
134521,-107.146660986261,4,1,0,73,0,0
134689,-105.263157894737,4,1,0,75,0,0
134773,-104.346022196868,4,1,0,76,0,0
134857,-103.444730077121,4,1,0,77,0,0
135024,-101.698342094622,4,1,0,78,0,0
135192,-100,4,1,0,80,0,0
140555,-100,4,1,0,80,0,0
140722,-99.380954146124,4,1,0,81,0,0
140890,-98.765886903665,4,1,0,81,0,0
141058,-98.158386116501,4,1,0,82,0,0
141225,-97.561863173217,4,1,0,82,0,0
141393,-96.969039351852,4,1,0,83,0,0
141560,-96.386841632213,4,1,0,84,0,0
141644,-96.096634287967,4,1,0,84,0,0
141728,-95.808169245613,4,1,0,84,0,0
142063,-94.674765167032,4,1,0,86,0,0
142231,-94.1164080601,4,1,0,86,0,0
142482,-93.4579439252336,4,1,0,88,0,0
142566,-93.022448908782,4,1,0,88,0,0
142650,-92.752119010552,4,1,0,88,0,0
142734,-92.483355755631,4,1,0,88,0,0
142817,-92.219317556412,4,1,0,88,0,0
142901,-91.953628755659,4,1,0,89,0,0
142985,-91.689466484268,4,1,0,89,0,0
143069,-91.426817623789,4,1,0,89,0,0
143153,-91.165669205658,4,1,0,90,0,0
143236,-90.909090909091,4,1,0,90,0,1
163683,-90.909090909091,4,1,0,90,0,1
163851,-89.549581627203,4,1,0,90,0,1
164019,-88.230135064024,4,1,0,90,0,1
164186,-86.95652173913,4,1,0,90,0,1
164270,-86.329700506307,4,1,0,90,0,1
164354,-85.711851410071,4,1,0,90,0,1
164521,-84.509408602151,4,1,0,90,0,1
164689,-83.333333333333,4,1,0,90,0,1
167370,-83.333333333333,4,1,0,90,0,1
167538,-84.212509419744,4,1,0,89,0,1
167622,-84.659090909091,4,1,0,89,0,1
167706,-85.110434120335,4,1,0,89,0,1
167873,-86.022195137597,4,1,0,88,0,1
168041,-86.959341158161,4,1,0,87,0,1
168125,-87.435613222925,4,1,0,87,0,1
168208,-87.911367510161,4,1,0,87,0,1
168376,-88.890361924964,4,1,0,86,0,1
168544,-89.891406354739,4,1,0,86,0,1
168627,-90.394337714863,4,1,0,85,0,1
168711,-90.909090909091,4,1,0,85,0,0
168879,-91.956387574573,4,1,0,84,0,0
169046,-93.021642619312,4,1,0,84,0,0
169214,-94.118472768108,4,1,0,83,0,0
169382,-95.241477272727,4,1,0,82,0,0
169465,-95.806244195185,4,1,0,82,0,0
169549,-96.384676202113,4,1,0,82,0,0
169633,-96.970135223082,4,1,0,82,0,0
169717,-97.562750090942,4,1,0,81,0,0
170052,-100,4,1,0,80,0,0
200555,-100,4,1,0,80,0,0
200722,-99.01341052756,4,1,0,81,0,0
200890,-98.040362679146,4,1,0,82,0,0
201058,-97.086253837688,4,1,0,83,0,0
201141,-96.621699527269,4,1,0,83,0,0
201225,-96.156052782559,4,1,0,84,0,0
201393,-95.238095238095,4,1,0,85,0,0
201560,-94.342808893892,4,1,0,86,0,0
201728,-93.45898622651,4,1,0,87,0,0
201896,-92.591569526545,4,1,0,88,0,0
202231,-90.909090909091,4,1,0,90,0,0
206756,-90.909090909091,4,1,0,90,0,0
207091,-87.721134722077,4,1,0,90,0,0
207175,-86.95652173913,4,1,0,90,0,0
207259,-86.20512292974,4,1,0,90,0,0
207426,-84.749190938511,4,1,0,90,0,0
207594,-83.333333333333,4,1,0,90,0,1
210276,-83.333333333333,4,1,0,90,0,1
210443,-84.428771587349,4,1,0,88,0,1
210611,-85.560217609802,4,1,0,87,0,1
210695,-86.137389376978,4,1,0,86,0,1
210778,-86.715389839278,4,1,0,85,0,1
210946,-87.909385962037,4,1,0,84,0,1
211114,-89.136721736529,4,1,0,82,0,1
211281,-90.39119515936,4,1,0,81,0,1
211365,-91.035630018163,4,1,0,80,0,1
211449,-91.689319724402,4,1,0,79,0,1
211532,-92.344514084992,4,1,0,78,0,1
211616,-93.017205494658,4,1,0,78,0,1
211784,-94.392424669107,4,1,0,76,0,1
211951,-95.800360836712,4,1,0,74,0,1
212119,-97.25975227145,4,1,0,73,0,1
212203,-98.006249885784,4,1,0,72,0,1
212287,-98.764295316845,4,1,0,71,0,1
212454,-100.306736991733,4,1,0,70,0,1
212538,-101.010101010101,4,1,0,70,0,1
212622,-101.907802227036,4,1,0,68,0,1
212789,-103.550809986291,4,1,0,67,0,1
212957,-105.257992973641,4,1,0,65,0,0
214298,-121.208696831352,4,1,0,53,0,0
214633,-125.977778299782,4,1,0,49,0,0
214968,-131.137519561815,4,1,0,46,0,0
215303,-136.737972004793,4,1,0,43,0,0
215639,-142.857142857143,4,1,0,40,0,0
225359,-142.857142857143,4,1,0,40,0,0
225527,-139.528432732316,4,1,0,42,0,0
225695,-136.351314719436,4,1,0,43,0,0
225862,-133.333333333333,4,1,0,45,0,0
226030,-130.42914559834,4,1,0,47,0,0
226365,-125,4,1,0,50,0,0
233404,-125,4,1,0,50,0,0
233572,-127.664974619289,4,1,0,48,0,0
233739,-130.42914559834,4,1,0,47,0,0
233907,-133.333333333333,4,1,0,45,0,0
234074,-136.351314719436,4,1,0,43,0,0
234410,-142.857142857143,4,1,0,40,0,0
236086,-125,4,1,0,60,0,0
236421,-115.384615384615,4,1,0,70,0,0
236756,-107.142857142857,4,1,0,80,0,0
237091,-100,4,1,0,90,0,1
257538,-90.909090909091,4,1,0,80,0,1
257706,-89.549581627203,4,1,0,82,0,1
257873,-88.237873870713,4,1,0,83,0,1
258041,-86.95652173913,4,1,0,85,0,1
258125,-86.329700506307,4,1,0,86,0,1
258208,-85.71915473756,4,1,0,87,0,1
258376,-84.509408602151,4,1,0,88,0,1
258544,-83.333333333333,4,1,0,90,0,1
261225,-83.333333333333,4,1,0,90,0,1
261393,-85.110434120335,4,1,0,89,0,1
261477,-86.027713625866,4,1,0,88,0,1
261560,-86.953702502918,4,1,0,88,0,1
261728,-88.890361924964,4,1,0,86,0,1
261896,-90.915254237288,4,1,0,85,0,1
261979,-91.950082281953,4,1,0,84,0,1
262063,-93.021642619312,4,1,0,84,0,1
262231,-95.241477272727,4,1,0,82,0,1
262398,-97.55565255347,4,1,0,81,0,1
262482,-98.762704374724,4,1,0,81,0,1
262566,-100,4,1,0,80,0,0
267929,-100.410838305781,4,1,0,80,0,0
268097,-101.242726107111,4,1,0,79,0,0
268181,-101.663860552639,4,1,0,78,0,0
268264,-102.083436925066,4,1,0,78,0,0
268432,-102.943388657674,4,1,0,77,0,0
268600,-103.817951959545,4,1,0,76,0,0
268767,-104.702162382701,4,1,0,76,0,0
268851,-105.152632657242,4,1,0,75,0,0
268935,-105.606995884774,4,1,0,75,0,0
269102,-106.522077517771,4,1,0,74,0,0
269270,-107.458780423973,4,1,0,73,0,0
269605,-109.376664890783,4,1,0,71,0,0
269940,-111.364252780038,4,1,0,70,0,0
270276,-113.43168130836,4,1,0,68,0,0
270611,-115.570817383472,4,1,0,67,0,0
270778,-116.667613797806,4,1,0,66,0,0
270946,-117.792185438063,4,1,0,65,0,0
271114,-118.938647818782,4,1,0,64,0,0
271281,-120.10062010062,4,1,0,63,0,0
271365,-120.693709582598,4,1,0,63,0,0
271449,-121.292685808815,4,1,0,62,0,0
271616,-122.501342562205,4,1,0,62,0,0
271784,-123.741787716232,4,1,0,61,0,0
271951,-125,4,1,0,60,0,0
272287,-125,4,1,0,60,0,0
272454,-122.231065128001,4,1,0,62,0,0
272622,-119.566627741015,4,1,0,64,0,0
272789,-117.030734061468,4,1,0,65,0,0
272957,-114.585923899527,4,1,0,67,0,0
273125,-112.241169305725,4,1,0,69,0,0
273292,-110.003581234332,4,1,0,71,0,0
273460,-107.840842598011,4,1,0,73,0,0
273544,-106.791053424499,4,1,0,74,0,0
273627,-105.773645546373,4,1,0,75,0,0
273795,-103.772522522523,4,1,0,76,0,0
273879,-102.800089245872,4,1,0,77,0,0
273963,-101.845711759505,4,1,0,78,0,0
274047,-100.908891809023,4,1,0,79,0,0
274130,-100,4,1,0,80,0,0
274298,-103.455368161251,4,1,0,77,0,0
274465,-107.135250266241,4,1,0,73,0,0
274549,-109.086965950987,4,1,0,72,0,0
274633,-111.111111111111,4,1,0,70,0,0
275303,-125,4,1,0,50,0,0
275974,-125,4,1,0,40,0,0
276644,-125,4,1,0,30,0,0
277315,-125,4,1,0,20,0,0
277985,-125,4,1,0,15,0,0
278655,-125,4,1,0,10,0,0
279326,-125,4,1,0,5,0,0

[HitObjects]
256,192,1114,5,8,0:0:0:0:
256,192,1449,1,0,0:0:0:0:
256,192,1616,1,8,0:0:0:0:
256,192,1951,1,0,0:0:0:0:
256,192,2287,1,8,0:0:0:0:
256,192,2454,1,0,0:0:0:0:
256,192,2622,1,0,0:0:0:0:
256,192,2789,1,8,0:0:0:0:
256,192,2957,1,0,0:0:0:0:
256,192,3460,1,8,0:0:0:0:
256,192,3795,1,0,0:0:0:0:
256,192,4130,1,0,0:0:0:0:
256,192,4298,1,8,0:0:0:0:
256,192,4633,1,0,0:0:0:0:
256,192,4968,1,8,0:0:0:0:
256,192,5136,1,0,0:0:0:0:
256,192,5303,1,0,0:0:0:0:
256,192,5471,1,8,0:0:0:0:
256,192,5639,1,8,0:0:0:0:
256,192,5806,1,0,0:0:0:0:
256,192,5974,1,8,0:0:0:0:
256,192,6141,1,0,0:0:0:0:
256,192,6477,1,8,0:0:0:0:
256,192,6644,1,0,0:0:0:0:
256,192,6812,1,0,0:0:0:0:
256,192,6979,1,8,0:0:0:0:
256,192,7482,1,8,0:0:0:0:
256,192,7817,1,0,0:0:0:0:
256,192,8153,1,8,0:0:0:0:
256,192,8320,1,0,0:0:0:0:
256,192,8655,1,0,0:0:0:0:
256,192,8823,1,8,0:0:0:0:
256,192,9158,1,0,0:0:0:0:
256,192,9493,1,0,0:0:0:0:
256,192,9661,1,8,0:0:0:0:
256,192,9996,1,0,0:0:0:0:
256,192,10331,1,8,0:0:0:0:
256,192,10499,1,0,0:0:0:0:
256,192,10667,1,8,0:0:0:0:
256,192,10834,1,8,0:0:0:0:
256,192,11002,1,0,0:0:0:0:
256,192,11169,1,0,0:0:0:0:
256,192,11337,1,8,0:0:0:0:
256,192,11505,1,0,0:0:0:0:
256,192,11840,1,12,0:0:0:0:
256,192,12175,1,0,0:0:0:0:
256,192,12343,1,8,0:0:0:0:
256,192,12678,1,0,0:0:0:0:
256,192,12845,1,0,0:0:0:0:
256,192,13013,1,8,0:0:0:0:
256,192,13181,1,0,0:0:0:0:
256,192,13348,1,0,0:0:0:0:
256,192,13516,1,8,0:0:0:0:
256,192,13683,1,0,0:0:0:0:
256,192,14186,1,8,0:0:0:0:
256,192,14521,1,0,0:0:0:0:
256,192,14857,1,8,0:0:0:0:
256,192,15024,1,0,0:0:0:0:
256,192,15359,1,0,0:0:0:0:
256,192,15695,1,8,0:0:0:0:
256,192,15862,1,0,0:0:0:0:
256,192,16030,1,0,0:0:0:0:
256,192,16197,1,0,0:0:0:0:
256,192,16365,1,8,0:0:0:0:
256,192,16532,1,0,0:0:0:0:
256,192,16700,1,8,0:0:0:0:
256,192,16868,1,0,0:0:0:0:
256,192,17035,1,0,0:0:0:0:
256,192,17119,1,0,0:0:0:0:
256,192,17203,1,8,0:0:0:0:
256,192,17370,1,0,0:0:0:0:
256,192,17538,1,0,0:0:0:0:
256,192,17706,1,8,0:0:0:0:
256,192,17873,1,0,0:0:0:0:
256,192,18208,1,8,0:0:0:0:
256,192,18292,1,8,0:0:0:0:
256,192,18376,1,0,0:0:0:0:
256,192,18544,1,8,0:0:0:0:
256,192,18711,1,0,0:0:0:0:
256,192,18879,1,8,0:0:0:0:
256,192,19046,1,8,0:0:0:0:
256,192,19130,1,0,0:0:0:0:
256,192,19214,1,8,0:0:0:0:
256,192,19382,1,0,0:0:0:0:
256,192,19549,1,8,0:0:0:0:
256,192,19884,1,8,0:0:0:0:
256,192,19968,1,8,0:0:0:0:
256,192,20052,1,0,0:0:0:0:
256,192,20220,1,0,0:0:0:0:
256,192,20387,1,8,0:0:0:0:
256,192,20471,1,0,0:0:0:0:
256,192,20555,1,8,0:0:0:0:
256,192,20722,1,0,0:0:0:0:
256,192,20890,1,8,0:0:0:0:
256,192,21058,1,0,0:0:0:0:
256,192,21225,1,0,0:0:0:0:
256,192,21393,1,8,0:0:0:0:
256,192,21560,1,0,0:0:0:0:
256,192,21728,1,0,0:0:0:0:
256,192,21812,1,0,0:0:0:0:
256,192,21896,1,8,0:0:0:0:
256,192,22063,1,0,0:0:0:0:
256,192,22231,1,8,0:0:0:0:
256,192,22398,1,0,0:0:0:0:
256,192,22566,1,8,0:0:0:0:
256,192,23739,1,0,0:0:0:0:
256,192,23823,1,0,0:0:0:0:
256,192,23907,1,8,0:0:0:0:
256,192,24410,1,8,0:0:0:0:
256,192,24745,1,0,0:0:0:0:
256,192,24912,1,0,0:0:0:0:
256,192,25248,1,12,0:0:0:0:
256,192,25583,1,0,0:0:0:0:
256,192,25750,1,8,0:0:0:0:
256,192,25918,1,0,0:0:0:0:
256,192,26086,1,8,0:0:0:0:
256,192,26253,1,0,0:0:0:0:
256,192,26588,1,8,0:0:0:0:
256,192,26756,1,8,0:0:0:0:
256,192,26924,1,0,0:0:0:0:
256,192,27091,1,8,0:0:0:0:
256,192,27259,1,0,0:0:0:0:
256,192,27594,1,8,0:0:0:0:
256,192,27762,1,8,0:0:0:0:
256,192,27929,1,0,0:0:0:0:
256,192,28264,1,0,0:0:0:0:
256,192,28432,1,8,0:0:0:0:
256,192,28600,1,0,0:0:0:0:
256,192,28767,1,8,0:0:0:0:
256,192,28935,1,8,0:0:0:0:
256,192,29270,1,8,0:0:0:0:
256,192,29438,1,8,0:0:0:0:
256,192,29605,1,0,0:0:0:0:
256,192,29773,1,8,0:0:0:0:
256,192,29940,1,0,0:0:0:0:
256,192,30276,1,8,0:0:0:0:
256,192,30443,1,8,0:0:0:0:
256,192,30611,1,0,0:0:0:0:
256,192,30946,1,8,0:0:0:0:
256,192,31114,1,0,0:0:0:0:
256,192,31281,1,8,0:0:0:0:
256,192,31449,1,0,0:0:0:0:
256,192,31616,1,8,0:0:0:0:
256,192,31784,1,8,0:0:0:0:
256,192,31951,1,0,0:0:0:0:
256,192,32287,1,8,0:0:0:0:
256,192,32454,1,0,0:0:0:0:
256,192,32622,1,8,0:0:0:0:
256,192,32789,1,8,0:0:0:0:
256,192,32957,1,0,0:0:0:0:
256,192,33125,1,0,0:0:0:0:
256,192,33292,1,8,0:0:0:0:
256,192,33627,1,8,0:0:0:0:
256,192,33795,1,0,0:0:0:0:
256,192,33963,1,8,0:0:0:0:
256,192,34130,1,0,0:0:0:0:
256,192,34298,1,8,0:0:0:0:
256,192,34633,1,8,0:0:0:0:
256,192,34801,1,0,0:0:0:0:
256,192,34968,1,0,0:0:0:0:
256,192,35136,1,8,0:0:0:0:
256,192,35303,1,8,0:0:0:0:
256,192,35471,1,0,0:0:0:0:
256,192,35639,1,8,0:0:0:0:
256,192,35974,1,0,0:0:0:0:
256,192,36309,1,8,0:0:0:0:
256,192,36477,1,0,0:0:0:0:
256,192,36644,1,8,0:0:0:0:
256,192,36812,1,0,0:0:0:0:
256,192,36979,1,8,0:0:0:0:
256,192,37315,1,0,0:0:0:0:
256,192,37482,1,0,0:0:0:0:
256,192,37650,1,8,0:0:0:0:
256,192,37817,1,0,0:0:0:0:
256,192,37985,1,8,0:0:0:0:
256,192,38320,1,0,0:0:0:0:
256,192,38488,1,0,0:0:0:0:
256,192,38655,1,8,0:0:0:0:
256,192,38991,1,8,0:0:0:0:
256,192,39158,1,0,0:0:0:0:
256,192,39326,1,8,0:0:0:0:
256,192,39493,1,0,0:0:0:0:
256,192,39661,1,0,0:0:0:0:
256,192,39829,1,8,0:0:0:0:
256,192,39996,1,0,0:0:0:0:
256,192,40331,1,8,0:0:0:0:
256,192,40499,1,0,0:0:0:0:
256,192,40667,1,8,0:0:0:0:
256,192,41002,1,8,0:0:0:0:
256,192,41169,1,8,0:0:0:0:
256,192,41337,1,0,0:0:0:0:
256,192,41672,1,8,0:0:0:0:
256,192,41840,1,0,0:0:0:0:
256,192,42007,1,8,0:0:0:0:
256,192,42175,1,0,0:0:0:0:
256,192,42343,1,8,0:0:0:0:
256,192,42510,1,8,0:0:0:0:
256,192,42678,1,0,0:0:0:0:
256,192,43013,1,0,0:0:0:0:
256,192,43181,1,8,0:0:0:0:
256,192,43348,1,0,0:0:0:0:
256,192,43516,1,8,0:0:0:0:
256,192,43683,1,4,0:0:0:0:
256,192,44019,1,8,0:0:0:0:
256,192,44354,1,8,0:0:0:0:
256,192,44689,1,8,0:0:0:0:
256,192,45024,1,8,0:0:0:0:
256,192,45192,1,4,0:0:0:0:
256,192,45527,1,0,0:0:0:0:
256,192,45695,1,0,0:0:0:0:
256,192,45778,1,0,0:0:0:0:
256,192,45862,1,8,0:0:0:0:
256,192,46030,1,8,0:0:0:0:
256,192,46197,1,0,0:0:0:0:
256,192,46365,1,8,0:0:0:0:
256,192,46700,1,4,0:0:0:0:
256,192,47035,1,8,0:0:0:0:
256,192,47203,1,8,0:0:0:0:
256,192,47370,1,0,0:0:0:0:
256,192,47538,1,0,0:0:0:0:
256,192,47706,1,8,0:0:0:0:
256,192,47873,1,0,0:0:0:0:
256,192,47957,1,0,0:0:0:0:
256,192,48041,1,8,0:0:0:0:
256,192,48208,1,0,0:0:0:0:
256,192,48376,1,8,0:0:0:0:
256,192,48460,1,8,0:0:0:0:
256,192,48544,1,0,0:0:0:0:
256,192,48711,1,8,0:0:0:0:
256,192,48879,1,0,0:0:0:0:
256,192,49046,1,8,0:0:0:0:
256,192,49382,1,8,0:0:0:0:
256,192,49549,1,0,0:0:0:0:
256,192,49717,1,8,0:0:0:0:
256,192,49884,1,0,0:0:0:0:
256,192,50052,1,0,0:0:0:0:
256,192,50220,1,8,0:0:0:0:
256,192,50387,1,0,0:0:0:0:
256,192,50555,1,8,0:0:0:0:
256,192,50639,1,8,0:0:0:0:
256,192,50722,1,0,0:0:0:0:
256,192,50890,1,8,0:0:0:0:
256,192,51058,1,0,0:0:0:0:
256,192,51141,1,0,0:0:0:0:
256,192,51225,1,8,0:0:0:0:
256,192,51393,1,0,0:0:0:0:
256,192,51560,1,8,0:0:0:0:
256,192,51728,1,0,0:0:0:0:
256,192,52063,1,0,0:0:0:0:
256,192,52231,1,0,0:0:0:0:
256,192,52398,1,8,0:0:0:0:
256,192,52566,1,0,0:0:0:0:
256,192,52734,1,8,0:0:0:0:
256,192,52901,1,8,0:0:0:0:
256,192,53069,1,0,0:0:0:0:
256,192,53236,1,8,0:0:0:0:
256,192,53320,1,8,0:0:0:0:
256,192,53404,1,0,0:0:0:0:
256,192,53572,1,0,0:0:0:0:
256,192,53739,1,8,0:0:0:0:
256,192,53907,1,8,0:0:0:0:
256,192,54074,1,0,0:0:0:0:
256,192,54242,1,0,0:0:0:0:
256,192,54326,1,0,0:0:0:0:
256,192,54410,1,8,0:0:0:0:
256,192,54745,1,8,0:0:0:0:
256,192,54912,1,0,0:0:0:0:
256,192,55080,1,8,0:0:0:0:
256,192,55248,1,0,0:0:0:0:
256,192,55415,1,0,0:0:0:0:
256,192,55583,1,8,0:0:0:0:
256,192,55667,1,8,0:0:0:0:
256,192,55750,1,0,0:0:0:0:
256,192,56086,1,8,0:0:0:0:
256,192,56421,1,0,0:0:0:0:
256,192,56588,1,0,0:0:0:0:
256,192,56756,1,8,0:0:0:0:
256,192,56924,1,0,0:0:0:0:
256,192,57007,1,0,0:0:0:0:
256,192,57091,1,8,0:0:0:0:
256,192,57259,1,8,0:0:0:0:
256,192,57426,1,4,0:0:0:0:
256,192,57762,1,8,0:0:0:0:
256,192,57929,1,0,0:0:0:0:
256,192,58264,1,0,0:0:0:0:
256,192,58348,1,0,0:0:0:0:
256,192,58432,1,8,0:0:0:0:
256,192,58600,1,8,0:0:0:0:
256,192,58767,1,0,0:0:0:0:
256,192,58935,1,8,0:0:0:0:
256,192,59019,1,8,0:0:0:0:
256,192,59102,1,0,0:0:0:0:
256,192,59270,1,8,0:0:0:0:
256,192,59605,1,0,0:0:0:0:
256,192,59689,1,0,0:0:0:0:
256,192,59773,1,8,0:0:0:0:
256,192,59940,1,8,0:0:0:0:
256,192,60108,1,0,0:0:0:0:
256,192,60443,1,8,0:0:0:0:
256,192,60611,1,0,0:0:0:0:
256,192,60778,1,8,0:0:0:0:
256,192,60946,1,0,0:0:0:0:
256,192,61030,1,0,0:0:0:0:
256,192,61114,1,8,0:0:0:0:
256,192,61281,1,8,0:0:0:0:
256,192,61449,1,0,0:0:0:0:
256,192,61532,1,0,0:0:0:0:
256,192,61616,1,8,0:0:0:0:
256,192,61700,1,8,0:0:0:0:
256,192,61784,1,0,0:0:0:0:
256,192,61951,1,8,0:0:0:0:
256,192,62287,1,0,0:0:0:0:
256,192,62454,1,8,0:0:0:0:
256,192,62622,1,0,0:0:0:0:
256,192,62789,1,12,0:0:0:0:
256,192,62957,1,0,0:0:0:0:
256,192,63125,1,0,0:0:0:0:
256,192,63292,1,12,0:0:0:0:
256,192,63460,1,0,0:0:0:0:
256,192,63627,1,0,0:0:0:0:
256,192,63795,1,12,0:0:0:0:
256,192,63963,1,0,0:0:0:0:
256,192,64298,1,0,0:0:0:0:
256,192,64465,1,12,0:0:0:0:
256,192,64801,1,8,0:0:0:0:
256,192,64884,1,0,0:0:0:0:
256,192,64968,1,0,0:0:0:0:
256,192,65052,1,0,0:0:0:0:
256,192,65136,1,8,0:0:0:0:
256,192,65303,1,0,0:0:0:0:
256,192,65471,1,12,0:0:0:0:
256,192,65806,1,0,0:0:0:0:
256,192,65974,1,8,0:0:0:0:
256,192,66141,1,8,0:0:0:0:
256,192,66309,1,0,0:0:0:0:
256,192,66393,1,0,0:0:0:0:
256,192,66477,1,8,0:0:0:0:
256,192,66560,1,8,0:0:0:0:
256,192,66644,1,0,0:0:0:0:
256,192,66812,1,8,0:0:0:0:
256,192,66979,1,8,0:0:0:0:
256,192,67147,1,0,0:0:0:0:
256,192,67231,1,0,0:0:0:0:
256,192,67315,1,8,0:0:0:0:
256,192,67482,1,0,0:0:0:0:
256,192,67650,1,0,0:0:0:0:
256,192,67817,1,8,0:0:0:0:
256,192,67901,1,8,0:0:0:0:
256,192,67985,1,0,0:0:0:0:
256,192,68153,1,8,0:0:0:0:
256,192,68488,1,0,0:0:0:0:
256,192,68655,1,8,0:0:0:0:
256,192,68823,1,8,0:0:0:0:
256,192,68991,1,0,0:0:0:0:
256,192,69074,1,0,0:0:0:0:
256,192,69158,1,8,0:0:0:0:
256,192,69242,1,8,0:0:0:0:
256,192,69326,1,0,0:0:0:0:
256,192,69493,1,8,0:0:0:0:
256,192,69661,1,8,0:0:0:0:
256,192,69829,1,0,0:0:0:0:
256,192,69996,1,0,0:0:0:0:
256,192,70164,1,8,0:0:0:0:
256,192,70248,1,8,0:0:0:0:
256,192,70331,1,0,0:0:0:0:
256,192,70499,1,0,0:0:0:0:
256,192,70583,1,0,0:0:0:0:
256,192,70667,1,8,0:0:0:0:
256,192,70834,1,4,0:0:0:0:
256,192,71169,1,0,0:0:0:0:
256,192,71337,1,8,0:0:0:0:
256,192,71505,1,8,0:0:0:0:
256,192,71672,1,0,0:0:0:0:
256,192,71756,1,0,0:0:0:0:
256,192,71840,1,8,0:0:0:0:
256,192,71924,1,8,0:0:0:0:
256,192,72007,1,0,0:0:0:0:
256,192,72175,1,8,0:0:0:0:
256,192,72343,1,8,0:0:0:0:
256,192,72510,1,0,0:0:0:0:
256,192,72594,1,0,0:0:0:0:
256,192,72678,1,8,0:0:0:0:
256,192,73013,1,8,0:0:0:0:
256,192,73181,1,8,0:0:0:0:
256,192,73348,1,0,0:0:0:0:
256,192,73432,1,0,0:0:0:0:
256,192,73516,1,8,0:0:0:0:
256,192,73683,1,0,0:0:0:0:
256,192,73851,1,8,0:0:0:0:
256,192,74019,1,0,0:0:0:0:
256,192,74186,1,0,0:0:0:0:
256,192,74270,1,0,0:0:0:0:
256,192,74354,1,8,0:0:0:0:
256,192,74438,1,8,0:0:0:0:
256,192,74521,1,0,0:0:0:0:
256,192,74689,1,8,0:0:0:0:
256,192,74857,1,0,0:0:0:0:
256,192,75192,1,0,0:0:0:0:
256,192,75359,1,0,0:0:0:0:
256,192,75527,1,8,0:0:0:0:
256,192,75695,1,8,0:0:0:0:
256,192,75862,1,0,0:0:0:0:
256,192,75946,1,8,0:0:0:0:
256,192,76030,1,0,0:0:0:0:
256,192,76197,1,12,0:0:0:0:
256,192,76532,1,8,0:0:0:0:
256,192,76700,1,0,0:0:0:0:
256,192,76868,1,0,0:0:0:0:
256,192,77035,1,8,0:0:0:0:
256,192,77119,1,8,0:0:0:0:
256,192,77203,1,0,0:0:0:0:
256,192,77287,1,0,0:0:0:0:
256,192,77370,1,8,0:0:0:0:
256,192,77538,1,0,0:0:0:0:
256,192,77706,1,0,0:0:0:0:
256,192,77873,1,8,0:0:0:0:
256,192,77957,1,8,0:0:0:0:
256,192,78041,1,0,0:0:0:0:
256,192,78208,1,8,0:0:0:0:
256,192,78376,1,8,0:0:0:0:
256,192,78544,1,0,0:0:0:0:
256,192,78627,1,0,0:0:0:0:
256,192,78711,1,8,0:0:0:0:
256,192,78879,1,0,0:0:0:0:
256,192,79214,1,8,0:0:0:0:
256,192,79382,1,0,0:0:0:0:
256,192,79549,1,0,0:0:0:0:
256,192,79717,1,8,0:0:0:0:
256,192,79801,1,8,0:0:0:0:
256,192,79884,1,0,0:0:0:0:
256,192,79968,1,0,0:0:0:0:
256,192,80052,1,8,0:0:0:0:
256,192,80220,1,0,0:0:0:0:
256,192,80387,1,0,0:0:0:0:
256,192,80555,1,8,0:0:0:0:
256,192,80722,1,8,0:0:0:0:
256,192,80890,1,0,0:0:0:0:
256,192,80974,1,0,0:0:0:0:
256,192,81058,1,8,0:0:0:0:
256,192,81225,1,8,0:0:0:0:
256,192,81309,1,8,0:0:0:0:
256,192,81393,1,0,0:0:0:0:
256,192,81560,1,12,0:0:0:0:
256,192,81896,1,8,0:0:0:0:
256,192,82063,1,0,0:0:0:0:
256,192,82231,1,0,0:0:0:0:
256,192,82315,1,0,0:0:0:0:
256,192,82398,1,8,0:0:0:0:
256,192,82482,1,8,0:0:0:0:
256,192,82566,1,0,0:0:0:0:
256,192,82734,1,8,0:0:0:0:
64,64,82901,1,0,0:0:0:0:
256,192,83236,1,8,0:0:0:0:
256,192,83320,1,8,0:0:0:0:
256,192,83404,1,0,0:0:0:0:
256,192,83572,1,8,0:0:0:0:
256,192,83739,1,0,0:0:0:0:
256,192,83907,1,8,0:0:0:0:
256,192,84074,1,0,0:0:0:0:
256,192,84158,1,0,0:0:0:0:
256,192,84242,1,8,0:0:0:0:
256,192,84410,1,8,0:0:0:0:
256,192,84577,1,0,0:0:0:0:
256,192,84745,1,8,0:0:0:0:
256,192,84912,1,0,0:0:0:0:
256,192,85080,1,8,0:0:0:0:
256,192,85164,1,0,0:0:0:0:
256,192,85248,1,8,0:0:0:0:
256,192,85415,1,0,0:0:0:0:
256,192,85583,1,8,0:0:0:0:
256,192,85918,1,0,0:0:0:0:
256,192,86086,1,8,0:0:0:0:
256,192,86253,1,0,0:0:0:0:
256,192,86421,1,8,0:0:0:0:
256,192,86505,1,8,0:0:0:0:
256,192,86588,1,0,0:0:0:0:
256,192,86756,1,0,0:0:0:0:
256,192,86924,1,12,0:0:0:0:
256,192,87259,1,0,0:0:0:0:
256,192,87426,1,8,0:0:0:0:
256,192,87594,1,0,0:0:0:0:
256,192,87762,1,8,0:0:0:0:
256,192,87845,1,8,0:0:0:0:
256,192,87929,1,0,0:0:0:0:
256,192,88013,1,0,0:0:0:0:
256,192,88097,1,8,0:0:0:0:
256,192,88264,1,0,0:0:0:0:
256,192,88432,1,8,0:0:0:0:
256,192,88600,1,0,0:0:0:0:
256,192,88767,1,0,0:0:0:0:
256,192,88851,1,0,0:0:0:0:
256,192,88935,1,8,0:0:0:0:
256,192,89102,1,0,0:0:0:0:
256,192,89270,1,8,0:0:0:0:
256,192,89438,1,8,0:0:0:0:
256,192,89521,1,0,0:0:0:0:
256,192,89605,1,8,0:0:0:0:
256,192,89773,1,0,0:0:0:0:
256,192,89857,1,0,0:0:0:0:
256,192,89940,1,0,0:0:0:0:
256,192,90108,1,8,0:0:0:0:
256,192,90276,1,0,0:0:0:0:
256,192,90359,1,0,0:0:0:0:
256,192,90443,1,0,0:0:0:0:
256,192,90611,1,8,0:0:0:0:
256,192,90778,1,0,0:0:0:0:
256,192,90862,1,0,0:0:0:0:
256,192,90946,1,8,0:0:0:0:
256,192,92287,1,12,0:0:0:0:
256,192,92454,1,8,0:0:0:0:
256,192,92538,1,8,0:0:0:0:
256,192,92622,1,0,0:0:0:0:
256,192,92789,1,8,0:0:0:0:
256,192,92957,1,0,0:0:0:0:
256,192,93041,1,8,0:0:0:0:
256,192,93125,1,0,0:0:0:0:
256,192,93292,1,8,0:0:0:0:
256,192,93460,1,0,0:0:0:0:
256,192,93627,1,8,0:0:0:0:
256,192,93711,1,8,0:0:0:0:
256,192,93795,1,0,0:0:0:0:
256,192,93963,1,8,0:0:0:0:
256,192,94130,1,8,0:0:0:0:
256,192,94298,1,0,0:0:0:0:
256,192,94465,1,0,0:0:0:0:
256,192,94633,1,8,0:0:0:0:
256,192,94968,1,8,0:0:0:0:
256,192,95136,1,0,0:0:0:0:
256,192,95220,1,0,0:0:0:0:
256,192,95303,1,0,0:0:0:0:
256,192,95471,1,8,0:0:0:0:
256,192,95639,1,0,0:0:0:0:
256,192,95722,1,0,0:0:0:0:
256,192,95806,1,0,0:0:0:0:
256,192,95974,1,8,0:0:0:0:
256,192,96309,1,8,0:0:0:0:
256,192,96477,1,0,0:0:0:0:
256,192,96644,1,8,0:0:0:0:
256,192,96728,1,0,0:0:0:0:
256,192,96812,1,8,0:0:0:0:
256,192,96979,1,8,0:0:0:0:
256,192,97147,1,0,0:0:0:0:
256,192,97315,1,8,0:0:0:0:
256,192,97398,1,8,0:0:0:0:
256,192,97482,1,0,0:0:0:0:
256,192,97650,1,12,0:0:0:0:
256,192,97985,1,0,0:0:0:0:
256,192,98320,1,0,0:0:0:0:
256,192,98655,1,0,0:0:0:0:
256,192,98823,1,0,0:0:0:0:
256,192,98907,1,0,0:0:0:0:
256,192,98991,1,8,0:0:0:0:
256,192,99158,1,8,0:0:0:0:
256,192,99326,1,0,0:0:0:0:
256,192,99493,1,8,0:0:0:0:
256,192,99661,1,0,0:0:0:0:
256,192,99829,1,0,0:0:0:0:
256,192,99912,1,0,0:0:0:0:
256,192,99996,1,0,0:0:0:0:
256,192,100164,1,0,0:0:0:0:
256,192,100331,1,12,0:0:0:0:
256,192,100667,1,0,0:0:0:0:
256,192,100834,1,0,0:0:0:0:
256,192,101002,1,0,0:0:0:0:
256,192,101169,1,0,0:0:0:0:
256,192,101337,1,0,0:0:0:0:
256,192,101505,1,0,0:0:0:0:
256,192,101672,1,8,0:0:0:0:
256,192,101840,1,0,0:0:0:0:
256,192,101924,1,0,0:0:0:0:
256,192,102007,1,8,0:0:0:0:
256,192,102175,1,0,0:0:0:0:
256,192,102259,1,0,0:0:0:0:
256,192,102343,1,8,0:0:0:0:
256,192,102426,1,8,0:0:0:0:
256,192,102510,1,0,0:0:0:0:
256,192,102678,1,8,0:0:0:0:
256,192,102845,1,0,0:0:0:0:
256,192,102929,1,0,0:0:0:0:
256,192,103013,1,8,0:0:0:0:
256,192,103348,1,0,0:0:0:0:
256,192,103516,1,0,0:0:0:0:
256,192,103683,1,8,0:0:0:0:
256,192,103851,1,8,0:0:0:0:
256,192,104019,1,0,0:0:0:0:
256,192,104354,1,8,0:0:0:0:
256,192,104521,1,8,0:0:0:0:
256,192,104689,1,0,0:0:0:0:
256,192,104857,1,8,0:0:0:0:
256,192,105024,1,0,0:0:0:0:
256,192,105108,1,0,0:0:0:0:
256,192,105192,1,0,0:0:0:0:
256,192,105359,1,8,0:0:0:0:
256,192,105527,1,8,0:0:0:0:
256,192,105695,1,0,0:0:0:0:
256,192,106030,1,0,0:0:0:0:
256,192,106197,1,8,0:0:0:0:
256,192,106365,1,0,0:0:0:0:
256,192,106532,1,8,0:0:0:0:
256,192,106700,1,8,0:0:0:0:
256,192,106784,1,8,0:0:0:0:
256,192,106868,1,0,0:0:0:0:
256,192,107035,1,8,0:0:0:0:
256,192,107203,1,8,0:0:0:0:
256,192,107370,1,0,0:0:0:0:
256,192,107538,1,8,0:0:0:0:
256,192,107706,1,0,0:0:0:0:
256,192,108041,1,8,0:0:0:0:
256,192,108208,1,8,0:0:0:0:
256,192,108376,1,0,0:0:0:0:
256,192,108711,1,8,0:0:0:0:
256,192,108879,1,0,0:0:0:0:
256,192,109046,1,8,0:0:0:0:
256,192,109214,1,8,0:0:0:0:
256,192,109382,1,0,0:0:0:0:
256,192,109549,1,0,0:0:0:0:
256,192,109717,1,8,0:0:0:0:
256,192,110052,1,8,0:0:0:0:
256,192,110220,1,0,0:0:0:0:
256,192,110387,1,8,0:0:0:0:
256,192,110555,1,8,0:0:0:0:
256,192,110722,1,0,0:0:0:0:
256,192,110806,1,0,0:0:0:0:
256,192,110890,1,0,0:0:0:0:
256,192,111058,1,8,0:0:0:0:
256,192,111225,1,0,0:0:0:0:
256,192,111393,1,8,0:0:0:0:
256,192,111560,1,0,0:0:0:0:
256,192,111728,1,8,0:0:0:0:
256,192,111896,1,0,0:0:0:0:
256,192,112063,1,8,0:0:0:0:
256,192,112398,1,8,0:0:0:0:
256,192,112566,1,0,0:0:0:0:
256,192,112734,1,8,0:0:0:0:
256,192,112817,1,8,0:0:0:0:
256,192,112901,1,0,0:0:0:0:
256,192,113069,1,8,0:0:0:0:
256,192,113236,1,0,0:0:0:0:
256,192,113404,1,8,0:0:0:0:
256,192,113572,1,0,0:0:0:0:
256,192,113739,1,12,0:0:0:0:
256,192,114074,1,8,0:0:0:0:
256,192,114242,1,0,0:0:0:0:
256,192,114410,1,8,0:0:0:0:
256,192,114577,1,0,0:0:0:0:
256,192,114661,1,0,0:0:0:0:
256,192,114745,1,8,0:0:0:0:
256,192,114912,1,8,0:0:0:0:
256,192,115080,1,0,0:0:0:0:
256,192,115248,1,0,0:0:0:0:
256,192,115415,1,8,0:0:0:0:
256,192,115583,1,0,0:0:0:0:
256,192,115750,1,8,0:0:0:0:
256,192,116086,1,0,0:0:0:0:
256,192,116253,1,0,0:0:0:0:
256,192,116421,1,8,0:0:0:0:
256,192,116756,1,8,0:0:0:0:
256,192,116924,1,0,0:0:0:0:
256,192,117091,1,8,0:0:0:0:
256,192,117259,1,0,0:0:0:0:
256,192,117343,1,0,0:0:0:0:
256,192,117426,1,0,0:0:0:0:
256,192,117594,1,8,0:0:0:0:
256,192,117762,1,0,0:0:0:0:
256,192,118097,1,8,0:0:0:0:
256,192,118264,1,0,0:0:0:0:
256,192,118432,1,8,0:0:0:0:
256,192,118600,1,0,0:0:0:0:
256,192,118683,1,0,0:0:0:0:
256,192,118767,1,8,0:0:0:0:
256,192,118935,1,8,0:0:0:0:
256,192,119102,1,4,0:0:0:0:
256,192,119438,1,8,0:0:0:0:
256,192,119605,1,0,0:0:0:0:
256,192,119773,1,8,0:0:0:0:
256,192,119857,1,8,0:0:0:0:
256,192,119940,1,0,0:0:0:0:
256,192,120108,1,8,0:0:0:0:
256,192,120192,1,8,0:0:0:0:
256,192,120276,1,8,0:0:0:0:
256,192,120443,1,0,0:0:0:0:
256,192,120611,1,8,0:0:0:0:
256,192,120778,1,0,0:0:0:0:
256,192,120946,1,8,0:0:0:0:
256,192,121114,1,0,0:0:0:0:
256,192,121197,1,0,0:0:0:0:
256,192,121281,1,8,0:0:0:0:
256,192,121449,1,0,0:0:0:0:
256,192,121616,1,0,0:0:0:0:
256,192,121784,1,12,0:0:0:0:
256,192,122119,1,8,0:0:0:0:
256,192,122454,1,8,0:0:0:0:
256,192,122622,1,0,0:0:0:0:
256,192,122789,1,8,0:0:0:0:
256,192,122957,1,0,0:0:0:0:
256,192,123292,1,0,0:0:0:0:
256,192,123460,1,0,0:0:0:0:
256,192,123544,1,0,0:0:0:0:
256,192,123627,1,8,0:0:0:0:
256,192,123795,1,8,0:0:0:0:
256,192,123963,1,0,0:0:0:0:
256,192,124130,1,8,0:0:0:0:
256,192,124298,1,0,0:0:0:0:
256,192,124382,1,8,0:0:0:0:
256,192,124465,1,0,0:0:0:0:
256,192,124801,1,0,0:0:0:0:
256,192,124968,1,0,0:0:0:0:
256,192,125136,1,8,0:0:0:0:
256,192,125303,1,8,0:0:0:0:
256,192,125471,1,0,0:0:0:0:
256,192,125639,1,8,0:0:0:0:
256,192,125722,1,8,0:0:0:0:
256,192,125806,1,0,0:0:0:0:
256,192,125974,1,8,0:0:0:0:
256,192,126141,1,0,0:0:0:0:
256,192,126225,1,0,0:0:0:0:
256,192,126309,1,8,0:0:0:0:
256,192,126477,1,0,0:0:0:0:
256,192,126644,1,8,0:0:0:0:
256,192,126812,1,0,0:0:0:0:
256,192,127147,1,0,0:0:0:0:
256,192,127315,1,8,0:0:0:0:
256,192,127482,1,0,0:0:0:0:
256,192,127650,1,8,0:0:0:0:
256,192,127817,1,8,0:0:0:0:
256,192,127985,1,0,0:0:0:0:
256,192,128153,1,8,0:0:0:0:
256,192,128320,1,0,0:0:0:0:
256,192,128404,1,0,0:0:0:0:
256,192,128488,1,8,0:0:0:0:
256,192,128655,1,0,0:0:0:0:
256,192,128823,1,8,0:0:0:0:
256,192,128907,1,8,0:0:0:0:
256,192,128991,1,0,0:0:0:0:
256,192,129158,1,8,0:0:0:0:
256,192,129326,1,0,0:0:0:0:
256,192,129493,1,8,0:0:0:0:
256,192,129829,1,8,0:0:0:0:
256,192,129996,1,8,0:0:0:0:
256,192,130164,1,0,0:0:0:0:
256,192,130331,1,8,0:0:0:0:
256,192,130499,1,0,0:0:0:0:
256,192,130667,1,0,0:0:0:0:
256,192,130834,1,8,0:0:0:0:
256,192,131002,1,0,0:0:0:0:
256,192,131086,1,0,0:0:0:0:
256,192,131169,1,8,0:0:0:0:
256,192,131337,1,8,0:0:0:0:
256,192,131505,1,0,0:0:0:0:
256,192,131672,1,0,0:0:0:0:
256,192,131840,1,8,0:0:0:0:
256,192,132007,1,8,0:0:0:0:
256,192,132091,1,8,0:0:0:0:
256,192,132175,1,0,0:0:0:0:
256,192,132510,1,8,0:0:0:0:
256,192,132678,1,0,0:0:0:0:
256,192,132845,1,8,0:0:0:0:
256,192,133013,1,0,0:0:0:0:
256,192,133181,1,0,0:0:0:0:
256,192,133348,1,8,0:0:0:0:
256,192,133432,1,8,0:0:0:0:
256,192,133516,1,0,0:0:0:0:
256,192,133851,1,8,0:0:0:0:
256,192,134186,1,0,0:0:0:0:
256,192,134354,1,0,0:0:0:0:
256,192,134521,1,8,0:0:0:0:
256,192,134689,1,0,0:0:0:0:
256,192,134773,1,0,0:0:0:0:
256,192,134857,1,8,0:0:0:0:
256,192,135024,1,8,0:0:0:0:
256,192,135192,1,4,0:0:0:0:
256,192,135527,1,8,0:0:0:0:
256,192,135695,1,0,0:0:0:0:
256,192,136030,1,0,0:0:0:0:
256,192,136113,1,0,0:0:0:0:
256,192,136197,1,8,0:0:0:0:
256,192,136365,1,8,0:0:0:0:
256,192,136532,1,0,0:0:0:0:
256,192,136700,1,8,0:0:0:0:
256,192,136784,1,8,0:0:0:0:
256,192,136868,1,0,0:0:0:0:
256,192,137035,1,8,0:0:0:0:
256,192,137370,1,0,0:0:0:0:
256,192,137454,1,0,0:0:0:0:
256,192,137538,1,8,0:0:0:0:
256,192,137706,1,8,0:0:0:0:
256,192,137873,1,0,0:0:0:0:
256,192,138208,1,8,0:0:0:0:
256,192,138376,1,0,0:0:0:0:
256,192,138544,1,8,0:0:0:0:
256,192,138711,1,0,0:0:0:0:
256,192,138795,1,0,0:0:0:0:
256,192,138879,1,8,0:0:0:0:
256,192,139046,1,8,0:0:0:0:
256,192,139214,1,0,0:0:0:0:
256,192,139298,1,0,0:0:0:0:
256,192,139382,1,8,0:0:0:0:
256,192,139465,1,8,0:0:0:0:
256,192,139549,1,0,0:0:0:0:
256,192,139717,1,8,0:0:0:0:
256,192,140052,1,0,0:0:0:0:
256,192,140220,1,8,0:0:0:0:
256,192,140387,1,0,0:0:0:0:
256,192,140555,1,12,0:0:0:0:
256,192,140722,1,0,0:0:0:0:
256,192,140890,1,0,0:0:0:0:
256,192,141058,1,12,0:0:0:0:
256,192,141225,1,0,0:0:0:0:
256,192,141393,1,0,0:0:0:0:
256,192,141560,1,12,0:0:0:0:
256,192,141728,1,0,0:0:0:0:
256,192,142063,1,0,0:0:0:0:
256,192,142231,1,12,0:0:0:0:
256,192,142482,1,0,0:0:0:0:
256,192,142566,1,8,0:0:0:0:
256,192,142734,1,0,0:0:0:0:
256,192,142901,1,8,0:0:0:0:
256,192,142985,1,8,0:0:0:0:
256,192,143069,1,0,0:0:0:0:
256,192,143236,1,12,0:0:0:0:
256,192,143572,1,8,0:0:0:0:
256,192,143739,1,8,0:0:0:0:
256,192,143907,1,0,0:0:0:0:
256,192,144074,1,8,0:0:0:0:
256,192,144158,1,8,0:0:0:0:
256,192,144242,1,0,0:0:0:0:
256,192,144326,1,0,0:0:0:0:
256,192,144410,1,8,0:0:0:0:
256,192,144577,1,0,0:0:0:0:
256,192,144745,1,0,0:0:0:0:
256,192,144912,1,8,0:0:0:0:
256,192,144996,1,8,0:0:0:0:
256,192,145080,1,0,0:0:0:0:
256,192,145248,1,8,0:0:0:0:
256,192,145415,1,8,0:0:0:0:
256,192,145583,1,0,0:0:0:0:
256,192,145667,1,0,0:0:0:0:
256,192,145750,1,8,0:0:0:0:
256,192,145918,1,0,0:0:0:0:
256,192,146253,1,8,0:0:0:0:
256,192,146421,1,0,0:0:0:0:
256,192,146588,1,0,0:0:0:0:
256,192,146756,1,8,0:0:0:0:
256,192,146840,1,8,0:0:0:0:
256,192,146924,1,0,0:0:0:0:
256,192,147007,1,0,0:0:0:0:
256,192,147091,1,8,0:0:0:0:
256,192,147259,1,0,0:0:0:0:
256,192,147426,1,0,0:0:0:0:
256,192,147594,1,8,0:0:0:0:
256,192,147762,1,8,0:0:0:0:
256,192,147929,1,0,0:0:0:0:
256,192,148013,1,0,0:0:0:0:
256,192,148097,1,8,0:0:0:0:
256,192,148264,1,8,0:0:0:0:
256,192,148348,1,8,0:0:0:0:
256,192,148432,1,0,0:0:0:0:
256,192,148600,1,8,0:0:0:0:
256,192,148935,1,8,0:0:0:0:
256,192,149102,1,0,0:0:0:0:
256,192,149270,1,0,0:0:0:0:
256,192,149438,1,8,0:0:0:0:
256,192,149521,1,8,0:0:0:0:
256,192,149605,1,0,0:0:0:0:
256,192,149689,1,0,0:0:0:0:
256,192,149773,1,8,0:0:0:0:
256,192,149940,1,0,0:0:0:0:
256,192,150108,1,0,0:0:0:0:
256,192,150276,1,8,0:0:0:0:
256,192,150359,1,8,0:0:0:0:
256,192,150443,1,0,0:0:0:0:
256,192,150778,1,0,0:0:0:0:
256,192,150946,1,0,0:0:0:0:
256,192,151114,1,8,0:0:0:0:
256,192,151197,1,8,0:0:0:0:
256,192,151281,1,0,0:0:0:0:
256,192,151449,1,8,0:0:0:0:
256,192,151616,1,0,0:0:0:0:
256,192,151784,1,8,0:0:0:0:
256,192,151951,1,8,0:0:0:0:
256,192,152035,1,8,0:0:0:0:
256,192,152119,1,0,0:0:0:0:
256,192,152203,1,0,0:0:0:0:
256,192,152287,1,8,0:0:0:0:
256,192,152454,1,0,0:0:0:0:
256,192,152622,1,8,0:0:0:0:
256,192,152957,1,8,0:0:0:0:
256,192,153125,1,8,0:0:0:0:
256,192,153292,1,0,0:0:0:0:
256,192,153460,1,0,0:0:0:0:
256,192,153627,1,8,0:0:0:0:
256,192,153711,1,0,0:0:0:0:
256,192,153795,1,8,0:0:0:0:
256,192,153963,1,4,0:0:0:0:
256,192,154298,1,0,0:0:0:0:
256,192,154465,1,8,0:0:0:0:
256,192,154633,1,8,0:0:0:0:
256,192,154801,1,0,0:0:0:0:
256,192,154884,1,0,0:0:0:0:
256,192,154968,1,8,0:0:0:0:
256,192,155052,1,8,0:0:0:0:
256,192,155136,1,0,0:0:0:0:
256,192,155303,1,8,0:0:0:0:
256,192,155471,1,8,0:0:0:0:
256,192,155639,1,0,0:0:0:0:
256,192,155722,1,0,0:0:0:0:
256,192,155806,1,8,0:0:0:0:
256,192,155974,1,0,0:0:0:0:
256,192,156141,1,0,0:0:0:0:
256,192,156309,1,8,0:0:0:0:
256,192,156393,1,8,0:0:0:0:
256,192,156477,1,0,0:0:0:0:
256,192,156644,1,8,0:0:0:0:
256,192,156979,1,0,0:0:0:0:
256,192,157147,1,8,0:0:0:0:
256,192,157315,1,8,0:0:0:0:
256,192,157482,1,0,0:0:0:0:
256,192,157566,1,0,0:0:0:0:
256,192,157650,1,8,0:0:0:0:
256,192,157734,1,8,0:0:0:0:
256,192,157817,1,0,0:0:0:0:
256,192,157985,1,8,0:0:0:0:
448,64,158069,1,8,0:0:0:0:
256,192,158153,1,8,0:0:0:0:
256,192,158320,1,0,0:0:0:0:
256,192,158488,1,0,0:0:0:0:
256,192,158655,1,8,0:0:0:0:
256,192,158739,1,8,0:0:0:0:
256,192,158823,1,0,0:0:0:0:
256,192,158991,1,0,0:0:0:0:
256,192,159074,1,0,0:0:0:0:
256,192,159158,1,8,0:0:0:0:
256,192,159326,1,4,0:0:0:0:
256,192,159661,1,0,0:0:0:0:
256,192,159829,1,8,0:0:0:0:
256,192,159996,1,8,0:0:0:0:
256,192,160080,1,8,0:0:0:0:
256,192,160164,1,0,0:0:0:0:
256,192,160248,1,0,0:0:0:0:
256,192,160331,1,8,0:0:0:0:
256,192,160499,1,0,0:0:0:0:
256,192,160667,1,8,0:0:0:0:
256,192,161002,1,0,0:0:0:0:
256,192,161086,1,0,0:0:0:0:
256,192,161169,1,8,0:0:0:0:
256,192,161337,1,0,0:0:0:0:
256,192,161505,1,8,0:0:0:0:
256,192,161672,1,0,0:0:0:0:
256,192,161840,1,8,0:0:0:0:
256,192,161924,1,8,0:0:0:0:
256,192,162007,1,0,0:0:0:0:
256,192,162175,1,0,0:0:0:0:
256,192,162343,1,8,0:0:0:0:
256,192,162510,1,0,0:0:0:0:
256,192,162678,1,8,0:0:0:0:
256,192,162845,1,0,0:0:0:0:
256,192,162929,1,8,0:0:0:0:
256,192,163013,1,0,0:0:0:0:
256,192,163181,1,8,0:0:0:0:
256,192,163348,1,0,0:0:0:0:
256,192,163683,1,8,0:0:0:0:
256,192,163851,1,0,0:0:0:0:
256,192,164019,1,8,0:0:0:0:
256,192,164186,1,0,0:0:0:0:
256,192,164270,1,0,0:0:0:0:
256,192,164354,1,8,0:0:0:0:
256,192,164521,1,0,0:0:0:0:
256,192,164689,1,12,0:0:0:0:
256,192,165024,1,8,0:0:0:0:
256,192,165192,1,0,0:0:0:0:
256,192,165359,1,8,0:0:0:0:
256,192,165527,1,0,0:0:0:0:
256,192,165611,1,0,0:0:0:0:
256,192,165695,1,8,0:0:0:0:
256,192,165778,1,8,0:0:0:0:
256,192,165862,1,0,0:0:0:0:
256,192,166030,1,8,0:0:0:0:
256,192,166197,1,0,0:0:0:0:
256,192,166365,1,8,0:0:0:0:
256,192,166532,1,0,0:0:0:0:
256,192,166616,1,0,0:0:0:0:
256,192,166700,1,8,0:0:0:0:
256,192,166868,1,8,0:0:0:0:
256,192,167035,1,0,0:0:0:0:
256,192,167203,1,0,0:0:0:0:
256,192,167287,1,8,0:0:0:0:
256,192,167370,1,0,0:0:0:0:
256,192,167538,1,8,0:0:0:0:
256,192,167622,1,8,0:0:0:0:
256,192,167706,1,8,0:0:0:0:
256,192,167873,1,0,0:0:0:0:
256,192,168041,1,8,0:0:0:0:
256,192,168125,1,8,0:0:0:0:
256,192,168208,1,8,0:0:0:0:
256,192,168376,1,0,0:0:0:0:
256,192,168544,1,8,0:0:0:0:
256,192,168627,1,8,0:0:0:0:
256,192,168711,1,0,0:0:0:0:
256,192,168879,1,8,0:0:0:0:
256,192,169046,1,0,0:0:0:0:
256,192,169214,1,0,0:0:0:0:
256,192,169382,1,8,0:0:0:0:
256,192,169465,1,8,0:0:0:0:
256,192,169549,1,0,0:0:0:0:
256,192,169633,1,0,0:0:0:0:
256,192,169717,1,8,0:0:0:0:
256,192,170052,1,12,0:0:0:0:
256,192,170220,1,0,0:0:0:0:
256,192,170303,1,0,0:0:0:0:
256,192,170387,1,0,0:0:0:0:
256,192,170555,1,8,0:0:0:0:
256,192,170722,1,0,0:0:0:0:
256,192,170890,1,8,0:0:0:0:
256,192,170974,1,0,0:0:0:0:
256,192,171058,1,8,0:0:0:0:
256,192,171225,1,0,0:0:0:0:
256,192,171309,1,0,0:0:0:0:
256,192,171393,1,8,0:0:0:0:
256,192,171560,1,0,0:0:0:0:
256,192,171728,1,0,0:0:0:0:
256,192,171896,1,8,0:0:0:0:
256,192,172063,1,0,0:0:0:0:
256,192,172147,1,0,0:0:0:0:
256,192,172231,1,0,0:0:0:0:
256,192,172398,1,8,0:0:0:0:
256,192,172734,1,12,0:0:0:0:
256,192,172901,1,0,0:0:0:0:
256,192,172985,1,0,0:0:0:0:
256,192,173069,1,0,0:0:0:0:
256,192,173236,1,8,0:0:0:0:
256,192,173404,1,0,0:0:0:0:
256,192,173572,1,0,0:0:0:0:
256,192,173655,1,0,0:0:0:0:
256,192,173739,1,8,0:0:0:0:
256,192,173907,1,8,0:0:0:0:
256,192,173991,1,8,0:0:0:0:
256,192,174074,1,0,0:0:0:0:
256,192,174242,1,8,0:0:0:0:
256,192,174410,1,0,0:0:0:0:
256,192,174577,1,8,0:0:0:0:
256,192,174745,1,8,0:0:0:0:
256,192,174829,1,8,0:0:0:0:
256,192,174912,1,0,0:0:0:0:
256,192,175080,1,8,0:0:0:0:
256,192,175415,1,12,0:0:0:0:
256,192,175583,1,0,0:0:0:0:
256,192,175667,1,0,0:0:0:0:
256,192,175750,1,0,0:0:0:0:
256,192,175918,1,8,0:0:0:0:
256,192,176086,1,0,0:0:0:0:
256,192,176253,1,8,0:0:0:0:
256,192,176337,1,8,0:0:0:0:
256,192,176421,1,0,0:0:0:0:
256,192,176588,1,0,0:0:0:0:
256,192,176672,1,0,0:0:0:0:
256,192,176756,1,8,0:0:0:0:
256,192,176924,1,0,0:0:0:0:
256,192,177091,1,0,0:0:0:0:
256,192,177259,1,8,0:0:0:0:
256,192,177426,1,0,0:0:0:0:
256,192,177510,1,0,0:0:0:0:
256,192,177594,1,8,0:0:0:0:
256,192,177762,1,0,0:0:0:0:
256,192,178097,1,12,0:0:0:0:
256,192,178264,1,0,0:0:0:0:
256,192,178348,1,0,0:0:0:0:
256,192,178432,1,0,0:0:0:0:
256,192,178600,1,8,0:0:0:0:
256,192,178767,1,0,0:0:0:0:
256,192,178935,1,8,0:0:0:0:
256,192,179019,1,8,0:0:0:0:
256,192,179102,1,0,0:0:0:0:
256,192,179270,1,8,0:0:0:0:
256,192,179354,1,0,0:0:0:0:
256,192,179438,1,8,0:0:0:0:
256,192,179605,1,8,0:0:0:0:
256,192,179773,1,0,0:0:0:0:
256,192,179940,1,0,0:0:0:0:
256,192,180108,1,8,0:0:0:0:
256,192,180192,1,8,0:0:0:0:
256,192,180276,1,0,0:0:0:0:
256,192,180443,1,8,0:0:0:0:
256,192,180778,1,4,0:0:0:0:
256,192,180946,1,8,0:0:0:0:
256,192,181030,1,8,0:0:0:0:
256,192,181113,1,8,0:0:0:0:
256,192,181281,1,0,0:0:0:0:
256,192,181449,1,8,0:0:0:0:
256,192,181616,1,0,0:0:0:0:
256,192,181700,1,0,0:0:0:0:
256,192,181784,1,8,0:0:0:0:
256,192,181951,1,8,0:0:0:0:
256,192,182035,1,0,0:0:0:0:
256,192,182119,1,8,0:0:0:0:
256,192,182287,1,0,0:0:0:0:
256,192,182454,1,8,0:0:0:0:
256,192,182622,1,0,0:0:0:0:
256,192,182789,1,8,0:0:0:0:
256,192,182873,1,8,0:0:0:0:
256,192,182957,1,0,0:0:0:0:
256,192,183125,1,8,0:0:0:0:
256,192,183460,1,12,0:0:0:0:
256,192,183627,1,0,0:0:0:0:
256,192,183711,1,0,0:0:0:0:
256,192,183795,1,0,0:0:0:0:
256,192,183963,1,0,0:0:0:0:
256,192,184130,1,8,0:0:0:0:
256,192,184298,1,0,0:0:0:0:
256,192,184382,1,0,0:0:0:0:
256,192,184465,1,8,0:0:0:0:
256,192,184633,1,8,0:0:0:0:
256,192,184717,1,8,0:0:0:0:
256,192,184801,1,0,0:0:0:0:
256,192,184968,1,8,0:0:0:0:
256,192,185136,1,0,0:0:0:0:
256,192,185303,1,8,0:0:0:0:
256,192,185471,1,0,0:0:0:0:
256,192,185555,1,0,0:0:0:0:
256,192,185639,1,8,0:0:0:0:
256,192,185806,1,0,0:0:0:0:
256,192,186141,1,12,0:0:0:0:
256,192,186309,1,0,0:0:0:0:
256,192,186393,1,0,0:0:0:0:
256,192,186477,1,0,0:0:0:0:
256,192,186644,1,0,0:0:0:0:
256,192,186812,1,8,0:0:0:0:
256,192,186979,1,0,0:0:0:0:
256,192,187063,1,0,0:0:0:0:
256,192,187147,1,8,0:0:0:0:
256,192,187315,1,8,0:0:0:0:
256,192,187398,1,0,0:0:0:0:
256,192,187482,1,8,0:0:0:0:
256,192,187650,1,8,0:0:0:0:
256,192,187817,1,0,0:0:0:0:
256,192,187985,1,8,0:0:0:0:
256,192,188153,1,0,0:0:0:0:
256,192,188236,1,0,0:0:0:0:
256,192,188320,1,8,0:0:0:0:
256,192,188488,1,0,0:0:0:0:
256,192,188823,1,12,0:0:0:0:
256,192,188991,1,0,0:0:0:0:
256,192,189074,1,0,0:0:0:0:
256,192,189158,1,8,0:0:0:0:
256,192,189326,1,0,0:0:0:0:
256,192,189493,1,0,0:0:0:0:
256,192,189661,1,8,0:0:0:0:
256,192,189745,1,8,0:0:0:0:
256,192,189829,1,0,0:0:0:0:
256,192,189996,1,0,0:0:0:0:
256,192,190080,1,0,0:0:0:0:
256,192,190164,1,8,0:0:0:0:
256,192,190331,1,8,0:0:0:0:
256,192,190415,1,8,0:0:0:0:
256,192,190499,1,0,0:0:0:0:
256,192,190583,1,0,0:0:0:0:
256,192,190667,1,8,0:0:0:0:
256,192,190834,1,0,0:0:0:0:
256,192,190918,1,8,0:0:0:0:
256,192,191002,1,0,0:0:0:0:
256,192,191169,1,8,0:0:0:0:
256,192,191505,1,4,0:0:0:0:
256,192,191672,1,0,0:0:0:0:
256,192,191756,1,0,0:0:0:0:
256,192,191840,1,8,0:0:0:0:
256,192,192007,1,0,0:0:0:0:
256,192,192343,1,0,0:0:0:0:
256,192,192510,1,8,0:0:0:0:
256,192,192678,1,0,0:0:0:0:
256,192,192845,1,8,0:0:0:0:
256,192,193013,1,8,0:0:0:0:
256,192,193097,1,8,0:0:0:0:
256,192,193181,1,0,0:0:0:0:
256,192,193348,1,8,0:0:0:0:
256,192,193683,1,8,0:0:0:0:
256,192,193851,1,0,0:0:0:0:
256,192,194186,1,8,0:0:0:0:
256,192,194354,1,8,0:0:0:0:
256,192,194438,1,8,0:0:0:0:
256,192,194521,1,0,0:0:0:0:
256,192,194689,1,8,0:0:0:0:
256,192,195024,1,8,0:0:0:0:
256,192,195192,1,0,0:0:0:0:
256,192,195359,1,8,0:0:0:0:
256,192,195527,1,0,0:0:0:0:
256,192,195695,1,0,0:0:0:0:
256,192,195778,1,0,0:0:0:0:
256,192,195862,1,8,0:0:0:0:
256,192,196030,1,0,0:0:0:0:
256,192,196197,1,8,0:0:0:0:
256,192,196365,1,0,0:0:0:0:
256,192,196532,1,8,0:0:0:0:
256,192,196868,1,12,0:0:0:0:
256,192,197035,1,8,0:0:0:0:
256,192,197119,1,8,0:0:0:0:
256,192,197203,1,0,0:0:0:0:
256,192,197370,1,8,0:0:0:0:
256,192,197706,1,8,0:0:0:0:
256,192,197873,1,0,0:0:0:0:
256,192,198041,1,8,0:0:0:0:
256,192,198208,1,0,0:0:0:0:
256,192,198460,1,0,0:0:0:0:
256,192,198544,1,8,0:0:0:0:
256,192,198711,1,8,0:0:0:0:
256,192,198879,1,0,0:0:0:0:
256,192,199130,1,8,0:0:0:0:
256,192,199214,1,0,0:0:0:0:
256,192,199382,1,0,0:0:0:0:
256,192,199549,1,8,0:0:0:0:
256,192,199717,1,0,0:0:0:0:
256,192,199801,1,0,0:0:0:0:
256,192,199884,1,8,0:0:0:0:
256,192,200052,1,0,0:0:0:0:
256,192,200387,1,0,0:0:0:0:
256,192,200555,1,8,0:0:0:0:
256,192,200722,1,0,0:0:0:0:
256,192,200890,1,8,0:0:0:0:
256,192,201058,1,8,0:0:0:0:
256,192,201141,1,8,0:0:0:0:
256,192,201225,1,0,0:0:0:0:
256,192,201393,1,8,0:0:0:0:
256,192,201560,1,0,0:0:0:0:
256,192,201728,1,8,0:0:0:0:
256,192,201896,1,4,0:0:0:0:
256,192,202231,1,12,0:0:0:0:
256,192,202398,1,8,0:0:0:0:
256,192,202566,1,0,0:0:0:0:
256,192,202650,1,0,0:0:0:0:
256,192,202734,1,8,0:0:0:0:
256,192,202901,1,8,0:0:0:0:
256,192,203069,1,0,0:0:0:0:
256,192,203153,1,0,0:0:0:0:
256,192,203236,1,8,0:0:0:0:
256,192,203404,1,0,0:0:0:0:
256,192,203572,1,8,0:0:0:0:
256,192,203655,1,8,0:0:0:0:
256,192,203739,1,0,0:0:0:0:
256,192,203907,1,8,0:0:0:0:
256,192,204074,1,0,0:0:0:0:
256,192,204410,1,8,0:0:0:0:
256,192,204493,1,8,0:0:0:0:
256,192,204577,1,0,0:0:0:0:
256,192,204745,1,0,0:0:0:0:
256,192,204912,1,8,0:0:0:0:
256,192,205080,1,0,0:0:0:0:
256,192,205248,1,8,0:0:0:0:
256,192,205331,1,8,0:0:0:0:
256,192,205415,1,0,0:0:0:0:
256,192,205583,1,0,0:0:0:0:
256,192,205750,1,8,0:0:0:0:
256,192,205834,1,8,0:0:0:0:
256,192,205918,1,0,0:0:0:0:
256,192,206086,1,8,0:0:0:0:
256,192,206253,1,0,0:0:0:0:
256,192,206337,1,0,0:0:0:0:
256,192,206421,1,8,0:0:0:0:
256,192,206588,1,0,0:0:0:0:
256,192,206756,1,8,0:0:0:0:
256,192,207091,1,8,0:0:0:0:
256,192,207175,1,8,0:0:0:0:
256,192,207259,1,0,0:0:0:0:
256,192,207426,1,0,0:0:0:0:
256,192,207594,1,12,0:0:0:0:
256,192,207929,1,8,0:0:0:0:
256,192,208097,1,0,0:0:0:0:
256,192,208264,1,8,0:0:0:0:
256,192,208348,1,0,0:0:0:0:
256,192,208516,1,0,0:0:0:0:
256,192,208600,1,8,0:0:0:0:
256,192,208767,1,0,0:0:0:0:
256,192,208851,1,0,0:0:0:0:
256,192,208935,1,8,0:0:0:0:
256,192,209186,1,0,0:0:0:0:
256,192,209270,1,8,0:0:0:0:
256,192,209438,1,0,0:0:0:0:
256,192,209605,1,8,0:0:0:0:
256,192,209773,1,8,0:0:0:0:
256,192,209857,1,0,0:0:0:0:
256,192,210024,1,0,0:0:0:0:
256,192,210108,1,8,0:0:0:0:
256,192,210276,1,4,0:0:0:0:
256,192,210611,1,0,0:0:0:0:
256,192,210695,1,0,0:0:0:0:
256,192,210778,1,8,0:0:0:0:
256,192,210946,1,0,0:0:0:0:
256,192,211114,1,0,0:0:0:0:
256,192,211281,1,8,0:0:0:0:
256,192,211365,1,8,0:0:0:0:
256,192,211449,1,0,0:0:0:0:
256,192,211532,1,0,0:0:0:0:
256,192,211616,1,8,0:0:0:0:
256,192,211784,1,0,0:0:0:0:
256,192,211951,1,8,0:0:0:0:
256,192,212119,1,0,0:0:0:0:
256,192,212203,1,0,0:0:0:0:
256,192,212287,1,8,0:0:0:0:
256,192,212454,1,8,0:0:0:0:
256,192,212538,1,0,0:0:0:0:
256,192,212622,1,8,0:0:0:0:
256,192,212789,1,8,0:0:0:0:
256,192,212957,1,4,0:0:0:0:
256,192,214298,1,8,0:0:0:0:
256,192,214633,1,0,0:0:0:0:
256,192,214968,1,0,0:0:0:0:
256,192,215303,1,8,0:0:0:0:
256,192,215639,1,0,0:0:0:0:
256,192,215974,1,0,0:0:0:0:
256,192,216141,1,8,0:0:0:0:
256,192,216477,1,8,0:0:0:0:
256,192,216644,1,0,0:0:0:0:
256,192,216979,1,8,0:0:0:0:
256,192,217482,1,0,0:0:0:0:
256,192,217985,1,8,0:0:0:0:
256,192,218320,1,0,0:0:0:0:
256,192,218655,1,8,0:0:0:0:
256,192,218823,1,0,0:0:0:0:
256,192,219158,1,0,0:0:0:0:
256,192,219326,1,8,0:0:0:0:
256,192,219661,1,0,0:0:0:0:
256,192,220164,1,8,0:0:0:0:
256,192,220667,1,0,0:0:0:0:
256,192,221002,1,8,0:0:0:0:
256,192,221337,1,0,0:0:0:0:
256,192,221505,1,8,0:0:0:0:
256,192,221840,1,8,0:0:0:0:
256,192,222007,1,0,0:0:0:0:
256,192,222343,1,0,0:0:0:0:
256,192,222845,1,8,0:0:0:0:
256,192,223348,1,8,0:0:0:0:
256,192,223683,1,0,0:0:0:0:
256,192,224521,1,0,0:0:0:0:
256,192,224689,1,8,0:0:0:0:
256,192,224857,1,0,0:0:0:0:
256,192,224940,1,0,0:0:0:0:
256,192,225024,1,8,0:0:0:0:
256,192,225192,1,8,0:0:0:0:
256,192,225359,1,0,0:0:0:0:
256,192,225527,1,0,0:0:0:0:
256,192,225695,1,8,0:0:0:0:
256,192,225862,1,8,0:0:0:0:
256,192,226030,1,0,0:0:0:0:
256,192,226365,1,12,0:0:0:0:
256,192,226700,1,8,0:0:0:0:
256,192,226868,1,0,0:0:0:0:
256,192,227203,1,0,0:0:0:0:
256,192,227370,1,8,0:0:0:0:
256,192,227706,1,0,0:0:0:0:
256,192,228208,1,8,0:0:0:0:
256,192,228376,1,0,0:0:0:0:
256,192,228711,1,0,0:0:0:0:
256,192,229046,1,8,0:0:0:0:
256,192,229382,1,0,0:0:0:0:
256,192,229549,1,8,0:0:0:0:
256,192,229884,1,8,0:0:0:0:
256,192,230052,1,0,0:0:0:0:
256,192,230387,1,8,0:0:0:0:
256,192,230890,1,0,0:0:0:0:
256,192,231058,1,8,0:0:0:0:
256,192,231393,1,8,0:0:0:0:
256,192,231728,1,0,0:0:0:0:
256,192,232063,1,8,0:0:0:0:
256,192,232231,1,0,0:0:0:0:
256,192,232566,1,0,0:0:0:0:
256,192,232734,1,8,0:0:0:0:
256,192,232901,1,0,0:0:0:0:
256,192,233069,1,8,0:0:0:0:
256,192,233404,1,8,0:0:0:0:
256,192,233572,1,0,0:0:0:0:
256,192,233739,1,8,0:0:0:0:
256,192,233907,1,0,0:0:0:0:
256,192,236086,1,8,0:0:0:0:
256,192,236421,1,8,0:0:0:0:
256,192,236756,1,0,0:0:0:0:
256,192,237091,1,12,0:0:0:0:
256,192,237426,1,0,0:0:0:0:
256,192,237594,1,8,0:0:0:0:
256,192,237762,1,8,0:0:0:0:
256,192,237929,1,0,0:0:0:0:
256,192,238013,1,0,0:0:0:0:
256,192,238097,1,8,0:0:0:0:
256,192,238181,1,8,0:0:0:0:
256,192,238264,1,0,0:0:0:0:
256,192,238432,1,8,0:0:0:0:
256,192,238600,1,8,0:0:0:0:
256,192,238767,1,0,0:0:0:0:
256,192,238851,1,0,0:0:0:0:
256,192,238935,1,8,0:0:0:0:
256,192,239102,1,0,0:0:0:0:
256,192,239270,1,0,0:0:0:0:
256,192,239438,1,8,0:0:0:0:
256,192,239521,1,8,0:0:0:0:
256,192,239605,1,0,0:0:0:0:
256,192,239773,1,8,0:0:0:0:
256,192,240108,1,0,0:0:0:0:
256,192,240276,1,8,0:0:0:0:
256,192,240443,1,8,0:0:0:0:
256,192,240611,1,0,0:0:0:0:
256,192,240695,1,0,0:0:0:0:
256,192,240778,1,8,0:0:0:0:
256,192,240862,1,8,0:0:0:0:
256,192,240946,1,0,0:0:0:0:
256,192,241114,1,8,0:0:0:0:
256,192,241281,1,8,0:0:0:0:
256,192,241449,1,0,0:0:0:0:
256,192,241616,1,0,0:0:0:0:
256,192,241784,1,8,0:0:0:0:
256,192,241868,1,8,0:0:0:0:
256,192,241951,1,0,0:0:0:0:
256,192,242119,1,0,0:0:0:0:
256,192,242203,1,0,0:0:0:0:
256,192,242287,1,8,0:0:0:0:
256,192,242454,1,4,0:0:0:0:
256,192,242789,1,0,0:0:0:0:
256,192,242957,1,8,0:0:0:0:
256,192,243125,1,8,0:0:0:0:
256,192,243292,1,0,0:0:0:0:
256,192,243376,1,0,0:0:0:0:
256,192,243460,1,8,0:0:0:0:
256,192,243544,1,8,0:0:0:0:
256,192,243627,1,0,0:0:0:0:
256,192,243795,1,8,0:0:0:0:
256,192,243963,1,8,0:0:0:0:
256,192,244130,1,0,0:0:0:0:
256,192,244214,1,0,0:0:0:0:
256,192,244298,1,8,0:0:0:0:
256,192,244633,1,8,0:0:0:0:
256,192,244801,1,8,0:0:0:0:
256,192,244968,1,0,0:0:0:0:
256,192,245052,1,0,0:0:0:0:
256,192,245136,1,8,0:0:0:0:
256,192,245303,1,0,0:0:0:0:
256,192,245471,1,8,0:0:0:0:
256,192,245639,1,0,0:0:0:0:
256,192,245806,1,0,0:0:0:0:
256,192,245890,1,0,0:0:0:0:
256,192,245974,1,8,0:0:0:0:
256,192,246058,1,8,0:0:0:0:
256,192,246141,1,0,0:0:0:0:
256,192,246309,1,8,0:0:0:0:
256,192,246477,1,0,0:0:0:0:
256,192,246812,1,0,0:0:0:0:
256,192,246979,1,0,0:0:0:0:
256,192,247147,1,8,0:0:0:0:
256,192,247315,1,8,0:0:0:0:
256,192,247482,1,0,0:0:0:0:
256,192,247566,1,8,0:0:0:0:
256,192,247650,1,0,0:0:0:0:
256,192,247817,1,12,0:0:0:0:
256,192,248153,1,8,0:0:0:0:
256,192,248320,1,0,0:0:0:0:
256,192,248488,1,0,0:0:0:0:
256,192,248655,1,8,0:0:0:0:
256,192,248739,1,8,0:0:0:0:
256,192,248823,1,0,0:0:0:0:
256,192,248907,1,0,0:0:0:0:
256,192,248991,1,8,0:0:0:0:
256,192,249158,1,0,0:0:0:0:
256,192,249326,1,0,0:0:0:0:
256,192,249493,1,8,0:0:0:0:
256,192,249577,1,8,0:0:0:0:
256,192,249661,1,0,0:0:0:0:
256,192,249829,1,8,0:0:0:0:
256,192,249996,1,8,0:0:0:0:
256,192,250164,1,0,0:0:0:0:
256,192,250248,1,0,0:0:0:0:
256,192,250331,1,8,0:0:0:0:
256,192,250499,1,0,0:0:0:0:
256,192,250834,1,8,0:0:0:0:
256,192,251002,1,0,0:0:0:0:
256,192,251169,1,0,0:0:0:0:
256,192,251337,1,8,0:0:0:0:
256,192,251421,1,8,0:0:0:0:
256,192,251505,1,0,0:0:0:0:
256,192,251588,1,0,0:0:0:0:
256,192,251672,1,8,0:0:0:0:
256,192,251840,1,0,0:0:0:0:
256,192,252007,1,0,0:0:0:0:
256,192,252175,1,8,0:0:0:0:
256,192,252343,1,8,0:0:0:0:
256,192,252510,1,0,0:0:0:0:
256,192,252594,1,0,0:0:0:0:
256,192,252678,1,8,0:0:0:0:
256,192,252845,1,8,0:0:0:0:
256,192,252929,1,8,0:0:0:0:
256,192,253013,1,0,0:0:0:0:
256,192,253181,1,8,0:0:0:0:
256,192,253516,1,8,0:0:0:0:
256,192,253683,1,0,0:0:0:0:
256,192,253851,1,0,0:0:0:0:
256,192,253935,1,0,0:0:0:0:
256,192,254019,1,8,0:0:0:0:
256,192,254102,1,8,0:0:0:0:
256,192,254186,1,0,0:0:0:0:
256,192,254354,1,8,0:0:0:0:
256,192,254521,1,0,0:0:0:0:
256,192,254857,1,8,0:0:0:0:
256,192,254940,1,8,0:0:0:0:
256,192,255024,1,0,0:0:0:0:
256,192,255192,1,8,0:0:0:0:
256,192,255359,1,0,0:0:0:0:
256,192,255527,1,8,0:0:0:0:
256,192,255695,1,0,0:0:0:0:
256,192,255778,1,0,0:0:0:0:
256,192,255862,1,8,0:0:0:0:
256,192,256030,1,8,0:0:0:0:
256,192,256197,1,0,0:0:0:0:
256,192,256365,1,8,0:0:0:0:
256,192,256532,1,0,0:0:0:0:
256,192,256700,1,8,0:0:0:0:
256,192,256784,1,0,0:0:0:0:
256,192,256868,1,8,0:0:0:0:
256,192,257035,1,0,0:0:0:0:
256,192,257203,1,8,0:0:0:0:
256,192,257538,1,0,0:0:0:0:
256,192,257706,1,8,0:0:0:0:
256,192,257873,1,0,0:0:0:0:
256,192,258041,1,8,0:0:0:0:
256,192,258125,1,8,0:0:0:0:
256,192,258208,1,0,0:0:0:0:
256,192,258376,1,0,0:0:0:0:
256,192,258544,1,12,0:0:0:0:
256,192,258879,1,0,0:0:0:0:
256,192,259046,1,8,0:0:0:0:
256,192,259214,1,0,0:0:0:0:
256,192,259382,1,8,0:0:0:0:
256,192,259465,1,8,0:0:0:0:
256,192,259549,1,0,0:0:0:0:
256,192,259633,1,0,0:0:0:0:
256,192,259717,1,8,0:0:0:0:
256,192,259884,1,0,0:0:0:0:
256,192,260052,1,8,0:0:0:0:
256,192,260220,1,0,0:0:0:0:
256,192,260387,1,0,0:0:0:0:
256,192,260471,1,0,0:0:0:0:
256,192,260555,1,8,0:0:0:0:
256,192,260722,1,0,0:0:0:0:
256,192,260890,1,8,0:0:0:0:
256,192,261058,1,8,0:0:0:0:
256,192,261141,1,0,0:0:0:0:
256,192,261225,1,8,0:0:0:0:
256,192,261393,1,0,0:0:0:0:
256,192,261477,1,0,0:0:0:0:
256,192,261560,1,0,0:0:0:0:
256,192,261728,1,8,0:0:0:0:
256,192,261896,1,0,0:0:0:0:
256,192,261979,1,0,0:0:0:0:
256,192,262063,1,0,0:0:0:0:
256,192,262231,1,8,0:0:0:0:
256,192,262398,1,0,0:0:0:0:
256,192,262482,1,0,0:0:0:0:
256,192,262566,1,8,0:0:0:0:
256,192,263739,1,0,0:0:0:0:
256,192,263823,1,0,0:0:0:0:
256,192,263907,1,8,0:0:0:0:
256,192,264074,1,0,0:0:0:0:
256,192,264242,1,8,0:0:0:0:
256,192,264326,1,0,0:0:0:0:
256,192,264410,1,8,0:0:0:0:
256,192,264577,1,8,0:0:0:0:
256,192,264745,1,0,0:0:0:0:
256,192,264829,1,0,0:0:0:0:
256,192,264912,1,8,0:0:0:0:
256,192,265080,1,0,0:0:0:0:
256,192,265248,1,8,0:0:0:0:
256,192,265583,1,8,0:0:0:0:
256,192,265750,1,0,0:0:0:0:
256,192,265834,1,0,0:0:0:0:
256,192,265918,1,8,0:0:0:0:
256,192,266086,1,0,0:0:0:0:
256,192,266253,1,8,0:0:0:0:
256,192,266588,1,8,0:0:0:0:
256,192,266756,1,0,0:0:0:0:
256,192,266924,1,0,0:0:0:0:
256,192,267007,1,0,0:0:0:0:
256,192,267091,1,8,0:0:0:0:
256,192,267259,1,8,0:0:0:0:
256,192,267426,1,0,0:0:0:0:
256,192,267510,1,0,0:0:0:0:
256,192,267594,1,8,0:0:0:0:
256,192,267929,1,8,0:0:0:0:
256,192,268097,1,0,0:0:0:0:
256,192,268181,1,0,0:0:0:0:
256,192,268264,1,8,0:0:0:0:
256,192,268432,1,0,0:0:0:0:
256,192,268600,1,8,0:0:0:0:
256,192,268767,1,8,0:0:0:0:
256,192,268851,1,0,0:0:0:0:
256,192,268935,1,8,0:0:0:0:
256,192,269102,1,0,0:0:0:0:
256,192,269270,1,12,0:0:0:0:
256,192,269605,1,0,0:0:0:0:
256,192,269940,1,0,0:0:0:0:
256,192,270276,1,0,0:0:0:0:
256,192,270611,1,8,0:0:0:0:
256,192,270778,1,8,0:0:0:0:
256,192,270946,1,0,0:0:0:0:
256,192,271114,1,0,0:0:0:0:
256,192,271281,1,8,0:0:0:0:
256,192,271365,1,8,0:0:0:0:
256,192,271449,1,0,0:0:0:0:
256,192,271616,1,8,0:0:0:0:
256,192,271784,1,0,0:0:0:0:
256,192,271951,1,8,0:0:0:0:
256,192,272287,1,0,0:0:0:0:
256,192,272454,1,0,0:0:0:0:
256,192,272622,1,0,0:0:0:0:
256,192,272789,1,0,0:0:0:0:
256,192,272957,1,0,0:0:0:0:
256,192,273125,1,0,0:0:0:0:
256,192,273292,1,8,0:0:0:0:
256,192,273460,1,8,0:0:0:0:
256,192,273627,1,8,0:0:0:0:
256,192,273795,1,0,0:0:0:0:
256,192,273879,1,0,0:0:0:0:
256,192,273963,1,8,0:0:0:0:
256,192,274130,1,8,0:0:0:0:
256,192,274298,1,0,0:0:0:0:
256,192,274465,1,8,0:0:0:0:
256,192,274549,1,8,0:0:0:0:
256,192,274633,1,0,0:0:0:0:
256,192,274801,12,0,279996,0:0:0:0:
