osu file format v14

[General]
AudioFilename: audio.mp3
AudioLeadIn: 0
PreviewTime: 64360
Countdown: 0
SampleSet: Soft
StackLeniency: 0.7
Mode: 0
LetterboxInBreaks: 0
WidescreenStoryboard: 1

[Editor]
DistanceSpacing: 1
BeatDivisor: 4
GridSize: 32
TimelineZoom: 1

[Metadata]
Title:Rinne
TitleUnicode:輪廻
Artist:Yamamoto Mineko
ArtistUnicode:山本美禰子
Creator:Shirahane Suou
Version:Normal
Source:さくら、もゆ。-as the Night's, Reincarnation-
Tags:sakura, moyu japanese visual novel eroge op opening favorite seto kousuke
BeatmapID:2096998
BeatmapSetID:1001755

[Difficulty]
HPDrainRate:3
CircleSize:3
OverallDifficulty:4
ApproachRate:5
SliderMultiplier:0.899999999999999
SliderTickRate:1

[Events]
//Background and Video events
0,0,"c7e712ff-091c-4743-c70c-7bfc57528ad1.jpg",0,0
//Break Periods
2,215817,225143
//Storyboard Layer 0 (Background)
//Storyboard Layer 1 (Fail)
//Storyboard Layer 2 (Pass)
//Storyboard Layer 3 (Foreground)
//Storyboard Layer 4 (Overlay)
//Storyboard Sound Samples

[TimingPoints]
1092,335.195530726257,4,2,1,50,1,0
17181,-100,4,2,1,70,0,0
25226,-100,4,2,2,50,0,0
43997,-100,4,2,1,50,0,0
46678,-100,4,2,1,60,0,0
65449,-100,4,2,1,70,0,1
92265,-100,4,2,1,70,0,0
102991,-100,4,2,1,60,0,0
143214,-100,4,2,1,70,0,1
170030,-100,4,2,1,60,0,0
191483,-100,4,2,1,70,0,0
215617,-100,4,2,2,50,0,0
234388,-100,4,2,1,50,0,0
236399,-100,4,2,1,60,0,0
236734,-100,4,2,1,70,0,0
237069,-100,4,2,1,70,0,1
263885,-100,4,2,1,70,0,0
279974,-100,4,2,1,5,0,0

[Colours]
Combo1 : 246,231,148
Combo2 : 235,191,217
Combo3 : 254,158,106
Combo4 : 214,81,73

[HitObjects]
83,272,1092,6,0,P|101:250|213:227,1,135,2|2,0:0|0:0,0:0:0:0:
267,281,1929,1,2,0:0:0:0:
337,224,2265,2,0,P|356:164|342:85,1,135,2|2,0:0|0:0,0:0:0:0:
320,56,2935,1,2,0:0:0:0:
444,2,3438,1,2,0:0:0:0:
505,69,3773,6,0,P|498:139|496:215,1,135,2|2,0:0|0:0,0:0:0:0:
503,293,4611,1,2,0:0:0:0:
438,355,4946,2,0,B|396:371|350:349|350:349|302:327|258:352,1,180,2|2,0:0|0:0,0:0:0:0:
231,380,5784,2,0,P|198:348|171:299,1,89.9999999999999,2|2,0:0|0:0,0:0:0:0:
229,237,6455,6,0,P|241:203|184:112,1,135,2|2,0:0|0:0,0:0:0:0:
96,32,7460,1,2,0:0:0:0:
34,97,7795,2,0,B|45:233,1,135,2|2,0:0|0:0,0:0:0:0:
100,357,8801,1,2,0:0:0:0:
165,295,9136,6,0,P|193:278|294:291,1,135,2|2,0:0|0:0,0:0:0:0:
361,344,9974,2,0,L|456:331,1,89.9999999999999,2|2,0:0|0:0,0:0:0:0:
505,260,10645,2,0,L|512:169,1,89.9999999999999,2|2,0:0|0:0,0:0:0:0:
465,93,11315,1,2,0:0:0:0:
465,93,11483,1,2,0:0:0:0:
389,142,11818,6,0,B|300:132|300:132|264:92,1,135,6|2,0:0|0:0,0:0:0:0:
208,32,12656,2,0,P|178:27|123:48,1,89.9999999999999,2|2,0:0|0:0,0:0:0:0:
98,85,13159,1,2,0:0:0:0:
140,167,13494,1,2,0:0:0:0:
140,167,13661,2,0,L|124:306,1,135,2|2,0:0|0:0,0:0:0:0:
42,339,14499,6,0,P|21:327|-1:258,1,89.9999999999999,2|2,0:0|0:0,0:0:0:0:
22,231,15002,2,0,P|29:188|32:141,1,89.9999999999999,2|2,0:0|0:0,0:0:0:0:
5,55,15673,1,2,0:0:0:0:
5,55,15840,2,0,P|63:40|141:73,1,135,2|2,0:0|0:0,0:0:0:0:
162,97,16510,2,0,L|256:109,1,89.9999999999999,2|2,0:0|0:0,0:0:0:0:
309,37,17181,6,0,P|352:29|399:25,1,89.9999999999999,14|0,2:0|3:0,0:0:0:0:
433,53,17684,2,0,P|441:97|444:142,1,89.9999999999999,8|0,2:0|3:0,0:0:0:0:
418,178,18186,1,10,2:0:0:0:
471,250,18522,1,10,2:0:0:0:
425,327,18857,2,0,L|323:319,1,89.9999999999999,2|2,3:2|3:2,0:0:0:0:
260,267,19527,1,10,2:0:0:0:
318,198,19862,6,0,L|310:96,1,89.9999999999999,8|0,2:0|3:0,0:0:0:0:
310,63,20365,1,10,2:0:0:0:
310,63,20533,1,2,3:2:0:0:
235,13,20868,2,0,L|144:24,1,89.9999999999999,8|0,2:0|3:0,0:0:0:0:
110,52,21371,2,0,P|99:79|107:143,1,89.9999999999999,8|0,2:0|3:0,0:0:0:0:
138,168,21874,1,10,2:0:0:0:
102,250,22209,1,10,2:0:0:0:
152,324,22544,5,6,3:2:0:0:
351,23,23885,2,0,B|367:111|367:111|352:161,1,135,2|0,0:0|3:0,0:0:0:0:
300,226,24723,2,0,L|308:280,1,45,0|2,3:0|3:2,0:0:0:0:
361,342,25226,6,0,P|426:349|483:315,1,135,6|2,3:2|0:0,0:0:0:0:
512,229,26064,1,2,0:0:0:0:
398,156,26566,2,0,L|387:64,1,89.9999999999999,2|0,0:2|0:2,0:0:0:0:
406,25,27069,2,0,L|263:12,1,135,2|2,0:0|0:2,0:0:0:0:
196,63,27907,6,0,L|188:155,1,89.9999999999999,2|2,3:2|0:2,0:0:0:0:
183,197,28410,1,2,0:0:0:0:
238,267,28745,1,2,0:0:0:0:
183,338,29080,1,2,0:0:0:0:
183,338,29248,2,0,P|137:338|90:347,1,89.9999999999999,2|0,3:2|1:2,0:0:0:0:
16,299,29918,2,0,P|16:253|7:206,1,89.9999999999999,2|0,1:2|1:2,0:0:0:0:
84,161,30589,6,0,B|84:115|93:72|93:72|141:63,1,135,6|2,3:2|0:0,0:0:0:0:
260,120,31594,1,2,0:2:0:0:
316,50,31929,2,0,L|410:39,1,89.9999999999999,2|0,0:2|0:2,0:0:0:0:
449,49,32432,2,0,P|458:115|460:183,1,135,2|2,0:0|0:2,0:0:0:0:
397,247,33270,5,2,3:2:0:0:
333,183,33605,2,0,P|288:171|240:170,1,89.9999999999999,2|0,0:2|0:2,0:0:0:0:
205,191,34108,1,2,0:0:0:0:
205,191,34276,1,2,0:2:0:0:
146,259,34611,2,0,L|153:357,1,89.9999999999999,2|2,3:2|1:2,0:0:0:0:
238,375,35281,2,0,L|327:381,1,89.9999999999999,2|2,1:2|1:2,0:0:0:0:
403,332,35952,6,0,B|411:280|411:280|397:253|397:253|405:201,1,135,6|2,3:2|0:0,0:0:0:0:
492,99,36957,1,2,0:2:0:0:
427,36,37293,2,0,L|334:22,1,89.9999999999999,2|0,3:2|0:2,0:0:0:0:
309,57,37795,2,0,P|257:65|194:123,1,135,2|2,0:0|0:2,0:0:0:0:
211,207,38633,6,0,L|312:218,1,89.9999999999999,2|2,3:2|0:0,0:0:0:0:
339,194,39136,2,0,L|350:295,1,89.9999999999999,2|2,0:0|0:0,0:0:0:0:
353,328,39639,1,0,0:2:0:0:
274,372,39974,2,0,L|181:381,1,89.9999999999999,2|2,3:2|1:2,0:0:0:0:
106,334,40645,2,0,P|86:294|91:237,1,89.9999999999999,2|2,1:2|3:2,0:0:0:0:
137,175,41315,5,6,3:2:0:0:
89,98,41650,1,2,0:2:0:0:
155,37,41985,2,0,L|249:30,1,89.9999999999999,2|2,0:2|0:2,0:0:0:0:
313,89,42656,2,0,P|304:134|302:186,1,89.9999999999999,2|2,3:2|0:2,0:0:0:0:
285,220,43159,2,0,L|379:227,1,89.9999999999999,2|2,0:0|0:0,0:0:0:0:
419,232,43661,1,2,0:2:0:0:
480,165,43997,6,0,L|466:69,1,89.9999999999999,2|2,3:2|3:2,0:0:0:0:
403,12,44667,2,0,L|313:0,1,89.9999999999999,2|2,3:2|3:2,0:0:0:0:
274,20,45170,1,10,2:0:0:0:
286,109,45505,2,0,L|335:112,2,45,2|2|2,0:0|3:2|0:2,0:0:0:0:
264,148,46008,1,2,3:2:0:0:
264,148,46175,2,0,L|211:156,1,45,2|2,3:2|3:2,0:0:0:0:
142,201,46678,6,0,P|124:160|132:116,1,89.9999999999999,6|0,3:2|3:0,0:0:0:0:
190,48,47348,1,0,3:0:0:0:
113,0,47684,2,0,L|63:0,1,45,2|2,3:2|0:0,0:0:0:0:
26,16,48019,2,0,L|17:119,1,89.9999999999999,2|0,3:2|3:0,0:0:0:0:
22,150,48522,1,2,0:0:0:0:
114,248,49024,1,2,3:2:0:0:
195,210,49360,6,0,L|206:117,1,89.9999999999999,2|0,3:2|3:2,0:0:0:0:
190,78,49862,1,2,0:0:0:0:
251,11,50198,1,2,0:0:0:0:
323,70,50533,1,2,0:0:0:0:
323,70,50700,2,0,L|338:164,1,89.9999999999999,2|0,3:2|3:0,0:0:0:0:
371,188,51203,2,0,B|361:278|361:278|313:299,1,135,2|2,0:0|3:2,0:0:0:0:
242,341,52041,6,0,L|146:331,1,89.9999999999999,2|0,3:2|3:0,0:0:0:0:
94,262,52712,1,0,3:0:0:0:
136,134,53214,1,2,0:0:0:0:
136,134,53382,2,0,P|181:126|233:125,1,89.9999999999999,2|2,3:2|3:2,0:0:0:0:
284,192,54052,2,0,P|329:200|381:201,1,89.9999999999999,2|2,3:2|3:2,0:0:0:0:
457,168,54723,6,0,L|464:73,1,89.9999999999999,2|0,3:2|3:0,0:0:0:0:
440,39,55226,1,2,0:0:0:0:
357,73,55561,1,2,0:0:0:0:
239,5,56064,2,0,L|146:-2,1,89.9999999999999,2|0,3:2|3:0,0:0:0:0:
106,11,56566,1,2,0:0:0:0:
106,11,56734,1,0,3:0:0:0:
55,85,57069,1,10,2:0:0:0:
128,137,57404,6,0,P|134:183|137:232,1,89.9999999999999,6|10,3:2|2:0,0:0:0:0:
105,258,57907,2,0,P|84:290|91:354,1,89.9999999999999,2|0,3:2|3:0,0:0:0:0:
112,377,58410,1,10,2:0:0:0:
191,334,58745,2,0,L|281:329,1,89.9999999999999,2|2,3:2|3:2,0:0:0:0:
319,351,59248,1,2,3:2:0:0:
441,293,59751,2,0,L|443:247,1,45,10|2,2:0|0:0,0:0:0:0:
442,202,60086,6,0,P|400:193|351:191,1,89.9999999999999,2|10,3:2|2:0,0:0:0:0:
320,222,60589,2,0,P|278:231|229:233,1,89.9999999999999,2|0,3:2|3:0,0:0:0:0:
186,226,61092,1,8,2:0:0:0:
133,152,61427,2,0,L|141:54,1,89.9999999999999,10|2,2:0|3:2,0:0:0:0:
164,24,61929,1,2,3:2:0:0:
238,74,62265,1,2,3:2:0:0:
310,20,62600,1,2,3:2:0:0:
310,20,62767,6,0,P|354:20|405:29,1,89.9999999999999,14|0,2:0|3:0,0:0:0:0:
443,18,63270,2,0,P|450:62|450:107,1,89.9999999999999,10|0,2:0|3:0,0:0:0:0:
427,145,63773,2,0,L|434:203,1,45,10|2,2:0|3:2,0:0:0:0:
487,266,64276,1,10,2:0:0:0:
487,266,64443,1,10,2:0:0:0:
444,345,64779,1,10,2:0:0:0:
354,345,65114,1,10,2:0:0:0:
304,269,65449,6,0,P|296:224|296:179,1,89.9999999999999,6|10,3:2|2:0,0:0:0:0:
311,137,65952,2,0,L|205:126,1,89.9999999999999,2|2,3:2|3:2,0:0:0:0:
185,100,66455,1,8,2:0:0:0:
101,133,66790,2,0,P|87:175|89:220,1,89.9999999999999,0|10,3:0|2:0,0:0:0:0:
112,258,67293,1,0,3:0:0:0:
112,258,67460,1,2,0:0:0:0:
79,341,67795,1,10,2:0:0:0:
158,383,68131,6,0,L|252:372,1,89.9999999999999,2|10,3:2|2:0,0:0:0:0:
281,343,68633,2,0,P|296:300|291:256,1,89.9999999999999,2|2,3:2|3:2,0:0:0:0:
265,219,69136,1,8,2:0:0:0:
317,145,69471,2,0,L|419:132,1,89.9999999999999,0|8,3:0|2:0,0:0:0:0:
475,191,70142,1,2,3:2:0:0:
433,270,70477,1,10,2:0:0:0:
475,349,70812,6,0,P|437:361|389:350,1,89.9999999999999,6|10,3:2|2:0,0:0:0:0:
345,358,71315,2,0,L|333:266,1,89.9999999999999,2|0,3:2|3:0,0:0:0:0:
351,227,71818,2,0,L|356:181,1,45,8|2,2:0|3:2,0:0:0:0:
363,137,72153,1,2,3:2:0:0:
309,65,72488,1,10,2:0:0:0:
309,65,72656,2,0,L|212:74,1,89.9999999999999,2|2,3:2|3:2,0:0:0:0:
174,79,73159,1,8,2:0:0:0:
120,151,73494,6,0,L|112:254,1,89.9999999999999,2|10,3:2|2:0,0:0:0:0:
129,282,73997,2,0,P|158:309|214:316,1,89.9999999999999,2|2,3:2|3:2,0:0:0:0:
250,307,74499,1,10,2:0:0:0:
315,245,74835,2,0,L|321:194,1,45,0|0,3:0|3:0,0:0:0:0:
292,164,75170,2,0,L|286:113,1,45,10|0,2:0|3:0,0:0:0:0:
304,77,75505,1,2,0:0:0:0:
376,23,75840,1,10,2:0:0:0:
447,77,76175,6,0,L|458:178,1,89.9999999999999,6|10,3:2|2:0,0:0:0:0:
490,196,76678,2,0,L|479:297,1,89.9999999999999,2|2,3:2|3:2,0:0:0:0:
464,327,77181,1,8,2:0:0:0:
384,285,77516,2,0,L|291:278,1,89.9999999999999,0|10,3:0|2:0,0:0:0:0:
249,276,78019,1,0,3:0:0:0:
249,276,78186,1,2,0:0:0:0:
184,339,78522,1,10,2:0:0:0:
100,305,78857,6,0,P|91:262|90:214,1,89.9999999999999,2|10,3:2|2:0,0:0:0:0:
126,189,79360,2,0,P|135:146|136:98,1,89.9999999999999,2|2,3:2|3:2,0:0:0:0:
117,59,79862,1,8,2:0:0:0:
187,2,80198,2,0,L|279:7,1,89.9999999999999,0|8,3:0|2:0,0:0:0:0:
342,68,80868,1,2,3:2:0:0:
295,144,81203,1,10,2:0:0:0:
354,211,81538,6,0,L|364:308,1,89.9999999999999,6|10,3:2|2:0,0:0:0:0:
328,329,82041,2,0,L|231:319,1,89.9999999999999,2|2,3:2|3:2,0:0:0:0:
193,314,82544,1,8,2:0:0:0:
193,314,82712,1,2,3:2:0:0:
211,180,83214,1,10,2:0:0:0:
295,144,83550,1,2,3:2:0:0:
297,54,83885,1,10,2:0:0:0:
220,6,84220,6,0,P|172:-1|115:-1,1,89.9999999999999,2|10,3:2|2:0,0:0:0:0:
89,16,84723,2,0,L|77:110,1,89.9999999999999,2|2,3:2|3:2,0:0:0:0:
90,148,85226,1,10,2:0:0:0:
37,221,85561,2,0,L|49:315,1,89.9999999999999,0|8,3:0|2:0,0:0:0:0:
57,354,86064,1,0,3:0:0:0:
146,349,86399,2,0,L|206:342,1,45,8|10,2:0|2:0,0:0:0:0:
235,340,86734,1,0,3:0:0:0:
235,340,86902,6,0,P|239:292|253:242,1,89.9999999999999,6|10,3:2|2:0,0:0:0:0:
225,213,87404,2,0,P|221:165|207:115,1,89.9999999999999,2|2,3:2|3:2,0:0:0:0:
252,44,88075,2,0,L|354:53,1,89.9999999999999,2|2,3:2|3:2,0:0:0:0:
384,36,88578,1,10,2:0:0:0:
384,36,88745,2,0,L|396:132,1,89.9999999999999,2|2,3:2|3:2,0:0:0:0:
379,167,89248,1,10,2:0:0:0:
441,232,89583,6,0,P|446:285|426:332,1,89.9999999999999,8|2,2:0|3:2,0:0:0:0:
406,354,90086,2,0,L|309:343,1,89.9999999999999,10|0,2:0|3:0,0:0:0:0:
271,341,90589,2,0,L|259:286,1,45,8|0,2:0|3:0,0:0:0:0:
252,252,90924,1,8,2:0:0:0:
319,134,91427,1,2,0:0:0:0:
319,134,91594,2,0,L|224:124,1,89.9999999999999,2|2,0:0|0:0,0:0:0:0:
151,79,92265,6,0,P|140:122|141:173,1,89.9999999999999,12|2,2:0|3:2,0:0:0:0:
115,204,92767,2,0,P|126:247|125:298,1,89.9999999999999,10|0,2:0|3:0,0:0:0:0:
120,337,93270,1,10,2:0:0:0:
30,337,93605,2,0,L|15:246,1,89.9999999999999,8|2,2:0|3:2,0:0:0:0:
9,203,94108,1,8,2:0:0:0:
9,203,94276,1,2,3:2:0:0:
62,130,94611,1,10,2:0:0:0:
115,204,94946,6,0,L|210:209,1,89.9999999999999,10|0,2:0|3:0,0:0:0:0:
236,240,95449,2,0,L|331:235,1,89.9999999999999,10|0,2:0|3:0,0:0:0:0:
363,210,95952,1,10,2:0:0:0:
311,136,96287,2,0,L|318:46,1,89.9999999999999,10|2,2:0|3:2,0:0:0:0:
342,7,96790,1,8,2:0:0:0:
342,7,96957,2,0,L|441:-1,1,89.9999999999999,2|10,3:2|2:0,0:0:0:0:
496,62,97628,6,0,L|510:162,1,89.9999999999999,6|0,3:2|3:0,0:0:0:0:
454,222,98298,2,0,L|440:322,1,89.9999999999999,0|0,3:0|3:0,0:0:0:0:
364,357,98969,2,0,P|319:357|273:367,1,89.9999999999999,2|2,3:2|3:2,0:0:0:0:
194,326,99639,1,2,3:2:0:0:
108,352,99974,1,2,3:2:0:0:
59,276,100309,6,0,L|66:179,1,89.9999999999999,10|8,2:0|2:0,0:0:0:0:
94,151,100812,1,8,2:0:0:0:
94,151,100980,2,0,L|90:102,2,45,8|8|8,2:0|2:0|2:0,0:0:0:0:
169,199,101650,2,0,L|165:247,2,45,10|8|2,2:0|2:0|3:2,0:0:0:0:
200,167,102153,1,0,3:0:0:0:
200,167,102321,2,0,L|303:156,1,89.9999999999999,2|2,3:2|3:2,0:0:0:0:
362,209,102991,6,0,P|393:220|483:163,1,135,6|2,3:2|0:0,0:0:0:0:
507,90,103829,1,2,0:0:0:0:
405,0,104332,2,0,L|304:0,1,89.9999999999999,2|0,3:2|3:0,0:0:0:0:
270,6,104835,2,0,B|261:62|261:62|271:85|271:85|259:145,1,135,2|2,0:0|3:2,0:0:0:0:
213,214,105673,6,0,L|118:223,1,89.9999999999999,0|2,3:0|3:2,0:0:0:0:
78,220,106175,1,2,0:0:0:0:
16,154,106510,1,2,0:0:0:0:
69,81,106846,1,2,0:0:0:0:
69,81,107013,2,0,P|104:89|155:67,1,89.9999999999999,2|0,3:2|3:0,0:0:0:0:
239,93,107684,2,0,P|274:85|325:107,1,89.9999999999999,2|0,3:2|3:0,0:0:0:0:
341,145,108186,1,10,2:0:0:0:
341,145,108354,6,0,B|353:240|353:240,1,89.9999999999999,6|0,3:2|3:0,0:0:0:0:
362,278,108857,1,2,0:2:0:0:
451,283,109192,2,0,L|445:334,1,45,2|2,0:0|3:2,0:0:0:0:
371,378,109695,2,0,L|273:364,1,89.9999999999999,2|0,3:2|3:0,0:0:0:0:
255,328,110198,2,0,B|222:316|188:329|188:329|153:344|121:327,1,135,2|2,0:0|3:2,0:0:0:0:
100,241,111036,5,2,3:2:0:0:
179,198,111371,2,0,P|185:153|185:108,1,89.9999999999999,2|0,3:2|3:0,0:0:0:0:
190,63,111874,1,2,0:0:0:0:
190,63,112041,1,0,3:0:0:0:
123,1,112376,2,0,P|88:-4|25:17,1,89.9999999999999,2|2,3:2|3:2,0:0:0:0:
0,92,113047,2,0,L|5:143,1,45,2|2,3:2|3:2,0:0:0:0:
34,171,113382,2,0,L|29:222,1,45,10|2,2:0|0:0,0:0:0:0:
17,259,113717,6,0,P|42:250|117:264,1,89.9999999999999,6|10,3:2|2:0,0:0:0:0:
141,279,114220,1,2,3:2:0:0:
260,215,114723,1,2,0:0:0:0:
260,215,114890,2,0,L|251:309,1,89.9999999999999,10|0,2:0|3:0,0:0:0:0:
248,349,115393,1,10,2:0:0:0:
248,349,115561,1,2,0:0:0:0:
358,271,116064,1,10,2:0:0:0:
428,326,116399,6,0,P|456:329|512:298,1,89.9999999999999,2|10,3:2|2:0,0:0:0:0:
506,256,116902,1,2,3:2:0:0:
444,190,117237,1,2,3:2:0:0:
504,123,117572,2,0,P|511:77|506:29,1,89.9999999999999,10|0,2:0|3:0,0:0:0:0:
473,4,118075,1,10,2:0:0:0:
401,57,118410,2,0,L|307:46,1,89.9999999999999,2|10,3:2|2:0,0:0:0:0:
233,2,119080,5,4,3:2:0:0:
162,58,119416,1,10,2:0:0:0:
217,129,119751,2,0,L|221:234,1,89.9999999999999,2|10,3:2|2:0,0:0:0:0:
220,308,120421,2,0,P|181:301|127:316,1,89.9999999999999,2|10,3:2|2:0,0:0:0:0:
91,332,120924,2,0,L|78:243,1,89.9999999999999,2|2,0:0|3:2,0:0:0:0:
71,198,121427,1,10,2:0:0:0:
118,120,121762,6,0,P|162:113|207:113,1,89.9999999999999,2|10,3:2|2:0,0:0:0:0:
277,169,122432,1,10,2:0:0:0:
219,238,122767,1,10,2:0:0:0:
219,238,122935,2,0,L|228:336,1,89.9999999999999,2|2,3:2|3:2,0:0:0:0:
248,367,123438,1,10,2:0:0:0:
328,327,123773,1,2,3:2:0:0:
400,380,124108,2,0,L|455:374,1,45,2|0,3:2|3:0,0:0:0:0:
489,381,124443,6,0,L|496:284,1,89.9999999999999,6|0,3:2|3:0,0:0:0:0:
503,201,125114,1,0,3:0:0:0:
424,157,125449,2,0,L|377:161,1,45,2|2,3:2|0:0,0:0:0:0:
336,175,125784,2,0,L|329:78,1,89.9999999999999,2|0,3:2|3:0,0:0:0:0:
326,40,126287,1,2,0:0:0:0:
455,0,126790,1,2,3:2:0:0:
508,72,127125,6,0,L|498:163,1,89.9999999999999,2|0,3:2|3:2,0:0:0:0:
493,206,127628,1,2,0:0:0:0:
426,266,127963,1,2,0:0:0:0:
355,210,128298,1,2,0:0:0:0:
355,210,128466,2,0,L|265:199,1,89.9999999999999,2|0,3:2|3:0,0:0:0:0:
231,229,128969,2,0,B|178:234|178:234|156:255|156:255|103:260,1,135,2|2,0:0|3:2,0:0:0:0:
41,195,129807,6,0,L|48:102,1,89.9999999999999,2|0,3:2|3:0,0:0:0:0:
90,26,130477,1,0,3:0:0:0:
170,134,130980,1,2,0:0:0:0:
170,134,131147,2,0,P|205:139|265:116,1,89.9999999999999,2|2,3:2|3:2,0:0:0:0:
317,56,131818,2,0,P|352:51|412:74,1,89.9999999999999,2|2,3:2|3:2,0:0:0:0:
454,141,132488,6,0,L|447:232,1,89.9999999999999,2|0,3:2|3:0,0:0:0:0:
445,275,132991,1,2,0:0:0:0:
371,327,133326,1,2,0:0:0:0:
283,224,133829,2,0,P|241:218|190:218,1,89.9999999999999,2|0,3:2|3:0,0:0:0:0:
151,234,134332,1,2,0:0:0:0:
151,234,134499,1,0,3:0:0:0:
114,316,134835,1,10,2:0:0:0:
186,368,135170,6,0,P|230:374|275:374,1,89.9999999999999,6|10,3:2|2:0,0:0:0:0:
308,343,135673,2,0,P|352:336|397:336,1,89.9999999999999,2|0,3:2|3:0,0:0:0:0:
435,360,136175,1,10,2:0:0:0:
497,295,136510,2,0,L|488:203,1,89.9999999999999,2|2,3:2|3:2,0:0:0:0:
480,160,137013,1,2,3:2:0:0:
379,70,137516,2,0,L|333:64,1,45,10|2,2:0|0:0,0:0:0:0:
289,57,137851,6,0,P|280:103|280:150,1,89.9999999999999,2|10,3:2|2:0,0:0:0:0:
293,188,138354,2,0,L|200:197,1,89.9999999999999,2|0,3:2|3:0,0:0:0:0:
158,203,138857,1,8,2:0:0:0:
98,135,139192,2,0,P|88:112|94:41,1,89.9999999999999,10|2,2:0|3:2,0:0:0:0:
114,9,139695,1,2,3:2:0:0:
192,52,140030,1,2,3:2:0:0:
270,8,140365,1,2,3:2:0:0:
270,8,140533,6,0,L|362:12,1,89.9999999999999,14|0,2:0|3:0,0:0:0:0:
398,35,141036,2,0,P|410:69|413:127,1,89.9999999999999,10|0,2:0|3:0,0:0:0:0:
396,164,141538,2,0,L|393:211,1,45,10|2,2:0|3:2,0:0:0:0:
451,284,142041,1,10,2:0:0:0:
451,284,142209,1,10,2:0:0:0:
381,341,142544,2,0,L|335:345,1,45,10|8,2:0|2:0,0:0:0:0:
295,326,142879,2,0,L|249:322,1,45,10|8,2:0|2:0,0:0:0:0:
215,350,143214,6,0,L|123:358,1,89.9999999999999,6|10,3:2|2:0,0:0:0:0:
87,333,143717,2,0,P|88:300|68:238,1,89.9999999999999,2|2,3:2|3:2,0:0:0:0:
45,209,144220,1,8,2:0:0:0:
101,138,144555,2,0,L|191:130,1,89.9999999999999,0|10,3:0|2:0,0:0:0:0:
235,133,145058,1,0,3:0:0:0:
235,133,145226,1,2,0:0:0:0:
304,190,145561,1,10,2:0:0:0:
372,132,145896,6,0,P|381:89|381:40,1,89.9999999999999,2|10,3:2|2:0,0:0:0:0:
345,15,146399,2,0,L|254:5,1,89.9999999999999,2|2,3:2|3:2,0:0:0:0:
210,1,146902,1,8,2:0:0:0:
144,62,147237,2,0,L|53:72,1,89.9999999999999,0|8,3:0|2:0,0:0:0:0:
0,143,147907,1,2,3:2:0:0:
54,214,148242,1,10,2:0:0:0:
1,287,148578,6,0,P|2:342|19:380,1,89.9999999999999,6|10,3:2|2:0,0:0:0:0:
59,380,149080,2,0,L|151:370,1,89.9999999999999,2|0,3:2|3:0,0:0:0:0:
186,346,149583,2,0,L|242:353,1,45,8|2,2:0|3:2,0:0:0:0:
275,355,149918,1,2,3:2:0:0:
343,296,150254,1,10,2:0:0:0:
343,296,150421,2,0,L|331:206,1,89.9999999999999,2|2,3:2|3:2,0:0:0:0:
322,162,150924,1,8,2:0:0:0:
235,185,151259,6,0,L|143:178,1,89.9999999999999,2|10,3:2|2:0,0:0:0:0:
100,184,151762,2,0,L|85:92,1,89.9999999999999,2|2,3:2|3:2,0:0:0:0:
79,50,152265,1,10,2:0:0:0:
155,3,152600,2,0,L|200:1,1,45,0|0,3:0|3:0,0:0:0:0:
230,34,152935,2,0,L|275:36,1,45,10|0,2:0|3:0,0:0:0:0:
313,12,153270,1,2,0:0:0:0:
376,75,153605,1,10,2:0:0:0:
447,19,153941,6,0,P|462:48|461:106,1,89.9999999999999,6|10,3:2|2:0,0:0:0:0:
479,145,154443,2,0,L|472:241,1,89.9999999999999,2|2,3:2|3:2,0:0:0:0:
470,279,154946,1,8,2:0:0:0:
396,331,155281,2,0,L|300:337,1,89.9999999999999,0|10,3:0|2:0,0:0:0:0:
261,333,155784,1,0,3:0:0:0:
261,333,155952,1,2,0:0:0:0:
198,268,156287,1,10,2:0:0:0:
262,204,156622,6,0,L|273:112,1,89.9999999999999,2|10,3:2|2:0,0:0:0:0:
239,83,157125,2,0,P|234:54|189:10,1,89.9999999999999,2|2,3:2|3:2,0:0:0:0:
148,7,157628,1,8,2:0:0:0:
71,53,157963,2,0,L|64:148,1,89.9999999999999,0|8,3:0|2:0,0:0:0:0:
109,220,158633,1,2,3:2:0:0:
181,166,158969,1,10,2:0:0:0:
262,204,159304,6,0,L|366:197,1,89.9999999999999,6|10,3:2|2:0,0:0:0:0:
393,214,159807,2,0,P|419:221|480:206,1,89.9999999999999,2|2,3:2|3:2,0:0:0:0:
509,173,160309,1,8,2:0:0:0:
509,173,160477,1,2,3:2:0:0:
511,308,160980,1,10,2:0:0:0:
443,367,161315,1,2,3:2:0:0:
367,318,161650,1,10,2:0:0:0:
292,368,161985,6,0,L|202:378,1,89.9999999999999,2|10,3:2|2:0,0:0:0:0:
159,363,162488,2,0,P|140:339|134:270,1,89.9999999999999,2|2,3:2|3:2,0:0:0:0:
153,242,162991,1,10,2:0:0:0:
88,179,163326,2,0,L|81:85,1,89.9999999999999,0|8,3:0|2:0,0:0:0:0:
86,44,163829,1,0,3:0:0:0:
169,10,164164,2,0,L|229:17,1,45,8|10,2:0|2:0,0:0:0:0:
257,23,164499,1,0,3:0:0:0:
257,23,164667,6,0,P|275:45|292:109,1,89.9999999999999,6|10,3:2|2:0,0:0:0:0:
327,130,165170,2,0,P|324:158|290:215,1,89.9999999999999,2|2,3:2|3:2,0:0:0:0:
210,243,165840,2,0,L|116:232,1,89.9999999999999,2|2,3:2|3:2,0:0:0:0:
77,220,166343,1,10,2:0:0:0:
77,220,166510,2,0,L|88:314,1,89.9999999999999,2|2,3:2|3:2,0:0:0:0:
96,353,167013,1,8,2:0:0:0:
181,379,167348,6,0,P|225:370|279:369,1,89.9999999999999,10|2,2:0|3:2,0:0:0:0:
314,375,167851,2,0,L|326:277,1,89.9999999999999,10|0,2:0|3:0,0:0:0:0:
295,251,168354,2,0,L|284:195,1,45,8|0,2:0|3:0,0:0:0:0:
271,164,168689,1,0,3:0:0:0:
271,164,168857,1,8,2:0:0:0:
328,94,169192,1,2,3:2:0:0:
328,94,169360,2,0,L|417:87,1,89.9999999999999,10|10,2:0|2:0,0:0:0:0:
494,133,170030,6,0,P|487:178|487:227,1,89.9999999999999,4|2,3:2|3:2,0:0:0:0:
504,310,170700,1,0,3:0:0:0:
423,351,171036,1,0,3:0:0:0:
355,291,171371,2,0,P|262:298|229:323,1,135,10|2,2:0|3:2,0:0:0:0:
108,380,172376,1,2,3:2:0:0:
45,314,172712,6,0,L|30:221,1,89.9999999999999,2|0,3:2|3:0,0:0:0:0:
68,200,173214,2,0,B|82:108|82:108|133:95,1,135,2|2,3:2|3:2,0:0:0:0:
197,148,174052,2,0,L|289:158,1,89.9999999999999,10|2,2:2|3:2,0:0:0:0:
331,163,174555,1,2,3:2:0:0:
381,237,174890,1,2,3:2:0:0:
471,231,175226,1,2,3:2:0:0:
471,231,175393,6,0,P|476:157|495:93,1,135,6|2,3:2|3:2,0:0:0:0:
397,2,176399,1,2,3:2:0:0:
321,51,176734,2,0,L|227:40,1,89.9999999999999,10|2,2:0|3:2,0:0:0:0:
194,15,177237,2,0,L|100:26,1,89.9999999999999,2|2,3:2|3:2,0:0:0:0:
72,57,177740,1,0,3:0:0:0:
117,134,178075,6,0,L|108:227,1,89.9999999999999,2|2,3:2|3:2,0:0:0:0:
85,262,178578,2,0,L|94:355,1,89.9999999999999,2|2,3:2|3:2,0:0:0:0:
127,380,179080,1,2,3:2:0:0:
195,321,179416,2,0,L|286:313,1,89.9999999999999,10|0,2:0|3:0,0:0:0:0:
324,333,179918,2,0,B|332:279|332:279|350:260|350:260|359:201,1,135,2|2,3:2|3:2,0:0:0:0:
403,128,180756,6,0,P|372:117|311:129,1,89.9999999999999,6|2,3:2|3:2,0:0:0:0:
278,150,181259,1,2,3:2:0:0:
278,150,181427,1,0,3:0:0:0:
204,98,181762,1,2,3:2:0:0:
238,14,182097,2,0,L|330:6,1,89.9999999999999,10|2,2:0|3:2,0:0:0:0:
366,29,182600,2,0,L|469:42,1,89.9999999999999,2|2,3:2|3:2,0:0:0:0:
496,22,183103,1,0,3:0:0:0:
511,110,183438,6,0,L|511:202,1,89.9999999999999,2|0,3:2|3:0,0:0:0:0:
450,266,184108,2,0,P|404:274|356:266,1,89.9999999999999,0|2,3:0|3:2,0:0:0:0:
323,244,184611,1,0,3:0:0:0:
323,244,184779,2,0,L|314:152,1,89.9999999999999,10|0,2:0|3:0,0:0:0:0:
309,109,185281,1,2,3:2:0:0:
230,65,185617,1,2,3:2:0:0:
153,111,185952,1,2,3:2:0:0:
153,110,186119,6,0,P|138:176|136:244,1,135,6|2,3:2|3:2,0:0:0:0:
209,357,187125,2,0,P|221:337|230:317,1,45,2|2,3:2|3:2,0:0:0:0:
273,292,187460,2,0,L|369:284,1,89.9999999999999,10|0,2:0|3:0,0:0:0:0:
394,316,187963,2,0,P|419:321|496:248,1,135,2|2,3:2|3:2,0:0:0:0:
508,167,188801,6,0,L|417:155,1,89.9999999999999,2|2,3:2|3:2,0:0:0:0:
374,147,189304,1,2,3:2:0:0:
306,206,189639,1,2,3:2:0:0:
357,279,189974,1,2,3:2:0:0:
303,351,190309,1,2,3:2:0:0:
303,351,190477,2,0,L|202:341,1,89.9999999999999,2|2,3:2|3:2,0:0:0:0:
148,280,191147,2,0,L|143:228,1,45,2|2,3:2|3:2,0:0:0:0:
114,200,191483,6,0,L|125:111,1,89.9999999999999,6|8,3:2|2:0,0:0:0:0:
111,68,191985,2,0,P|135:75|200:60,1,89.9999999999999,0|0,3:0|3:0,0:0:0:0:
232,33,192488,1,8,2:0:0:0:
298,93,192823,2,0,B|330:95|350:101|350:101|377:87|377:87|404:96|429:95,2,135,2|2|10,3:2|3:2|2:2,0:0:0:0:
231,154,194164,6,0,L|242:251,1,89.9999999999999,2|8,3:2|2:0,0:0:0:0:
252,287,194667,2,0,P|290:299|350:283,1,89.9999999999999,2|2,3:2|3:2,0:0:0:0:
380,273,195170,1,10,2:0:0:0:
463,305,195505,2,0,L|472:203,1,89.9999999999999,2|10,3:2|2:2,0:0:0:0:
473,170,196008,1,2,3:2:0:0:
473,170,196175,1,2,0:2:0:0:
424,94,196510,1,8,2:0:0:0:
346,139,196846,6,0,L|244:130,1,89.9999999999999,6|8,3:2|2:0,0:0:0:0:
217,153,197348,2,0,P|219:120|194:63,1,89.9999999999999,0|0,3:0|0:0,0:0:0:0:
163,38,197851,1,8,2:0:0:0:
94,95,198186,2,0,L|86:190,1,89.9999999999999,2|8,3:2|0:2,0:0:0:0:
61,222,198689,1,2,3:2:0:0:
61,222,198857,2,0,L|69:317,1,89.9999999999999,2|8,0:2|2:0,0:0:0:0:
148,353,199527,6,0,P|193:351|243:336,1,89.9999999999999,2|8,3:2|2:0,0:0:0:0:
269,308,200030,2,0,L|278:210,1,89.9999999999999,0|0,3:0|3:0,0:0:0:0:
246,184,200533,1,10,2:0:0:0:
246,184,200700,2,0,L|238:132,1,45,2|0,0:2|3:0,0:0:0:0:
181,69,201203,1,8,0:2:0:0:
181,69,201371,2,0,P|207:30|255:8,1,89.9999999999999,2|0,3:2|3:0,0:0:0:0:
287,24,201874,1,10,2:2:0:0:
364,71,202209,6,0,L|379:172,1,89.9999999999999,6|10,3:2|2:0,0:0:0:0:
413,186,202712,2,0,L|398:287,1,89.9999999999999,2|2,3:2|3:2,0:0:0:0:
385,317,203214,1,10,2:0:0:0:
311,369,203550,1,2,3:2:0:0:
311,369,203717,2,0,L|221:361,1,89.9999999999999,2|2,3:2|3:2,0:0:0:0:
158,296,204388,1,2,3:2:0:0:
158,296,204555,1,10,2:0:0:0:
199,216,204890,6,0,L|292:210,1,89.9999999999999,2|10,3:2|2:2,0:0:0:0:
332,223,205393,2,0,L|338:130,1,89.9999999999999,2|2,3:2|3:2,0:0:0:0:
341,88,205896,1,10,2:0:0:0:
279,22,206231,1,2,3:2:0:0:
279,22,206399,2,0,L|186:11,1,89.9999999999999,2|2,3:2|3:2,0:0:0:0:
112,57,207069,1,2,3:2:0:0:
112,57,207237,2,0,L|120:109,1,45,10|2,2:0|3:2,0:0:0:0:
150,133,207572,6,0,L|141:232,1,89.9999999999999,14|8,2:2|2:0,0:0:0:0:
92,297,208242,1,10,2:2:0:0:
158,357,208578,2,0,L|218:349,1,45,10|2,2:2|3:2,0:0:0:0:
241,327,208913,2,0,P|234:306|242:242,2,67.4999999999999,10|2|2,2:0|0:2|3:2,0:0:0:0:
250,371,209583,2,0,L|327:381,2,67.4999999999999,10|2|2,2:0|0:2|3:2,0:0:0:0:
202,351,210254,5,10,2:0:0:0:
118,244,210756,1,8,2:0:0:0:
206,141,211259,2,0,L|260:148,1,45,10|2,2:0|3:2,0:0:0:0:
289,124,211594,2,0,L|343:117,1,45,2|10,3:2|2:0,0:0:0:0:
370,144,211929,2,0,L|464:161,1,89.9999999999999,2|10,3:2|2:0,0:0:0:0:
508,235,212600,1,10,2:0:0:0:
469,316,212935,5,6,3:2:0:0:
204,72,214276,2,0,P|160:66|115:67,1,89.9999999999999,2|2,0:2|0:2,0:0:0:0:
41,119,214946,2,0,L|34:214,1,89.9999999999999,2|2,0:2|0:2,0:0:0:0:
30,298,215617,5,2,0:2:0:0:
354,284,226343,6,0,P|369:218|355:153,1,135,0|2,3:2|0:2,0:0:0:0:
287,93,227181,2,0,L|230:86,1,45,2|0,0:2|0:0,0:0:0:0:
152,75,227684,1,0,3:0:0:0:
82,190,228186,1,0,0:0:0:0:
82,190,228354,2,0,L|94:286,1,89.9999999999999,0|2,1:2|0:2,0:0:0:0:
67,365,229024,6,0,B|158:376|158:376|190:329,1,135,0|2,3:0|0:2,0:0:0:0:
241,271,229862,2,0,L|236:222,1,45,2|0,0:2|0:0,0:0:0:0:
222,137,230365,1,0,3:0:0:0:
317,42,230868,1,0,0:0:0:0:
317,42,231036,2,0,P|360:34|414:34,1,89.9999999999999,0|2,1:2|0:2,0:0:0:0:
464,102,231706,6,0,B|455:153|455:153|433:175|433:175|425:227,1,135,0|2,3:0|0:2,0:0:0:0:
465,307,232544,2,0,L|418:321,1,45,2|0,0:2|0:0,0:0:0:0:
334,342,233047,1,0,3:0:0:0:
269,279,233382,2,0,L|259:178,1,89.9999999999999,2|0,0:2|1:2,0:0:0:0:
304,111,234052,1,2,0:2:0:0:
240,46,234388,6,0,B|207:34|173:47|173:47|136:59|108:45,2,135,2|2|2,0:2|0:2|0:2,0:0:0:0:
131,190,236064,2,0,L|141:293,1,89.9999999999999,2|2,0:2|0:2,0:0:0:0:
214,328,236734,1,2,0:2:0:0:
291,281,237069,6,0,L|382:273,1,89.9999999999999,6|10,3:2|2:0,0:0:0:0:
426,281,237572,2,0,L|434:190,1,89.9999999999999,2|2,3:2|3:2,0:0:0:0:
438,146,238075,1,8,2:0:0:0:
381,75,238410,2,0,P|337:65|287:65,1,89.9999999999999,0|10,3:0|2:0,0:0:0:0:
249,79,238913,1,0,3:0:0:0:
249,79,239080,1,2,0:0:0:0:
198,153,239416,1,10,2:0:0:0:
256,221,239751,6,0,L|266:310,1,89.9999999999999,2|10,3:2|2:0,0:0:0:0:
274,354,240254,2,0,P|230:347|173:351,1,89.9999999999999,2|2,3:2|3:2,0:0:0:0:
143,367,240756,1,8,2:0:0:0:
71,312,241092,2,0,L|62:217,1,89.9999999999999,0|8,3:0|2:0,0:0:0:0:
101,141,241762,1,2,3:2:0:0:
47,68,242097,1,10,2:0:0:0:
114,8,242432,6,0,P|158:0|204:1,1,89.9999999999999,6|10,3:2|2:0,0:0:0:0:
234,33,242935,2,0,P|278:40|324:40,1,89.9999999999999,2|0,3:2|3:0,0:0:0:0:
361,15,243438,2,0,L|408:22,1,45,8|2,2:0|3:2,0:0:0:0:
449,29,243773,1,2,3:2:0:0:
498,104,244108,1,10,2:0:0:0:
498,104,244276,2,0,L|492:205,1,89.9999999999999,2|2,3:2|3:2,0:0:0:0:
488,238,244779,1,8,2:0:0:0:
410,282,245114,6,0,L|316:274,1,89.9999999999999,2|10,3:2|2:0,0:0:0:0:
282,250,245617,2,0,P|263:210|255:163,1,89.9999999999999,2|2,3:2|3:2,0:0:0:0:
275,125,246119,1,10,2:0:0:0:
209,62,246455,2,0,L|160:57,1,45,0|0,3:0|3:0,0:0:0:0:
131,26,246790,2,0,L|82:31,1,45,10|0,2:0|3:0,0:0:0:0:
41,38,247125,1,2,0:0:0:0:
3,119,247460,1,10,2:0:0:0:
72,176,247795,6,0,P|85:219|87:266,1,89.9999999999999,6|10,3:2|2:0,0:0:0:0:
77,307,248298,2,0,L|180:318,1,89.9999999999999,2|2,3:2|3:2,0:0:0:0:
211,322,248801,1,8,2:0:0:0:
276,260,249136,2,0,P|284:210|270:166,1,89.9999999999999,0|10,3:0|2:0,0:0:0:0:
248,135,249639,1,0,3:0:0:0:
248,135,249807,1,2,0:0:0:0:
298,60,250142,1,10,2:0:0:0:
230,0,250477,6,0,L|129:8,1,89.9999999999999,2|10,3:2|2:0,0:0:0:0:
110,40,250980,2,0,P|100:82|100:134,1,89.9999999999999,2|2,3:2|3:2,0:0:0:0:
105,173,251483,1,8,2:0:0:0:
169,235,251818,2,0,L|263:224,1,89.9999999999999,0|8,3:0|2:0,0:0:0:0:
314,153,252488,1,2,3:2:0:0:
399,180,252823,1,10,2:0:0:0:
359,261,253159,6,0,P|352:287|349:355,1,89.9999999999999,6|10,3:2|2:0,0:0:0:0:
312,375,253661,2,0,L|219:367,1,89.9999999999999,2|2,3:2|3:2,0:0:0:0:
177,362,254164,1,8,2:0:0:0:
177,362,254332,1,2,3:2:0:0:
105,247,254835,1,10,2:0:0:0:
158,174,255170,1,2,3:2:0:0:
115,94,255505,1,10,2:0:0:0:
170,23,255840,6,0,P|213:17|263:15,1,89.9999999999999,2|10,3:2|2:0,0:0:0:0:
300,34,256343,2,0,L|312:137,1,89.9999999999999,2|2,3:2|3:2,0:0:0:0:
321,167,256846,1,10,2:0:0:0:
253,226,257181,2,0,L|241:329,1,89.9999999999999,0|8,3:0|2:0,0:0:0:0:
235,359,257684,1,0,3:0:0:0:
321,383,258019,2,0,L|370:375,1,45,8|10,2:0|2:0,0:0:0:0:
410,369,258354,1,0,3:0:0:0:
410,369,258522,6,0,P|410:324|426:277,1,89.9999999999999,6|10,3:2|2:0,0:0:0:0:
384,259,259024,2,0,P|384:214|368:167,1,89.9999999999999,2|2,3:2|3:2,0:0:0:0:
294,122,259695,2,0,L|198:114,1,89.9999999999999,2|2,3:2|3:2,0:0:0:0:
164,135,260198,1,10,2:0:0:0:
164,135,260365,2,0,L|156:39,1,89.9999999999999,2|2,3:2|3:2,0:0:0:0:
152,0,260867,1,10,2:0:0:0:
61,1,261203,6,0,P|37:8|-3:59,1,89.9999999999999,8|2,2:0|3:2,0:0:0:0:
5,101,261706,2,0,P|12:146|15:200,1,89.9999999999999,10|0,2:0|3:0,0:0:0:0:
38,228,262209,2,0,L|88:233,1,45,8|0,2:0|3:0,0:0:0:0:
127,237,262544,1,8,2:0:0:0:
210,343,263047,1,2,0:0:0:0:
210,343,263214,2,0,L|305:333,1,89.9999999999999,2|2,0:0|0:0,0:0:0:0:
363,269,263885,6,0,P|369:242|352:179,1,89.9999999999999,14|2,2:0|3:2,0:0:0:0:
316,157,264388,2,0,P|299:135|287:70,1,89.9999999999999,10|0,2:0|3:0,0:0:0:0:
301,32,264890,1,10,2:0:0:0:
386,2,265226,2,0,P|427:8|472:25,1,89.9999999999999,8|2,2:0|3:2,0:0:0:0:
504,56,265728,1,8,2:0:0:0:
504,56,265896,1,2,3:2:0:0:
459,134,266231,1,10,2:0:0:0:
508,208,266566,6,0,L|498:305,1,89.9999999999999,10|0,2:0|3:0,0:0:0:0:
470,332,267069,2,0,P|427:344|380:334,1,89.9999999999999,10|0,2:0|3:0,0:0:0:0:
344,312,267572,1,10,2:0:0:0:
285,243,267907,2,0,L|298:147,1,89.9999999999999,10|2,2:0|3:2,0:0:0:0:
280,112,268410,1,8,2:0:0:0:
280,112,268578,2,0,L|184:99,1,89.9999999999999,2|10,3:2|2:0,0:0:0:0:
102,82,269248,6,0,P|90:105|85:171,1,89.9999999999999,6|0,3:2|3:0,0:0:0:0:
9,217,269918,2,0,P|27:235|88:260,1,89.9999999999999,0|0,3:0|3:0,0:0:0:0:
108,347,270589,2,0,P|131:335|174:284,1,89.9999999999999,2|2,3:2|3:2,0:0:0:0:
172,197,271259,1,2,3:2:0:0:
84,167,271594,1,2,3:2:0:0:
102,82,271929,6,0,L|194:73,1,89.9999999999999,10|8,2:0|2:0,0:0:0:0:
231,51,272432,1,8,2:0:0:0:
231,51,272600,2,0,L|234:0,2,45,8|8|8,2:0|2:0|2:0,0:0:0:0:
295,113,273270,2,0,L|298:164,2,45,10|8|0,2:0|2:0|3:0,0:0:0:0:
334,91,273773,1,0,3:0:0:0:
334,91,273941,2,0,L|433:102,1,89.9999999999999,0|0,3:0|3:0,0:0:0:0:
496,152,274611,5,6,3:2:0:0:
256,192,274946,12,0,279974,0:0:0:0:
