osu file format v14

[General]
AudioFilename: audio.mp3
AudioLeadIn: 0
PreviewTime: 64360
Countdown: 0
SampleSet: Soft
StackLeniency: 0.7
Mode: 0
LetterboxInBreaks: 0
WidescreenStoryboard: 1

[Editor]
DistanceSpacing: 1.1
BeatDivisor: 4
GridSize: 32
TimelineZoom: 1

[Metadata]
Title:Rinne
TitleUnicode:輪廻
Artist:Yamamoto Mineko
ArtistUnicode:山本美禰子
Creator:Shirahane Suou
Version:Hard
Source:さくら、もゆ。-as the Night's, Reincarnation-
Tags:sakura, moyu japanese visual novel eroge op opening favorite seto kousuke
BeatmapID:2096996
BeatmapSetID:1001755

[Difficulty]
HPDrainRate:4
CircleSize:4
OverallDifficulty:6
ApproachRate:7.5
SliderMultiplier:1.7
SliderTickRate:1

[Events]
//Background and Video events
0,0,"c7e712ff-091c-4743-c70c-7bfc57528ad1.jpg",0,0
//Break Periods
2,215817,225518
//Storyboard Layer 0 (Background)
//Storyboard Layer 1 (Fail)
//Storyboard Layer 2 (Pass)
//Storyboard Layer 3 (Foreground)
//Storyboard Layer 4 (Overlay)
//Storyboard Sound Samples

[TimingPoints]
1092,335.195530726257,4,2,1,50,1,0
1092,-133.333333333333,4,2,1,50,0,0
11818,-111.111111111111,4,2,1,50,0,0
17181,-111.111111111111,4,2,1,70,0,0
25226,-111.111111111111,4,2,2,50,0,0
43997,-111.111111111111,4,2,1,50,0,0
46678,-111.111111111111,4,2,1,60,0,0
65449,-100,4,2,1,70,0,1
92265,-111.111111111111,4,2,1,70,0,0
102991,-111.111111111111,4,2,1,60,0,0
143214,-100,4,2,1,70,0,1
170030,-111.111111111111,4,2,1,60,0,0
191483,-111.111111111111,4,2,1,70,0,0
215617,-111.111111111111,4,2,2,50,0,0
226343,-133.333333333333,4,2,2,50,0,0
234388,-200,4,2,1,50,0,0
236064,-133.333333333333,4,2,1,50,0,0
236399,-133.333333333333,4,2,1,60,0,0
236734,-133.333333333333,4,2,1,70,0,0
237069,-100,4,2,1,70,0,1
263885,-111.111111111111,4,2,1,70,0,0
279974,-111.111111111111,4,2,1,5,0,0

[Colours]
Combo1 : 246,231,148
Combo2 : 235,191,217
Combo3 : 254,158,106
Combo4 : 214,81,73

[HitObjects]
441,98,1092,6,0,P|398:86|333:142,1,127.500004863739,2|2,0:0|0:0,0:0:0:0:
255,112,1594,2,0,L|267:248,2,127.500004863739,2|2|2,0:0|0:0|0:0,0:0:0:0:
194,55,2432,2,0,P|162:49|123:52,2,63.7500024318696,2|2|2,0:0|0:0|0:0,0:0:0:0:
269,16,2935,1,2,0:0:0:0:
129,221,3438,1,2,0:0:0:0:
243,340,3773,6,0,P|300:330|380:323,1,127.500004863739,2|2,0:0|0:0,0:0:0:0:
439,368,4276,2,0,P|479:370|513:291,2,127.500004863739,2|2|2,0:0|0:0|0:0,0:0:0:0:
369,323,5114,2,0,P|372:263|380:186,1,127.500004863739,2|2,0:0|0:0,0:0:0:0:
492,75,5784,2,0,P|498:138|501:202,1,127.500004863739,2|2,0:0|0:0,0:0:0:0:
382,86,6455,6,0,P|329:47|250:42,1,127.500004863739,2|2,0:0|0:0,0:0:0:0:
194,75,6957,2,0,B|180:205|180:205|234:252,1,191.250007295609,2|2,0:0|0:0,0:0:0:0:
379,307,7795,2,0,P|342:291|266:346,1,127.500004863739,2|2,0:0|0:0,0:0:0:0:
205,381,8298,2,0,P|142:377|67:366,1,127.500004863739,2|2,0:0|0:0,0:0:0:0:
11,319,8801,1,2,0:0:0:0:
120,194,9136,6,0,P|126:157|69:96,1,127.500004863739,2|2,0:0|0:0,0:0:0:0:
26,24,9639,2,0,L|154:15,2,127.500004863739,2|2|2,0:0|0:0|0:0,0:0:0:0:
105,169,10645,2,0,L|233:178,1,127.500004863739,2|2,0:0|0:0,0:0:0:0:
305,58,11315,1,2,0:0:0:0:
305,58,11483,1,2,0:0:0:0:
272,49,11818,6,0,P|234:78|236:183,1,152.999995330811,6|2,0:0|0:0,0:0:0:0:
288,239,12321,2,0,P|364:247|439:260,1,152.999995330811,2|2,0:0|0:0,0:0:0:0:
505,208,12823,2,0,L|509:131,1,76.4999976654053,2|2,0:0|0:0,0:0:0:0:
445,75,13159,2,0,L|441:-2,2,76.4999976654053,2|0|2,0:0|0:0|0:0,0:0:0:0:
394,142,13661,1,2,0:0:0:0:
182,3,14164,1,2,0:0:0:0:
48,105,14499,6,0,P|35:183|29:256,1,152.999995330811,2|2,0:0|0:0,0:0:0:0:
81,321,15002,2,0,P|137:273|211:279,2,152.999995330811,2|2|2,0:0|0:0|0:0,0:0:0:0:
142,378,15840,2,0,P|212:366|303:359,1,152.999995330811,2|2,0:0|0:0,0:0:0:0:
382,370,16343,1,2,0:0:0:0:
382,370,16510,1,2,0:0:0:0:
406,346,16846,6,0,L|411:300,3,38.2499988327027,2|2|0|0,0:0|0:0|3:0|3:0,0:0:0:0:
415,265,17181,6,0,B|418:221|418:221|376:185|310:186,1,152.999995330811,14|0,2:0|3:0,0:0:0:0:
250,237,17684,2,0,P|209:250|133:177,1,152.999995330811,8|0,2:0|3:0,0:0:0:0:
163,106,18186,1,10,2:0:0:0:
163,106,18354,1,0,3:0:0:0:
122,31,18522,6,0,B|155:61|155:61|260:33,1,152.999995330811,10|2,2:0|3:2,0:0:0:0:
329,79,19024,1,8,2:0:0:0:
329,79,19192,2,0,P|366:82|413:92,1,76.4999976654053,2|0,3:2|3:0,0:0:0:0:
488,77,19527,2,0,P|480:114|477:152,1,76.4999976654053,10|0,2:0|3:0,0:0:0:0:
494,235,19862,6,0,P|416:232|326:237,1,152.999995330811,8|0,2:0|3:0,0:0:0:0:
272,284,20365,1,10,2:0:0:0:
272,284,20533,2,0,P|237:301|165:226,1,152.999995330811,2|8,3:2|2:0,0:0:0:0:
202,158,21036,1,0,3:0:0:0:
202,158,21203,1,0,3:0:0:0:
152,89,21371,6,0,B|95:77|42:82|42:82|24:125,1,152.999995330811,8|0,2:0|3:0,0:0:0:0:
73,190,21874,2,0,P|74:228|85:289,1,76.4999976654053,10|0,2:0|3:0,0:0:0:0:
41,341,22209,2,0,P|78:346|117:348,1,76.4999976654053,10|0,2:0|3:0,0:0:0:0:
191,308,22544,5,6,3:2:0:0:
183,277,23885,1,2,0:0:0:0:
191,308,24388,2,0,B|226:325|262:307|262:307|298:288|337:304,1,152.999995330811,0|0,3:0|3:0,0:0:0:0:
419,347,24890,1,2,3:2:0:0:
419,347,25226,6,0,P|452:321|444:209,1,152.999995330811,6|2,3:2|0:2,0:0:0:0:
388,163,25728,2,0,P|352:159|308:159,1,76.4999976654053,2|0,0:0|0:2,0:0:0:0:
243,208,26064,1,2,0:0:0:0:
182,150,26231,2,0,P|178:114|178:70,1,76.4999976654053,2|0,0:2|0:0,0:0:0:0:
245,23,26566,6,0,B|176:49|176:49|94:1,1,152.999995330811,2|0,0:2|0:2,0:0:0:0:
25,28,27069,2,0,P|29:66|29:104,1,76.4999976654053,2|0,0:0|0:2,0:0:0:0:
47,273,27572,1,2,0:2:0:0:
47,273,27740,1,2,3:2:0:0:
124,240,27907,6,0,P|197:242|283:249,1,152.999995330811,2|2,3:2|0:2,0:0:0:0:
353,282,28410,2,0,P|360:244|361:199,1,76.4999976654053,2|0,0:0|0:2,0:0:0:0:
298,150,28745,2,0,P|291:112|290:67,1,76.4999976654053,2|0,0:0|0:2,0:0:0:0:
334,2,29080,1,2,0:0:0:0:
398,56,29248,6,0,B|444:63|475:47|475:47|484:88|518:115,1,152.999995330811,2|0,0:2|0:2,0:0:0:0:
512,197,29751,1,0,3:0:0:0:
512,197,29918,1,2,1:2:0:0:
343,195,30254,1,0,1:2:0:0:
343,195,30421,1,0,3:0:0:0:
315,277,30589,6,0,P|273:302|195:245,1,152.999995330811,6|2,3:2|0:2,0:0:0:0:
237,176,31092,1,2,0:0:0:0:
172,122,31259,2,0,P|166:84|164:46,1,76.4999976654053,0|2,0:2|0:0,0:0:0:0:
236,2,31594,2,0,P|274:4|311:9,1,76.4999976654053,2|0,0:2|0:0,0:0:0:0:
392,33,31929,6,0,P|348:25|294:106,1,152.999995330811,2|0,0:2|0:2,0:0:0:0:
358,159,32432,2,0,P|369:232|375:314,1,152.999995330811,2|0,0:0|3:0,0:0:0:0:
328,381,32935,1,2,0:2:0:0:
328,381,33103,1,2,3:2:0:0:
266,323,33270,6,0,B|201:291|201:291|117:310,1,152.999995330811,2|2,3:2|0:2,0:0:0:0:
50,352,33773,2,0,P|39:311|51:267,1,76.4999976654053,2|0,0:0|0:2,0:0:0:0:
13,200,34108,2,0,P|47:177|93:175,1,76.4999976654053,2|0,0:0|0:2,0:0:0:0:
162,198,34443,1,2,0:0:0:0:
220,137,34611,6,0,B|227:29|227:29|180:6,1,152.999995330811,2|2,0:2|1:2,0:0:0:0:
108,40,35114,1,2,3:2:0:0:
108,40,35281,2,0,L|27:52,1,76.4999976654053,2|2,0:2|3:2,0:0:0:0:
144,125,35617,2,0,L|219:136,1,76.4999976654053,2|2,1:2|0:0,0:0:0:0:
354,58,35952,6,0,B|314:76|314:76|312:190,1,152.999995330811,6|2,3:2|0:2,0:0:0:0:
363,251,36455,2,0,P|403:258|443:260,1,76.4999976654053,2|0,0:0|0:2,0:0:0:0:
504,206,36790,1,2,0:0:0:0:
442,149,36957,2,0,P|444:110|451:73,1,76.4999976654053,2|0,0:2|0:0,0:0:0:0:
354,58,37293,6,0,P|314:31|195:53,1,152.999995330811,2|0,3:2|0:2,0:0:0:0:
130,31,37795,1,2,0:0:0:0:
130,31,37963,1,0,0:2:0:0:
136,199,38298,1,2,0:2:0:0:
136,199,38466,1,2,0:0:0:0:
194,259,38633,6,0,P|272:261|352:268,1,152.999995330811,2|2,3:2|0:0,0:0:0:0:
414,317,39136,2,0,P|428:280|423:234,1,76.4999976654053,2|0,0:0|0:2,0:0:0:0:
493,193,39471,2,0,P|462:168|416:158,1,76.4999976654053,2|0,0:0|0:2,0:0:0:0:
347,187,39807,1,2,3:2:0:0:
282,132,39974,6,0,B|261:77|289:14|289:14|306:35|305:59,1,152.999995330811,2|2,3:2|0:2,0:0:0:0:
383,15,40477,1,0,3:0:0:0:
383,15,40645,2,0,L|375:97,1,76.4999976654053,2|0,1:2|0:0,0:0:0:0:
427,158,40980,2,0,L|435:240,1,76.4999976654053,2|0,3:2|0:0,0:0:0:0:
389,309,41315,6,0,P|308:311|228:321,1,152.999995330811,6|2,3:2|0:2,0:0:0:0:
97,228,41985,2,0,L|85:149,2,76.4999976654053,2|2|2,0:2|0:0|0:2,0:0:0:0:
181,257,42488,1,0,0:0:0:0:
181,257,42656,6,0,L|206:86,1,152.999995330811,2|2,3:2|0:2,0:0:0:0:
144,45,43159,2,0,P|215:64|273:18,1,152.999995330811,2|2,0:0|0:0,0:0:0:0:
352,47,43661,2,0,P|391:41|429:38,1,76.4999976654053,2|0,0:2|0:0,0:0:0:0:
489,96,43997,6,0,L|478:255,1,152.999995330811,2|2,3:2|3:2,0:0:0:0:
344,349,44667,2,0,L|333:196,1,152.999995330811,2|2,3:2|3:2,0:0:0:0:
286,126,45170,6,0,P|252:104|139:120,1,152.999995330811,10|2,2:0|0:0,0:0:0:0:
124,197,45673,2,0,L|114:286,1,76.4999976654053,2|2,3:2|3:2,0:0:0:0:
0,157,46008,2,0,L|8:233,1,76.4999976654053,2|2,3:2|3:2,0:0:0:0:
68,116,46343,1,2,3:2:0:0:
68,116,46678,6,0,P|102:92|217:98,1,152.999995330811,6|0,3:2|3:0,0:0:0:0:
360,20,47348,2,0,P|326:44|296:156,1,152.999995330811,0|2,3:0|3:2,0:0:0:0:
348,212,47851,1,2,0:0:0:0:
290,273,48019,6,0,P|218:264|132:259,1,152.999995330811,2|0,3:2|3:0,0:0:0:0:
75,315,48522,2,0,B|44:285|44:285|61:157,1,152.999995330811,2|0,0:0|0:0,0:0:0:0:
117,116,49024,2,0,L|197:101,1,76.4999976654053,2|2,3:2|0:0,0:0:0:0:
250,163,49360,6,0,L|407:192,1,152.999995330811,2|0,3:2|3:2,0:0:0:0:
459,250,49862,2,0,P|480:216|483:170,1,76.4999976654053,2|0,0:0|3:0,0:0:0:0:
511,99,50198,2,0,P|471:97|430:117,1,76.4999976654053,2|0,0:0|3:0,0:0:0:0:
370,61,50533,1,2,0:0:0:0:
330,134,50700,6,0,L|311:292,1,152.999995330811,2|0,3:2|3:0,0:0:0:0:
265,356,51203,1,2,0:0:0:0:
265,356,51371,2,0,P|220:322|109:345,1,152.999995330811,0|2,3:0|3:2,0:0:0:0:
49,361,51874,1,0,0:0:0:0:
49,361,52041,6,0,L|30:209,1,152.999995330811,2|0,3:2|3:0,0:0:0:0:
84,144,52544,1,2,0:0:0:0:
84,144,52712,1,0,3:0:0:0:
0,0,53047,1,0,3:0:0:0:
0,0,53214,1,2,0:0:0:0:
63,55,53382,6,0,B|176:42|176:42|204:87,1,152.999995330811,2|2,3:2|3:2,0:0:0:0:
280,221,54052,2,0,P|277:146|328:92,1,152.999995330811,2|2,3:2|3:2,0:0:0:0:
472,5,54723,6,0,L|457:169,1,152.999995330811,2|0,3:2|3:0,0:0:0:0:
377,183,55226,2,0,L|389:271,1,76.4999976654053,2|0,0:0|3:0,0:0:0:0:
448,317,55561,1,2,0:0:0:0:
383,370,55728,2,0,L|306:363,1,76.4999976654053,2|2,3:2|0:0,0:0:0:0:
222,372,56064,6,0,P|259:360|275:257,1,152.999995330811,2|0,3:2|3:0,0:0:0:0:
220,198,56566,1,2,0:0:0:0:
220,198,56734,1,0,3:0:0:0:
104,320,57069,1,10,2:0:0:0:
104,320,57237,1,0,0:0:0:0:
46,258,57404,6,0,P|37:187|34:102,1,152.999995330811,6|10,3:2|2:0,0:0:0:0:
85,38,57907,2,0,P|124:74|220:62,1,152.999995330811,2|0,3:2|3:0,0:0:0:0:
273,1,58410,1,10,2:0:0:0:
273,1,58578,1,2,0:0:0:0:
342,47,58745,6,0,L|352:202,1,152.999995330811,2|2,3:2|3:2,0:0:0:0:
303,268,59248,2,0,P|298:317|388:362,1,152.999995330811,2|0,3:2|3:0,0:0:0:0:
448,319,59751,2,0,L|462:238,1,76.4999976654053,10|2,2:0|0:0,0:0:0:0:
505,171,60086,6,0,B|459:149|459:149|451:40,1,152.999995330811,2|10,3:2|2:0,0:0:0:0:
378,5,60589,2,0,L|302:18,1,76.4999976654053,2|0,3:2|0:0,0:0:0:0:
234,67,60924,2,0,L|196:60,2,38.2499988327027,0|0|8,3:0|3:0|2:0,0:0:0:0:
303,115,61259,1,2,0:0:0:0:
235,166,61427,6,0,P|206:213|239:305,1,152.999995330811,10|2,2:0|3:2,0:0:0:0:
283,368,61929,2,0,B|259:326|259:326|144:350,1,152.999995330811,2|2,3:2|3:2,0:0:0:0:
95,289,62432,1,8,2:0:0:0:
95,289,62600,1,2,3:2:0:0:
155,230,62767,6,0,P|171:195|103:107,1,152.999995330811,14|0,2:0|3:0,0:0:0:0:
93,27,63270,2,0,P|115:58|225:43,1,152.999995330811,10|0,2:0|3:0,0:0:0:0:
288,3,63773,1,10,2:0:0:0:
344,65,63941,6,0,P|336:141|330:217,1,152.999995330811,2|10,3:2|2:0,0:0:0:0:
360,296,64443,2,0,L|272:308,1,76.4999976654053,10|0,2:0|0:0,0:0:0:0:
227,243,64779,2,0,L|151:232,1,76.4999976654053,10|0,2:0|3:0,0:0:0:0:
38,339,65114,2,0,L|113:328,1,76.4999976654053,10|0,2:0|0:0,0:0:0:0:
79,172,65449,6,0,P|62:212|67:262,1,85,6|0,3:2|0:0,0:0:0:0:
151,232,65784,1,10,2:0:0:0:
160,147,65952,2,0,B|146:103|104:87|104:87|146:67|159:11,1,170,2|2,3:2|3:2,0:0:0:0:
239,5,66455,2,0,L|322:11,1,85,8|2,2:0|0:0,0:0:0:0:
385,70,66790,6,0,L|391:153,1,85,0|0,3:0|3:0,0:0:0:0:
341,223,67125,1,10,2:0:0:0:
281,161,67293,2,0,L|197:154,1,85,0|2,3:0|0:0,0:0:0:0:
131,209,67628,1,0,3:0:0:0:
187,271,67795,2,0,L|178:368,1,85,10|0,2:0|0:0,0:0:0:0:
57,261,68131,6,0,L|49:176,1,85,2|0,3:2|0:0,0:0:0:0:
115,122,68466,1,10,2:0:0:0:
196,154,68633,2,0,B|238:136|278:150|278:150|319:166|364:147,1,170,2|2,3:2|3:2,0:0:0:0:
434,192,69136,2,0,P|445:151|433:107,1,85,8|2,2:0|0:0,0:0:0:0:
465,23,69471,6,0,P|424:33|383:24,1,85,0|0,3:0|3:0,0:0:0:0:
313,73,69807,1,8,2:0:0:0:
249,17,69974,1,0,3:0:0:0:
188,76,70142,2,0,L|181:167,1,85,2|0,0:0|3:0,0:0:0:0:
268,248,70477,2,0,L|261:163,1,85,10|0,2:0|0:0,0:0:0:0:
99,134,70812,6,0,L|113:327,1,170,6|10,3:2|2:0,0:0:0:0:
172,363,71315,2,0,B|239:369|239:369|265:352|265:352|342:358,1,170,2|0,3:2|3:0,0:0:0:0:
398,299,71818,1,8,2:0:0:0:
461,354,71985,1,2,3:2:0:0:
509,284,72153,6,0,P|504:203|495:113,1,170,2|10,3:2|2:0,0:0:0:0:
439,50,72656,2,0,P|377:104|297:86,1,170,2|2,3:2|3:2,0:0:0:0:
237,25,73159,1,8,2:0:0:0:
175,83,73326,1,2,3:2:0:0:
105,33,73494,6,0,P|60:20|0:116,1,170,2|10,3:2|2:0,0:0:0:0:
55,168,73997,2,0,B|97:150|137:164|137:164|178:180|223:161,1,170,2|2,3:2|3:2,0:0:0:0:
286,108,74499,1,10,2:0:0:0:
363,142,74667,1,8,2:0:0:0:
339,224,74835,6,0,L|346:273,3,42.5,0|0|0|0,3:0|3:0|3:0|3:0,0:0:0:0:
356,307,75170,2,0,L|270:302,1,85,10|0,2:0|3:0,0:0:0:0:
203,353,75505,1,2,0:0:0:0:
136,300,75673,1,0,3:0:0:0:
136,300,75756,1,0,3:0:0:0:
136,300,75840,2,0,L|127:216,1,85,10|0,2:0|0:0,0:0:0:0:
200,75,76175,6,0,L|191:159,1,85,6|0,3:2|0:0,0:0:0:0:
249,221,76510,1,10,2:0:0:0:
314,167,76678,2,0,B|359:155|413:173|413:173|414:213|439:235,1,170,2|2,3:2|3:2,0:0:0:0:
504,180,77181,2,0,L|510:93,1,85,8|2,2:0|0:0,0:0:0:0:
446,38,77516,6,0,L|361:43,1,85,0|0,3:0|3:0,0:0:0:0:
286,84,77851,1,10,2:0:0:0:
232,17,78019,2,0,L|147:11,1,85,0|2,3:0|0:0,0:0:0:0:
73,54,78354,1,0,3:0:0:0:
128,118,78522,2,0,L|133:202,1,85,10|0,2:0|0:0,0:0:0:0:
87,358,78857,6,0,P|100:320|134:287,1,85,2|0,3:2|0:0,0:0:0:0:
214,268,79192,1,10,2:0:0:0:
276,326,79360,2,0,P|329:332|387:227,1,170,2|2,3:2|3:2,0:0:0:0:
443,180,79862,2,0,P|434:140|406:96,1,85,8|2,2:0|0:0,0:0:0:0:
427,14,80198,6,0,P|387:27|335:24,1,85,0|0,3:0|3:0,0:0:0:0:
284,87,80533,1,8,2:0:0:0:
337,152,80700,1,0,3:0:0:0:
295,226,80868,2,0,P|256:243|204:245,1,85,2|0,0:0|3:0,0:0:0:0:
177,100,81203,2,0,P|211:124|239:168,1,85,10|0,2:0|0:0,0:0:0:0:
178,329,81538,6,0,P|139:292|151:180,1,170,6|10,3:2|2:0,0:0:0:0:
235,159,82041,2,0,P|273:122|261:10,1,170,2|2,3:2|3:2,0:0:0:0:
179,4,82544,1,8,2:0:0:0:
208,79,82712,6,0,B|271:89|271:89|302:120|302:120|363:131,1,170,2|0,3:2|3:0,0:0:0:0:
434,84,83214,2,0,P|445:121|439:176,1,85,10|0,2:0|3:0,0:0:0:0:
511,218,83550,2,0,P|479:240|424:252,1,85,2|0,0:0|3:0,0:0:0:0:
407,332,83885,2,0,P|375:308|348:260,1,85,10|0,2:0|0:0,0:0:0:0:
363,131,84220,6,0,P|332:181|216:161,1,170,2|10,3:2|2:0,0:0:0:0:
153,214,84723,2,0,P|146:132|132:34,1,170,2|2,3:2|3:2,0:0:0:0:
57,6,85226,2,0,P|21:36|-5:73,1,85,10|0,2:0|0:0,0:0:0:0:
44,137,85561,6,0,P|49:179|53:221,1,85,0|0,3:0|3:0,0:0:0:0:
14,297,85896,1,8,2:0:0:0:
74,356,86064,2,0,P|116:361|158:365,1,85,0|0,3:0|3:0,0:0:0:0:
223,311,86399,1,8,2:0:0:0:
223,311,86483,1,8,2:0:0:0:
223,311,86566,2,0,L|230:260,3,42.5,10|8|0|0,2:0|2:0|3:0|3:0,0:0:0:0:
250,231,86902,6,0,L|240:137,1,85,6|0,3:2|0:0,0:0:0:0:
249,23,87236,2,0,L|333:14,1,85,10|2,2:0|3:2,0:0:0:0:
187,80,87572,2,0,L|102:88,1,85,8|2,2:0|3:2,0:0:0:0:
241,146,87907,2,0,L|325:154,1,85,8|2,2:0|3:2,0:0:0:0:
173,208,88242,6,0,L|89:200,1,85,8|2,2:0|3:2,0:0:0:0:
3,187,88578,1,10,2:0:0:0:
1,271,88745,2,0,P|0:314|15:354,1,85,2|8,3:2|2:0,0:0:0:0:
95,379,89080,1,2,3:2:0:0:
161,325,89248,1,10,2:0:0:0:
226,379,89416,1,2,3:2:0:0:
292,326,89583,6,0,B|284:265|284:265|300:233|300:233|288:153,1,170,8|2,2:0|3:2,0:0:0:0:
332,87,90086,2,0,P|302:122|182:85,1,170,10|0,2:0|3:0,0:0:0:0:
180,20,90589,1,8,2:0:0:0:
258,52,90756,1,0,3:0:0:0:
170,190,90924,6,0,B|59:148|59:148|132:120,1,170,8|0,2:0|0:0,0:0:0:0:
191,102,91427,1,2,0:0:0:0:
254,158,91594,2,0,P|251:201|240:258,1,85,2|0,0:0|0:0,0:0:0:0:
179,297,91929,1,2,0:0:0:0:
244,364,92097,1,2,3:2:0:0:
244,364,92181,1,0,3:0:0:0:
244,364,92265,6,0,B|280:345|317:360|317:360|352:376|395:357,1,152.999995330811,12|2,2:0|3:2,0:0:0:0:
445,293,92767,2,0,P|414:225|443:157,1,152.999995330811,10|0,2:0|3:0,0:0:0:0:
469,76,93270,1,10,2:0:0:0:
469,76,93438,1,0,3:0:0:0:
391,41,93605,6,0,P|311:36|223:26,1,152.999995330811,8|2,2:0|3:2,0:0:0:0:
155,12,94108,1,8,2:0:0:0:
155,12,94276,2,0,L|148:91,1,76.4999976654053,2|0,3:2|3:0,0:0:0:0:
79,136,94611,2,0,L|86:215,1,76.4999976654053,10|0,2:0|3:0,0:0:0:0:
18,263,94946,6,0,P|91:250|148:297,1,152.999995330811,10|0,2:0|3:0,0:0:0:0:
222,336,95449,2,0,B|234:280|234:280|222:245|222:245|236:176,1,152.999995330811,10|0,2:0|3:0,0:0:0:0:
187,117,95952,1,10,2:0:0:0:
187,117,96119,1,0,3:0:0:0:
238,50,96287,6,0,B|293:32|351:33|351:33|373:64,1,152.999995330811,10|2,2:0|3:2,0:0:0:0:
455,42,96790,1,8,2:0:0:0:
455,42,96957,2,0,L|447:124,1,76.4999976654053,2|0,3:2|3:0,0:0:0:0:
490,191,97293,2,0,L|498:273,1,76.4999976654053,10|0,2:0|0:0,0:0:0:0:
437,326,97628,6,0,B|401:307|364:322|364:322|329:338|286:319,1,152.999995330811,6|0,3:2|3:0,0:0:0:0:
125,360,98298,2,0,P|184:316|184:243,1,152.999995330811,0|0,3:0|3:0,0:0:0:0:
135,173,98801,1,2,0:2:0:0:
135,173,98885,1,2,0:2:0:0:
135,173,98969,6,0,L|126:94,1,76.4999976654053,2|2,3:2|0:2,0:0:0:0:
82,24,99304,1,2,3:2:0:0:
82,24,99471,2,0,L|161:15,1,76.4999976654053,2|2,0:2|3:2,0:0:0:0:
215,77,99807,2,0,L|294:86,1,76.4999976654053,2|2,0:2|3:2,0:0:0:0:
370,56,100142,1,2,0:2:0:0:
370,56,100309,6,0,P|340:89|374:193,1,152.999995330811,10|8,2:0|2:0,0:0:0:0:
443,215,100812,1,8,2:0:0:0:
406,290,100980,2,0,L|308:299,1,76.4999976654053,8|8,2:0|2:0,0:0:0:0:
258,251,101315,2,0,L|182:245,1,76.4999976654053,8|8,2:0|2:0,0:0:0:0:
83,362,101650,6,0,L|76:286,1,76.4999976654053,10|8,2:0|2:0,0:0:0:0:
13,228,101985,2,0,L|19:151,1,76.4999976654053,2|0,3:2|3:0,0:0:0:0:
6,110,102237,1,0,3:0:0:0:
6,110,102321,2,0,P|50:121|120:41,1,152.999995330811,2|2,3:2|3:2,0:0:0:0:
241,168,102991,6,0,P|285:157|355:237,1,152.999995330811,6|2,3:2|3:2,0:0:0:0:
436,247,103494,2,0,P|437:208|445:171,1,76.4999976654053,2|0,0:0|3:0,0:0:0:0:
503,110,103829,1,2,0:0:0:0:
454,41,103997,2,0,P|416:35|378:33,1,76.4999976654053,2|0,3:2|0:0,0:0:0:0:
300,65,104332,6,0,P|224:74|147:78,1,152.999995330811,2|0,3:2|3:0,0:0:0:0:
88,18,104835,2,0,P|105:66|54:149,1,152.999995330811,2|0,0:0|0:0,0:0:0:0:
20,223,105337,1,2,3:2:0:0:
20,223,105505,1,2,0:0:0:0:
102,240,105673,6,0,B|162:229|162:229|196:246|196:246|272:230,1,152.999995330811,0|2,3:0|3:2,0:0:0:0:
321,193,106175,2,0,L|395:208,1,76.4999976654053,2|0,0:0|3:0,0:0:0:0:
466,162,106510,2,0,L|481:236,1,76.4999976654053,2|0,0:0|3:0,0:0:0:0:
510,316,106846,1,2,0:0:0:0:
445,369,107013,6,0,P|370:360|289:356,1,152.999995330811,2|0,3:2|3:0,0:0:0:0:
209,371,107516,1,0,0:0:0:0:
209,371,107684,2,0,P|156:375|136:285,1,152.999995330811,2|0,3:2|3:0,0:0:0:0:
82,224,108186,1,10,2:0:0:0:
140,163,108354,6,0,P|215:154|296:150,1,152.999995330811,6|2,3:2|3:2,0:0:0:0:
366,190,108857,2,0,P|371:152|372:113,1,76.4999976654053,2|0,0:0|3:0,0:0:0:0:
319,48,109192,1,2,0:0:0:0:
392,6,109360,2,0,P|430:1|469:0,1,76.4999976654053,2|0,3:2|0:0,0:0:0:0:
509,72,109695,6,0,L|499:240,1,152.999995330811,2|0,3:2|3:0,0:0:0:0:
435,279,110198,2,0,B|399:298|362:283|362:283|327:267|284:286,1,152.999995330811,2|0,0:0|0:0,0:0:0:0:
224,340,110700,1,2,3:2:0:0:
224,340,110868,1,2,0:0:0:0:
149,299,111036,6,0,P|123:245|172:152,1,152.999995330811,2|2,3:2|3:2,0:0:0:0:
201,92,111538,2,0,P|170:67|129:61,1,76.4999976654053,2|0,0:0|3:0,0:0:0:0:
68,6,111874,2,0,P|34:27|16:64,1,76.4999976654053,2|0,0:0|3:0,0:0:0:0:
54,133,112209,1,2,0:0:0:0:
8,203,112376,6,0,B|-6:310|-6:310|44:343,1,152.999995330811,2|2,3:2|3:2,0:0:0:0:
108,300,112879,1,2,0:0:0:0:
108,300,113047,2,0,L|187:287,1,76.4999976654053,2|2,3:2|3:2,0:0:0:0:
315,361,113382,2,0,L|240:349,1,76.4999976654053,10|2,2:0|0:0,0:0:0:0:
127,196,113717,6,0,L|277:220,1,152.999995330811,6|10,3:2|2:0,0:0:0:0:
337,281,114220,2,0,L|412:268,1,76.4999976654053,2|0,3:2|3:0,0:0:0:0:
470,206,114555,2,0,L|483:131,1,76.4999976654053,2|2,3:2|0:0,0:0:0:0:
430,65,114890,6,0,B|403:63|370:54|370:54|336:71|336:71|304:61|260:55,1,152.999995330811,10|0,2:0|3:0,0:0:0:0:
210,16,115393,1,10,2:0:0:0:
150,75,115561,2,0,P|159:157|167:236,1,152.999995330811,2|2,0:0|3:2,0:0:0:0:
225,296,116064,1,10,2:0:0:0:
225,296,116231,1,0,0:0:0:0:
170,360,116399,6,0,B|142:386|142:386|20:366,1,152.999995330811,2|10,3:2|2:0,0:0:0:0:
0,286,116902,2,0,L|14:206,1,76.4999976654053,2|0,3:2|3:0,0:0:0:0:
67,146,117237,2,0,L|53:66,1,76.4999976654053,2|0,3:2|0:0,0:0:0:0:
2,3,117572,6,0,B|65:43|65:43|152:14,1,152.999995330811,10|0,2:0|3:0,0:0:0:0:
193,82,118075,2,0,P|232:85|283:93,1,76.4999976654053,10|0,2:0|0:0,0:0:0:0:
338,43,118410,1,2,3:2:0:0:
338,43,118578,1,0,3:0:0:0:
407,90,118745,2,0,P|412:127|415:165,1,76.4999976654053,10|0,2:0|0:0,0:0:0:0:
366,234,119080,6,0,L|284:242,1,76.4999976654053,4|0,3:2|0:0,0:0:0:0:
217,285,119416,2,0,L|135:277,1,76.4999976654053,10|0,2:0|0:0,0:0:0:0:
85,214,119751,1,2,3:2:0:0:
129,142,119918,1,2,3:2:0:0:
78,74,120086,2,0,P|40:67|-2:64,1,76.4999976654053,10|0,2:0|0:0,0:0:0:0:
161,145,120421,6,0,P|245:138|329:122,1,152.999995330811,2|10,3:2|2:0,0:0:0:0:
390,92,120924,2,0,P|354:121|361:227,1,152.999995330811,2|2,0:0|3:2,0:0:0:0:
412,288,121427,1,10,2:0:0:0:
412,288,121594,1,2,0:0:0:0:
483,243,121762,6,0,P|492:169|498:76,1,152.999995330811,2|10,3:2|2:0,0:0:0:0:
442,27,122265,2,0,L|437:-11,2,38.2499988327027,0|0|10,0:0|0:0|2:0,0:0:0:0:
390,92,122600,1,0,3:0:0:0:
319,46,122767,1,10,2:0:0:0:
257,103,122935,6,0,B|251:164|251:164|267:193|267:193|261:263,1,152.999995330811,2|2,3:2|3:2,0:0:0:0:
310,320,123438,2,0,P|278:331|230:331,1,76.4999976654053,10|2,2:0|3:2,0:0:0:0:
182,266,123773,2,0,P|150:255|102:255,1,76.4999976654053,2|2,3:2|3:2,0:0:0:0:
32,293,124108,1,2,3:2:0:0:
2,213,124276,1,0,3:0:0:0:
2,213,124360,1,0,3:0:0:0:
2,213,124443,6,0,P|7:140|17:51,1,152.999995330811,6|0,3:2|3:0,0:0:0:0:
174,3,125114,2,0,P|182:79|187:155,1,152.999995330811,0|2,3:0|3:2,0:0:0:0:
241,219,125617,1,2,0:0:0:0:
305,165,125784,6,0,P|350:152|426:221,1,152.999995330811,2|0,3:2|3:0,0:0:0:0:
506,193,126287,2,0,L|493:353,1,152.999995330811,2|0,0:0|0:0,0:0:0:0:
415,377,126790,2,0,L|335:383,1,76.4999976654053,2|2,3:2|0:0,0:0:0:0:
254,382,127125,6,0,P|297:373|304:272,1,152.999995330811,2|0,3:2|3:2,0:0:0:0:
264,207,127628,2,0,P|223:209|179:217,1,76.4999976654053,2|0,0:0|3:0,0:0:0:0:
135,281,127963,2,0,P|94:278|50:271,1,76.4999976654053,2|0,0:0|3:0,0:0:0:0:
2,210,128298,1,2,0:0:0:0:
43,136,128466,6,0,B|79:117|116:132|116:132|151:148|194:129,1,152.999995330811,2|0,3:2|3:0,0:0:0:0:
243,64,128969,1,2,0:0:0:0:
243,64,129136,2,0,B|226:110|226:110|267:217,1,152.999995330811,0|2,3:0|3:2,0:0:0:0:
338,255,129639,1,0,0:0:0:0:
338,255,129807,6,0,B|377:247|404:219|404:219|430:251|489:254,1,152.999995330811,2|0,3:2|3:0,0:0:0:0:
482,169,130309,1,2,0:0:0:0:
482,169,130477,1,0,3:0:0:0:
408,320,130812,1,0,3:0:0:0:
408,320,130980,1,2,0:0:0:0:
338,255,131147,6,0,P|260:259|180:266,1,152.999995330811,2|2,3:2|3:2,0:0:0:0:
111,306,131650,1,0,0:0:0:0:
111,306,131818,2,0,P|71:289|79:182,1,152.999995330811,2|2,3:2|3:2,0:0:0:0:
7,34,132488,6,0,P|83:40|159:44,1,152.999995330811,2|0,3:2|3:0,0:0:0:0:
227,94,132991,2,0,P|265:90|303:88,1,76.4999976654053,2|0,0:0|3:0,0:0:0:0:
373,41,133326,1,2,0:0:0:0:
435,97,133494,2,0,P|438:135|440:173,1,76.4999976654053,2|2,3:2|0:0,0:0:0:0:
380,233,133829,6,0,B|358:286|369:349|369:349|405:317,1,152.999995330811,2|0,3:2|3:0,0:0:0:0:
468,283,134332,1,2,0:0:0:0:
468,283,134499,1,0,3:0:0:0:
359,153,134835,1,10,2:0:0:0:
359,153,135002,1,0,0:0:0:0:
435,97,135170,6,0,P|406:68|293:77,1,152.999995330811,6|10,3:2|2:0,0:0:0:0:
265,148,135673,2,0,B|209:134|209:134|174:145|174:145|113:130,1,152.999995330811,2|0,3:2|3:0,0:0:0:0:
60,69,136175,1,10,2:0:0:0:
60,69,136343,1,2,0:0:0:0:
1,128,136510,6,0,P|-5:204|-7:311,1,152.999995330811,2|2,3:2|3:2,0:0:0:0:
56,335,137013,2,0,B|92:316|129:331|129:331|164:347|207:328,1,152.999995330811,2|0,3:2|3:0,0:0:0:0:
273,280,137516,1,10,2:0:0:0:
273,280,137684,1,2,0:0:0:0:
218,216,137851,6,0,B|207:112|207:112|252:94,1,152.999995330811,2|10,3:2|2:0,0:0:0:0:
307,30,138354,2,0,L|401:49,1,76.4999976654053,2|0,3:2|0:0,0:0:0:0:
462,20,138689,2,0,L|497:-4,2,38.2499988327027,0|0|8,3:0|3:0|2:0,0:0:0:0:
441,101,139024,1,2,0:0:0:0:
507,152,139192,6,0,P|498:228|490:316,1,152.999995330811,10|2,2:0|3:2,0:0:0:0:
432,364,139695,2,0,P|402:334|287:350,1,152.999995330811,2|2,3:2|3:2,0:0:0:0:
219,368,140198,1,8,2:0:0:0:
219,368,140365,1,2,3:2:0:0:
155,312,140533,6,0,P|146:243|141:147,1,152.999995330811,14|0,2:0|3:0,0:0:0:0:
78,103,141036,2,0,P|92:66|199:48,1,152.999995330811,10|0,2:0|3:0,0:0:0:0:
259,95,141538,1,10,2:0:0:0:
330,49,141706,6,0,B|290:84|290:84|311:190,1,152.999995330811,2|10,3:2|2:0,0:0:0:0:
362,247,142209,2,0,L|448:257,1,76.4999976654053,10|0,2:0|0:0,0:0:0:0:
471,229,142460,1,8,2:0:0:0:
471,229,142544,2,0,P|474:202|479:179,3,38.2499988327027,10|8|8|8,2:0|2:0|2:0|2:0,0:0:0:0:
462,151,142879,2,0,P|459:124|454:101,3,38.2499988327027,10|8|8|8,2:0|2:0|2:0|2:0,0:0:0:0:
482,74,143214,6,0,L|388:61,1,85,6|0,3:2|0:0,0:0:0:0:
320,100,143550,1,10,2:0:0:0:
261,38,143717,2,0,B|219:13|178:32|178:32|135:54|98:32,1,170,2|2,3:2|3:2,0:0:0:0:
19,0,144220,2,0,L|10:95,1,85,8|2,2:0|0:0,0:0:0:0:
65,150,144555,6,0,L|74:245,1,85,0|0,3:0|3:0,0:0:0:0:
41,313,144890,1,10,2:0:0:0:
99,375,145058,2,0,L|194:384,1,85,0|2,3:0|0:0,0:3:0:0:
258,342,145393,1,0,3:0:0:0:
332,384,145561,2,0,P|344:343|340:299,1,85,10|0,2:0|0:3,0:3:0:0:
225,202,145896,6,0,P|266:214|309:210,1,85,2|0,3:2|0:3,0:3:0:0:
372,155,146231,1,10,2:0:0:0:
442,203,146399,2,0,B|463:321|463:321|410:347,1,170,2|2,3:2|3:2,0:0:0:0:
340,301,146902,2,0,P|301:296|242:297,1,85,8|2,2:0|0:0,0:0:0:0:
178,333,147237,6,0,L|167:243,1,85,0|0,3:0|3:0,0:0:0:0:
116,180,147572,1,8,2:0:0:0:
167,112,147740,1,0,3:0:0:0:
120,40,147907,2,0,P|80:34|25:34,1,85,2|0,0:0|3:0,0:0:0:0:
199,111,148242,2,0,P|241:110|283:104,1,85,10|0,2:0|0:0,0:0:0:0:
418,21,148578,6,0,B|373:39|373:39|363:169,1,170,6|10,3:2|2:0,0:0:0:0:
423,220,149080,2,0,B|434:340|434:340|393:366,1,170,2|0,3:2|3:0,0:0:0:0:
318,325,149583,1,8,2:0:0:0:
251,378,149751,1,2,3:2:0:0:
179,333,149918,6,0,P|171:250|167:161,1,170,2|10,3:2|2:0,0:0:0:0:
221,98,150421,2,0,B|225:37|180:-10|180:-10|114:2,1,170,2|2,3:2|3:2,0:0:0:0:
46,15,150924,1,8,2:0:0:0:
100,80,151092,1,2,3:2:0:0:
38,137,151259,6,0,B|31:202|31:202|45:239|45:239|35:319,1,170,2|10,3:2|2:0,0:0:0:0:
99,360,151762,2,0,B|141:342|181:356|181:356|222:372|267:353,1,170,2|2,3:2|3:2,0:0:0:0:
318,288,152265,1,10,2:0:0:0:
257,229,152432,1,8,2:0:0:0:
305,159,152600,6,0,L|308:113,3,42.5,0|0|0|0,3:0|3:0|3:0|3:0,0:0:0:0:
310,74,152935,2,0,P|352:68|401:68,1,85,10|0,2:0|3:0,0:0:0:0:
467,12,153270,1,2,0:0:0:0:
506,96,153438,1,0,3:0:0:0:
506,96,153522,1,0,3:0:0:0:
506,96,153605,2,0,P|511:138|511:187,1,85,10|0,2:0|0:0,0:0:0:0:
402,291,153941,6,0,P|402:248|407:206,1,85,6|0,3:2|0:0,0:0:0:0:
482,260,154276,1,10,2:0:0:0:
465,343,154443,2,0,B|433:375|433:375|297:355,1,170,2|2,3:2|3:2,0:0:0:0:
244,301,154946,2,0,L|229:202,1,85,8|2,2:0|0:0,0:0:0:0:
298,165,155281,6,0,L|313:66,1,85,0|0,3:0|3:0,0:0:0:0:
266,7,155617,1,10,2:0:0:0:
193,51,155784,2,0,L|108:63,1,85,0|2,3:0|0:0,0:0:0:0:
63,135,156119,1,0,3:0:0:0:
121,197,156287,2,0,L|205:184,1,85,10|0,2:0|0:0,0:0:0:0:
269,326,156622,6,0,L|353:338,1,85,2|0,3:2|0:0,0:0:0:0:
431,306,156957,1,10,2:0:0:0:
382,235,157125,2,0,B|371:170|371:170|387:132|387:132|376:61,1,170,2|2,3:2|3:2,0:0:0:0:
313,13,157628,2,0,L|228:6,1,85,8|2,2:0|0:0,0:0:0:0:
161,58,157963,6,0,L|154:142,1,85,0|0,3:0|3:0,0:0:0:0:
197,215,158298,1,8,2:0:0:0:
155,289,158466,1,0,3:0:0:0:
210,353,158633,2,0,P|252:370|301:359,1,85,2|0,0:0|3:0,0:0:0:0:
312,215,158969,2,0,P|276:242|261:290,1,85,10|0,2:0|0:0,0:0:0:0:
412,327,159304,6,0,B|449:292|449:292|423:163,1,170,6|10,3:2|2:0,0:0:0:0:
349,136,159807,2,0,B|225:121|225:121|271:79,1,170,2|2,3:2|3:2,0:0:0:0:
310,24,160309,1,8,2:0:0:0:
391,47,160477,6,0,B|501:79|501:79|512:139,1,170,2|0,3:2|3:0,0:0:0:0:
499,217,160980,2,0,P|464:250|426:262,1,85,10|0,2:0|3:0,0:0:0:0:
369,321,161315,2,0,P|326:297|303:265,1,85,2|0,0:0|3:0,0:0:0:0:
229,229,161650,2,0,P|237:181|261:149,1,85,10|0,2:0|0:0,0:0:0:0:
152,34,161985,6,0,P|164:88|82:152,1,170,2|10,3:2|2:0,0:0:0:0:
3,123,162488,2,0,B|52:144|52:144|52:273,1,170,2|2,3:2|3:2,0:0:0:0:
10,335,162991,2,0,L|96:343,1,85,10|0,2:0|0:0,0:0:0:0:
150,278,163326,6,0,L|236:270,1,85,0|0,3:0|3:0,0:0:0:0:
306,316,163661,1,8,2:0:0:0:
377,268,163829,2,0,L|384:183,1,85,0|0,3:0|3:0,0:0:0:0:
322,123,164164,1,8,2:0:0:0:
322,123,164248,1,8,2:0:0:0:
322,123,164332,2,0,L|318:80,3,42.5,10|8|0|0,2:0|2:0|3:0|3:0,0:0:0:0:
315,38,164667,6,0,P|283:17|230:12,1,85,6|0,3:2|0:0,0:0:0:0:
139,138,165002,2,0,P|171:117|224:112,1,85,10|2,2:0|3:2,0:0:0:0:
343,152,165337,2,0,L|335:236,1,85,8|2,2:0|3:2,0:0:0:0:
473,315,165673,2,0,L|465:231,1,85,8|2,2:0|3:2,0:0:0:0:
379,352,166008,6,0,L|295:344,1,85,8|2,2:0|3:2,0:0:0:0:
235,282,166343,1,10,2:0:0:0:
182,348,166510,2,0,L|97:355,1,85,2|8,3:2|2:0,0:0:0:0:
12,365,166846,1,2,3:2:0:0:
50,289,167013,1,8,2:0:0:0:
2,218,167181,1,2,3:2:0:0:
68,162,167348,6,0,P|153:151|259:155,1,170,10|2,2:0|3:2,0:0:0:0:
310,108,167851,2,0,P|270:137|277:246,1,170,10|0,2:0|3:0,0:0:0:0:
358,273,168354,1,8,2:0:0:0:
342,189,168522,1,0,3:0:0:0:
296,335,168689,6,0,P|333:357|380:357,1,85,0|8,3:0|2:0,0:0:0:0:
438,302,169024,1,0,3:0:0:0:
422,218,169192,1,2,3:2:0:0:
465,144,169360,2,0,L|469:93,3,42.5,10|0|0|0,2:0|3:0|3:0|3:0,0:0:0:0:
456,60,169695,2,0,L|362:48,1,85,10|2,2:0|0:0,0:0:0:0:
318,114,170030,6,0,P|244:121|158:134,1,152.999995330811,4|2,3:2|3:2,0:0:0:0:
32,32,170700,2,0,P|37:70|41:115,1,76.4999976654053,0|0,3:0|3:0,0:0:0:0:
91,176,171036,2,0,P|85:214|82:259,1,76.4999976654053,0|0,3:0|3:0,0:0:0:0:
57,285,171287,1,8,2:0:0:0:
57,285,171371,6,0,P|128:279|225:275,1,152.999995330811,10|0,2:0|3:0,0:0:0:0:
278,324,171874,2,0,P|327:335|386:242,1,152.999995330811,2|0,3:2|3:0,0:0:0:0:
347,192,172376,2,0,L|266:183,1,76.4999976654053,2|0,3:2|3:0,0:0:0:0:
223,104,172712,6,0,L|397:89,1,152.999995330811,2|0,3:2|3:0,0:0:0:0:
434,31,173214,2,0,P|404:73|446:165,1,152.999995330811,2|0,3:2|3:0,0:0:0:0:
506,208,173717,2,0,L|498:296,1,76.4999976654053,2|0,3:2|3:0,0:0:0:0:
505,326,173969,1,8,2:0:0:0:
505,326,174052,6,0,P|428:329|352:335,1,152.999995330811,10|2,2:2|3:2,0:0:0:0:
285,284,174555,2,0,P|248:290|173:199,2,152.999995330811,2|2|2,3:2|3:2|3:2,0:0:0:0:
352,232,175393,6,0,B|336:172|336:172|343:140|343:140|325:75,1,152.999995330811,6|0,3:2|3:0,0:0:0:0:
262,29,175896,2,0,B|154:18|154:18|138:71,1,152.999995330811,2|0,3:2|3:0,0:0:0:0:
78,116,176399,2,0,L|87:192,1,76.4999976654053,2|0,3:2|3:0,0:0:0:0:
70,230,176650,1,8,2:0:0:0:
70,230,176734,6,0,P|111:215|185:280,1,152.999995330811,10|2,2:0|3:2,0:0:0:0:
258,321,177237,2,0,P|224:292|243:196,1,152.999995330811,2|2,3:2|3:2,0:0:0:0:
392,118,177907,1,2,3:2:0:0:
392,118,178075,6,0,L|376:275,1,152.999995330811,2|2,3:2|3:2,0:0:0:0:
434,331,178578,2,0,B|390:310|390:310|277:347,1,152.999995330811,2|2,3:2|3:2,0:0:0:0:
210,367,179080,2,0,P|166:376|133:367,1,76.4999976654053,2|0,3:2|3:0,0:0:0:0:
104,339,179332,1,8,2:0:0:0:
104,339,179416,6,0,P|104:275|76:182,1,152.999995330811,10|0,2:0|3:0,0:0:0:0:
141,133,179918,2,0,P|156:89|268:61,1,152.999995330811,2|0,3:2|3:0,0:0:0:0:
330,30,180421,2,0,L|323:114,1,76.4999976654053,2|0,3:2|3:0,0:0:0:0:
273,174,180756,6,0,B|288:274|288:274|350:290,1,152.999995330811,6|2,3:2|3:2,0:0:0:0:
415,321,181259,2,0,P|426:245|443:170,1,152.999995330811,2|0,3:2|3:0,0:0:0:0:
502,110,181762,2,0,P|468:92|421:91,1,76.4999976654053,2|0,3:2|3:0,0:0:0:0:
396,64,182013,1,8,2:0:0:0:
396,64,182097,6,0,P|362:82|256:44,1,152.999995330811,10|2,2:0|3:2,0:0:0:0:
181,81,182600,2,0,P|105:66|21:55,2,152.999995330811,2|2|2,3:2|3:2|3:2,0:0:0:0:
233,146,183438,6,0,B|252:182|237:219|237:219|221:254|240:297,1,152.999995330811,2|0,3:2|3:0,0:0:0:0:
193,365,183941,1,2,3:2:0:0:
193,365,184108,2,0,L|105:378,1,76.4999976654053,0|0,3:0|3:0,0:0:0:0:
48,326,184443,2,0,L|35:238,1,76.4999976654053,2|0,3:2|3:0,0:0:0:0:
58,213,184695,1,8,2:0:0:0:
58,213,184779,6,0,B|65:162|65:162|186:139,1,152.999995330811,10|0,2:0|3:0,0:0:0:0:
233,191,185281,2,0,L|388:216,1,152.999995330811,2|2,3:2|3:2,0:0:0:0:
287,76,185952,1,2,3:2:0:0:
287,76,186119,6,0,L|442:51,1,152.999995330811,6|0,3:2|3:0,0:0:0:0:
508,5,186622,2,0,B|472:28|472:28|482:153,1,152.999995330811,2|0,3:2|3:0,0:0:0:0:
511,216,187125,2,0,L|504:292,1,76.4999976654053,2|0,3:2|3:0,0:0:0:0:
477,324,187376,1,8,2:0:0:0:
477,324,187460,6,0,B|441:305|404:320|404:320|369:336|326:317,1,152.999995330811,10|0,2:0|3:0,0:0:0:0:
244,325,187963,2,0,P|292:313|308:216,1,152.999995330811,2|0,3:2|3:0,0:0:0:0:
267,149,188466,2,0,L|190:143,1,76.4999976654053,2|0,3:2|3:0,0:0:0:0:
121,191,188801,6,0,P|76:204|8:126,1,152.999995330811,2|2,3:2|3:2,0:0:0:0:
25,53,189304,2,0,L|112:44,1,76.4999976654053,2|0,3:2|3:0,0:0:0:0:
173,2,189639,2,0,L|224:72,1,76.4999976654053,2|0,3:2|3:0,0:0:0:0:
298,87,189974,6,0,L|226:247,1,152.999995330811,2|2,3:2|3:2,0:0:0:0:
196,301,190477,2,0,L|245:312,3,38.2499988327027,2|0|0|0,3:2|3:0|3:0|3:0,0:0:0:0:
269,331,190812,2,0,L|318:320,3,38.2499988327027,2|0|0|0,3:2|3:0|3:0|3:0,0:0:0:0:
346,335,191147,2,0,L|360:244,1,76.4999976654053,2|2,3:2|3:2,0:0:0:0:
446,127,191483,6,0,P|426:162|320:146,1,152.999995330811,6|8,3:2|2:0,0:0:0:0:
272,90,191985,2,0,P|192:83|112:81,1,152.999995330811,0|0,3:0|3:0,0:0:0:0:
38,105,192488,1,8,2:0:0:0:
38,105,192823,6,0,L|44:185,1,76.4999976654053,2|0,3:2|3:0,0:0:0:0:
102,242,193159,1,8,2:0:0:0:
63,316,193326,2,0,B|42:357|42:357|154:343,1,152.999995330811,2|0,3:2|3:0,0:0:0:0:
219,298,193829,2,0,L|295:306,1,76.4999976654053,10|0,2:2|0:0,0:0:0:0:
371,341,194164,6,0,P|329:314|358:219,1,152.999995330811,2|8,3:2|2:0,0:0:0:0:
285,167,194667,2,0,P|298:127|298:87,1,76.4999976654053,2|0,3:2|0:0,0:0:0:0:
259,18,195002,1,2,3:2:0:0:
184,58,195170,2,0,P|145:56|109:44,1,76.4999976654053,10|2,2:0|0:2,0:0:0:0:
29,17,195505,6,0,L|39:108,1,76.4999976654053,2|2,3:2|3:2,0:0:0:0:
100,158,195840,1,10,2:2:0:0:
100,158,196008,2,0,L|90:249,1,76.4999976654053,2|2,3:2|0:2,0:0:0:0:
42,302,196343,2,0,B|82:274|82:274|185:317,1,152.999995330811,2|2,3:2|0:2,0:0:0:0:
253,352,196846,6,0,P|256:276|266:189,1,152.999995330811,6|8,3:2|2:0,0:0:0:0:
208,136,197348,2,0,P|193:93|254:13,1,152.999995330811,0|0,3:0|0:0,0:0:0:0:
336,14,197851,1,8,2:0:0:0:
336,14,198186,6,0,P|386:29|448:17,1,114.749996498108,2|2,3:2|0:2,0:0:0:0:
487,8,198522,2,0,L|482:90,1,76.4999976654053,8|2,2:0|3:2,0:0:0:0:
429,150,198857,2,0,L|449:265,1,114.749996498108,2|2,0:2|0:2,0:0:0:0:
459,303,199192,2,0,P|420:309|379:319,1,76.4999976654053,8|2,2:0|0:2,0:0:0:0:
319,372,199527,6,0,P|276:370|236:265,1,152.999995330811,2|8,3:2|2:0,0:0:0:0:
282,216,200030,2,0,P|286:178|289:139,1,76.4999976654053,0|0,3:0|0:0,0:0:0:0:
255,63,200365,1,0,3:0:0:0:
320,9,200533,2,0,P|358:10|395:17,1,76.4999976654053,10|2,2:0|0:2,0:0:0:0:
477,39,200868,6,0,P|433:34|393:124,1,152.999995330811,0|8,3:0|2:0,0:0:0:0:
429,193,201371,2,0,B|393:212|356:197|356:197|321:181|278:200,1,152.999995330811,2|0,3:2|3:0,0:0:0:0:
204,233,201874,2,0,L|196:311,1,76.4999976654053,10|0,2:2|0:0,0:0:0:0:
120,347,202209,6,0,L|112:270,1,76.4999976654053,6|2,3:2|0:2,0:0:0:0:
58,205,202544,1,10,2:0:0:0:
58,205,202712,2,0,L|65:128,1,76.4999976654053,2|2,3:2|0:2,0:0:0:0:
28,53,203047,1,2,3:2:0:0:
28,53,203214,2,0,L|104:45,1,76.4999976654053,10|2,2:0|0:2,0:0:0:0:
168,108,203550,5,2,3:2:0:0:
168,108,203717,2,0,L|244:115,1,76.4999976654053,2|10,3:2|2:2,0:0:0:0:
315,71,204052,2,0,P|278:98|278:204,1,152.999995330811,2|0,3:2|3:0,0:0:0:0:
337,252,204555,2,0,L|417:264,1,76.4999976654053,10|2,2:0|0:2,0:0:0:0:
482,309,204890,6,0,L|494:229,1,76.4999976654053,2|2,3:2|0:2,0:0:0:0:
428,179,205226,1,10,2:2:0:0:
428,179,205393,2,0,L|416:99,1,76.4999976654053,2|2,3:2|0:2,0:0:0:0:
460,31,205728,1,2,3:2:0:0:
460,31,205896,2,0,L|380:19,1,76.4999976654053,10|2,2:0|0:2,0:0:0:0:
315,71,206231,5,2,3:2:0:0:
315,71,206398,2,0,L|235:83,1,76.4999976654053,2|10,3:2|2:0,0:0:0:0:
160,51,206734,2,0,B|153:110|153:110|169:141|169:141|161:201,1,152.999995330811,2|2,3:2|3:2,0:0:0:0:
108,265,207237,2,0,L|118:346,1,76.4999976654053,10|2,2:0|3:2,0:0:0:0:
195,371,207572,6,0,P|230:339|332:358,1,152.999995330811,14|8,2:2|2:0,0:0:0:0:
410,368,208075,1,0,3:0:0:0:
410,368,208242,2,0,L|414:285,1,76.4999976654053,10|0,2:2|3:0,0:0:0:0:
467,225,208578,2,0,L|463:142,1,76.4999976654053,10|2,2:2|3:2,0:0:0:0:
403,88,208913,6,0,P|360:77|306:127,1,114.749996498108,10|2,2:0|0:2,0:0:0:0:
282,151,209248,2,0,L|285:227,1,76.4999976654053,10|2,2:0|3:2,0:0:0:0:
223,284,209583,2,0,B|150:274|150:274|142:227,1,114.749996498108,10|2,2:0|0:2,0:0:0:0:
115,201,209918,2,0,L|118:124,1,76.4999976654053,8|2,2:0|3:2,0:0:0:0:
56,66,210254,6,0,P|91:90|182:41,1,152.999995330811,10|0,2:0|3:0,0:0:0:0:
260,68,210756,2,0,P|336:58|416:51,1,152.999995330811,8|2,2:0|3:2,0:0:0:0:
483,95,211259,2,0,L|478:142,3,38.2499988327027,10|2|2|2,2:0|0:2|3:2|0:2,0:0:0:0:
458,169,211594,2,0,L|463:216,3,38.2499988327027,2|2|10|2,3:2|0:2|2:0|0:2,0:0:0:0:
490,237,211929,6,0,L|509:284,2,50.9999984436036,2|2|2,3:2|0:2|0:2,0:0:0:0:
424,279,212265,2,0,P|370:296|317:278,1,114.749996498108,10|2,2:0|0:2,0:0:0:0:
290,246,212600,2,0,L|282:170,1,76.4999976654053,10|2,2:0|0:2,0:0:0:0:
312,90,212935,5,6,3:2:0:0:
312,90,214276,5,2,0:2:0:0:
161,167,214611,2,0,P|86:157|9:153,2,152.999995330811,2|2|2,0:2|0:0|0:0,0:0:0:0:
283,283,215617,5,2,0:2:0:0:
386,63,226343,6,0,P|378:124|371:198,1,127.500004863739,0|2,3:2|0:2,0:0:0:0:
408,263,226846,2,0,P|422:304|370:363,2,127.500004863739,2|2|2,0:2|0:2|0:2,0:0:0:0:
371,189,227684,1,0,3:0:0:0:
238,288,228019,2,0,P|175:281|105:271,1,127.500004863739,2|0,0:2|1:2,0:0:0:0:
9,141,228689,1,2,0:2:0:0:
132,31,229024,6,0,P|142:96|150:165,1,127.500004863739,0|2,3:0|0:2,0:0:0:0:
209,214,229527,2,0,P|198:279|191:348,2,127.500004863739,2|2|2,0:2|0:2|0:2,0:0:0:0:
265,153,230365,1,0,3:0:0:0:
383,384,231036,2,0,P|365:352|396:272,1,127.500004863739,0|2,1:2|0:2,0:0:0:0:
508,151,231706,6,0,P|503:88|490:11,1,127.500004863739,0|2,3:0|0:2,0:0:0:0:
415,55,232209,2,0,P|372:62|320:0,2,127.500004863739,2|2|2,0:2|0:2|0:2,0:0:0:0:
492,24,233047,1,0,3:0:0:0:
434,179,233382,2,0,P|373:187|296:203,1,127.500004863739,2|0,0:2|1:2,0:0:0:0:
206,330,234052,1,2,0:2:0:0:
88,244,234388,6,0,P|82:203|78:157,1,85,2|2,0:2|0:2,0:0:0:0:
146,109,234890,2,0,P|153:88|134:24,1,85,2|2,0:2|0:2,0:0:0:0:
55,12,235393,1,2,0:2:0:0:
55,12,236064,6,0,L|49:153,2,127.500004863739,2|2|2,0:2|0:2|0:2,0:0:0:0:
178,195,237069,6,0,P|219:184|269:181,1,85,6|0,3:2|0:0,0:0:0:0:
341,211,237404,1,10,2:0:0:0:
411,162,237572,2,0,B|418:50|418:50|355:36,1,170,2|2,3:2|3:2,0:0:0:0:
283,2,238075,2,0,L|195:23,1,85,8|2,2:0|0:0,0:0:0:0:
116,5,238410,6,0,L|95:93,1,85,0|0,3:0|3:0,0:0:0:0:
29,140,238745,1,10,2:0:0:0:
78,209,238913,2,0,L|173:220,1,85,0|2,3:0|0:0,0:0:0:0:
232,169,239248,1,0,3:0:0:0:
299,221,239416,2,0,L|310:316,1,85,10|0,2:0|0:0,0:0:0:0:
181,384,239751,6,0,L|190:299,1,85,2|0,3:2|0:0,0:0:0:0:
162,218,240086,1,10,2:0:0:0:
232,169,240254,2,0,P|250:114|162:53,1,170,2|2,3:2|3:2,0:0:0:0:
98,9,240756,2,0,L|88:99,1,85,8|2,2:0|0:0,0:0:0:0:
28,154,241092,6,0,L|38:244,1,85,0|0,3:0|3:0,0:0:0:0:
98,298,241427,1,8,2:0:0:0:
174,261,241594,1,0,3:0:0:0:
234,320,241762,2,0,L|335:331,1,85,2|0,0:0|3:0,0:0:0:0:
430,238,242097,2,0,L|346:248,1,85,10|0,2:0|0:0,0:0:0:0:
229,152,242432,6,0,P|266:171|358:101,1,170,6|10,3:2|2:0,0:0:0:0:
365,19,242935,2,0,B|489:3|489:3|515:47,1,170,2|0,3:2|3:0,0:0:0:0:
466,113,243438,1,8,2:0:0:0:
501,189,243605,1,2,3:2:0:0:
430,238,243773,6,0,P|350:244|258:256,1,170,2|10,3:2|2:0,0:0:0:0:
186,296,244276,2,0,P|223:271|202:162,1,170,2|2,3:2|3:2,0:0:0:0:
143,101,244779,1,8,2:0:0:0:
171,21,244946,1,2,3:2:0:0:
247,58,245114,6,0,P|324:54|422:41,1,170,2|10,3:2|2:0,0:0:0:0:
493,6,245617,2,0,B|448:33|448:33|463:163,1,170,2|2,3:2|3:2,0:0:0:0:
505,222,246119,1,10,2:0:0:0:
454,290,246287,1,8,2:0:0:0:
378,250,246455,6,0,L|331:242,3,42.5,0|0|0|0,3:0|3:0|3:0|3:0,0:0:0:0:
294,234,246790,2,0,P|289:281|289:326,1,85,10|0,2:0|3:0,0:0:0:0:
224,374,247125,1,2,0:0:0:0:
154,324,247293,1,0,3:0:0:0:
154,324,247376,1,0,3:0:0:0:
154,324,247460,2,0,P|112:315|57:311,1,85,10|0,2:0|0:0,0:0:0:0:
0,181,247795,6,0,P|42:177|83:168,1,85,6|0,3:2|0:0,0:0:0:0:
150,113,248131,1,10,2:0:0:0:
209,172,248298,2,0,P|296:180|348:100,1,170,2|2,3:2|3:2,0:0:0:0:
383,45,248801,2,0,L|295:34,1,85,8|2,2:0|0:0,0:0:0:0:
220,1,249136,6,0,L|132:12,1,85,0|0,3:0|3:0,0:0:0:0:
50,4,249471,1,10,2:0:0:0:
11,79,249639,2,0,L|0:167,1,85,0|2,3:0|0:0,0:0:0:0:
51,231,249974,1,0,3:0:0:0:
120,181,250142,2,0,L|204:170,1,85,10|0,2:0|0:0,0:0:0:0:
323,72,250477,6,0,P|289:103|280:147,1,85,2|0,3:2|0:0,0:0:0:0:
313,217,250812,1,10,2:0:0:0:
265,288,250980,2,0,P|227:319|120:276,1,170,2|2,3:2|3:2,0:0:0:0:
51,231,251483,2,0,P|38:197|40:146,1,85,8|2,2:0|0:0,0:0:0:0:
10,68,251818,6,0,L|107:81,1,85,0|0,3:0|3:0,0:0:0:0:
157,136,252153,1,8,2:0:0:0:
221,80,252321,1,0,3:0:0:0:
291,126,252488,2,0,P|317:160|330:208,1,85,2|0,0:0|3:0,0:0:0:0:
188,274,252823,2,0,P|204:234|239:199,1,85,10|0,2:0|0:0,0:0:0:0:
418,223,253159,6,0,P|384:272|272:272,1,170,6|10,3:2|2:0,0:0:0:0:
232,203,253661,2,0,P|198:154|86:154,1,170,2|2,3:2|3:2,0:0:0:0:
32,205,254164,1,8,2:0:0:0:
58,286,254332,6,0,B|124:297|124:297|146:327|146:327|226:339,1,170,2|0,3:2|3:0,0:0:0:0:
283,382,254835,2,0,P|297:344|292:284,1,85,10|0,2:0|3:0,0:0:0:0:
228,248,255170,2,0,P|214:210|219:150,1,85,2|0,0:0|3:0,0:0:0:0:
265,97,255505,2,0,L|180:83,1,85,10|0,2:0|0:0,0:0:0:0:
301,190,255840,6,0,B|416:170|416:170|457:214,1,170,2|10,3:2|2:0,0:0:0:0:
462,293,256343,2,0,B|419:311|378:295|378:295|338:281|296:299,1,170,2|2,3:2|3:2,0:0:0:0:
225,346,256846,2,0,L|138:339,1,85,10|0,2:0|0:0,0:0:0:0:
75,283,257181,6,0,L|68:196,1,85,0|0,3:0|3:0,0:0:0:0:
102,120,257516,1,8,2:0:0:0:
175,163,257684,2,0,L|259:156,1,85,0|0,3:0|3:0,0:0:0:0:
331,109,258019,1,8,2:0:0:0:
331,109,258103,1,8,2:0:0:0:
331,109,258186,2,0,L|379:114,3,42.5,10|8|0|0,2:0|2:0|3:0|3:0,0:0:0:0:
415,122,258522,6,0,L|422:215,1,85,6|0,3:2|0:0,0:0:0:0:
426,340,258856,2,0,P|464:331|510:329,1,85,10|2,2:0|3:2,0:0:0:0:
343,266,259192,2,0,P|305:257|258:255,1,85,8|2,2:0|3:2,0:0:0:0:
421,206,259527,2,0,P|463:204|504:195,1,85,8|2,2:0|3:2,0:0:0:0:
373,113,259862,6,0,P|331:111|290:102,1,85,8|2,2:0|3:2,0:0:0:0:
239,31,260198,1,10,2:0:0:0:
161,64,260365,2,0,P|119:60|67:60,1,85,2|8,3:2|2:0,0:0:0:0:
11,115,260700,1,2,3:2:0:0:
48,191,260868,1,10,2:0:0:0:
121,147,261036,1,2,3:2:0:0:
200,175,261203,6,0,P|210:266|215:351,1,170,8|2,2:0|3:2,0:0:0:0:
297,364,261706,2,0,P|316:323|445:308,1,170,10|0,2:0|3:0,0:0:0:0:
472,370,262209,1,8,2:0:0:0:
387,380,262376,1,0,3:0:0:0:
511,290,262544,6,0,P|518:204|517:112,1,170,8|0,2:0|0:0,0:0:0:0:
459,58,263047,1,2,0:0:0:0:
383,95,263214,2,0,L|295:105,1,85,2|0,0:0|0:0,0:0:0:0:
228,55,263550,1,2,0:0:0:0:
170,116,263717,1,2,3:2:0:0:
170,116,263801,1,0,3:0:0:0:
170,116,263885,6,0,B|179:176|179:176|204:198|204:198|214:274,1,152.999995330811,14|2,2:0|3:2,0:0:0:0:
280,304,264388,2,0,P|207:289|153:340,1,152.999995330811,10|0,2:0|3:0,0:0:0:0:
78,376,264890,1,10,2:0:0:0:
78,376,265058,1,0,3:0:0:0:
19,314,265226,6,0,P|18:243|25:161,1,152.999995330811,8|2,2:0|3:2,0:0:0:0:
5,79,265728,1,8,2:0:0:0:
5,79,265896,2,0,P|45:79|87:72,1,76.4999976654053,2|0,3:2|3:0,0:0:0:0:
144,128,266231,2,0,P|184:128|226:135,1,76.4999976654053,10|0,2:0|3:0,0:0:0:0:
275,70,266566,6,0,P|316:78|402:-2,1,152.999995330811,10|0,2:0|3:0,0:0:0:0:
482,3,267069,2,0,P|474:78|468:174,1,152.999995330811,10|0,2:0|3:0,0:0:0:0:
510,234,267572,1,10,2:0:0:0:
510,234,267740,1,0,3:0:0:0:
443,285,267907,6,0,B|407:266|370:281|370:281|335:297|292:278,1,152.999995330811,10|2,2:0|3:2,0:0:0:0:
218,315,268410,1,8,2:0:0:0:
218,315,268578,2,0,L|206:227,1,76.4999976654053,2|0,3:2|3:0,0:0:0:0:
276,190,268913,2,0,L|288:102,1,76.4999976654053,10|0,2:0|3:0,0:0:0:0:
353,63,269248,6,0,B|282:90|282:90|220:43,1,152.999995330811,6|0,3:2|3:0,0:0:0:0:
67,118,269918,2,0,B|137:90|137:90|199:137,1,152.999995330811,0|0,3:0|3:0,0:0:0:0:
276,190,270421,1,2,0:2:0:0:
276,190,270505,1,2,0:2:0:0:
276,190,270589,6,0,L|265:276,1,76.4999976654053,2|2,3:2|0:2,0:0:0:0:
225,343,270924,1,2,3:2:0:0:
225,343,271092,2,0,L|311:354,1,76.4999976654053,2|2,0:2|3:2,0:0:0:0:
358,290,271427,2,0,L|444:279,1,76.4999976654053,2|2,0:2|3:2,0:0:0:0:
512,321,271762,1,2,0:2:0:0:
512,321,271929,6,0,P|472:293|513:197,1,152.999995330811,10|8,2:0|2:0,0:0:0:0:
512,120,272432,1,8,2:0:0:0:
448,64,272600,2,0,L|372:55,1,76.4999976654053,8|8,2:0|2:0,0:0:0:0:
310,112,272935,2,0,L|233:120,1,76.4999976654053,8|8,2:0|2:0,0:0:0:0:
128,13,273270,6,0,L|120:89,1,76.4999976654053,10|8,2:0|2:0,0:0:0:0:
74,159,273605,2,0,L|82:235,1,76.4999976654053,0|0,3:0|3:0,0:0:0:0:
72,276,273857,1,0,3:0:0:0:
72,276,273941,2,0,P|143:256|208:294,1,152.999995330811,0|0,3:0|3:0,0:0:0:0:
272,348,274443,6,0,L|277:379,3,25.4999992218018,2|2|2|6,3:2|0:2|0:2|3:2,0:0:0:0:
256,192,274695,12,0,279974,0:0:0:0:
