osu file format v14

[General]
AudioFilename: audio.mp3
AudioLeadIn: 0
PreviewTime: 214549
Countdown: 0
SampleSet: Soft
StackLeniency: 0
Mode: 0
LetterboxInBreaks: 0
EpilepsyWarning: 1
WidescreenStoryboard: 1

[Editor]
Bookmarks: 11840,25248,46700,57426,65471,92287,103013,124465,135192,143236,170052,191505,215639,237091,263907,274633
DistanceSpacing: 1.5
BeatDivisor: 4
GridSize: 32
TimelineZoom: 1.9

[Metadata]
Title:Rinne
TitleUnicode:輪廻
Artist:Yamamoto Mineko
ArtistUnicode:山本美禰子
Creator:Share
Version:Len's Classic Another
Source:さくら、もゆ。-as the Night's, Reincarnation-
Tags:山本 美禰子 Sakura Moyu 2nd opening op2 Takayuki Ishikura 石倉 誉之 maro Masato Yokoe 横江将人 Kotaro Odaka 小高 光太郎 FVS-SAKREC Japanese Vocal FAVORITE 15th ANNIVERSARY SPECIAL LIVE Denkigai Matsuri 2019 SUMMER FVS-SAKOST OST Original Soundtrack CD Cherry Blossom Dark Fantasy Mahou Shoujo Catgirl eroge ero video hentai game galgame pop japanese j-pop jpop kowari kuki1537 Len Fast leominexd leomine - Ex - -_Ex_- Pado
BeatmapID:3549141
BeatmapSetID:1713744

[Difficulty]
HPDrainRate:10
CircleSize:4
OverallDifficulty:10
ApproachRate:9
SliderMultiplier:2.1
SliderTickRate:1

[Events]
//Background and Video events
0,0,"rinnebg.png",0,0
//Break Periods
2,25783,35374
2,36509,43419
//Storyboard Layer 0 (Background)
//Storyboard Layer 1 (Fail)
//Storyboard Layer 2 (Pass)
//Storyboard Layer 3 (Foreground)
//Storyboard Layer 4 (Overlay)
//Storyboard Sound Samples

[TimingPoints]
1114,335.195530726257,4,2,1,62,1,0
1114,-142.857142857143,4,2,1,62,0,0
11840,-200,4,2,1,65,0,0
17203,-100,4,2,1,80,0,0
22566,-333.333333333333,4,2,1,75,0,0
23907,-100,4,2,1,75,0,0
25248,-100,4,2,1,67,0,0
45192,-100,4,2,1,72,0,0
45527,-111.111111111111,4,2,1,72,0,0
46700,-111.111111111111,4,2,1,70,0,0
56086,-333.333333333333,4,2,1,70,0,0
57091,-100,4,2,1,70,0,0
57426,-100,4,2,1,75,0,0
62789,-100,4,2,1,78,0,0
64465,-100,4,2,10,78,0,0
64801,-100,4,2,15,78,0,0
64968,-100,4,2,1,78,0,0
65136,-100,4,2,21,78,0,0
65471,-83.3333333333333,4,2,17,85,0,1
65806,-83.3333333333333,4,2,15,85,0,1
65974,-83.3333333333333,4,2,17,85,0,1
66309,-83.3333333333333,4,2,15,85,0,1
66979,-83.3333333333333,4,2,1,85,0,1
67147,-83.3333333333333,4,2,10,78,0,1
67483,-83.3333333333333,4,2,15,78,0,1
67818,-83.3333333333333,4,2,21,78,0,1
68153,-83.3333333333333,4,2,17,85,0,1
68488,-83.3333333333333,4,2,15,85,0,1
68656,-83.3333333333333,4,2,17,85,0,1
68991,-83.3333333333333,4,2,19,85,0,1
70331,-83.3333333333333,4,2,1,85,0,1
70499,-83.3333333333333,4,2,20,85,0,1
70834,-83.3333333333333,4,2,21,85,0,1
71169,-83.3333333333333,4,2,15,85,0,1
72007,-83.3333333333333,4,2,10,85,0,1
72175,-83.3333333333333,4,2,11,85,0,1
72510,-83.3333333333333,4,2,14,85,0,1
72678,-83.3333333333333,4,2,20,85,0,1
73013,-83.3333333333333,4,2,19,85,0,1
73348,-83.3333333333333,4,2,17,85,0,1
73851,-83.3333333333333,4,2,15,85,0,1
74019,-83.3333333333333,4,2,17,85,0,1
74354,-83.3333333333333,4,2,15,85,0,1
74521,-83.3333333333333,4,2,19,85,0,1
74857,-83.3333333333333,4,2,1,85,0,1
75192,-83.3333333333333,4,2,10,78,0,1
75528,-83.3333333333333,4,2,15,78,0,1
75863,-83.3333333333333,4,2,21,78,0,1
76198,-83.3333333333333,4,2,17,85,0,1
76533,-83.3333333333333,4,2,15,85,0,1
76701,-83.3333333333333,4,2,17,85,0,1
77036,-83.3333333333333,4,2,15,85,0,1
77706,-83.3333333333333,4,2,1,85,0,1
77874,-83.3333333333333,4,2,10,78,0,1
78210,-83.3333333333333,4,2,15,78,0,1
78545,-83.3333333333333,4,2,21,78,0,1
78880,-83.3333333333333,4,2,17,85,0,1
79215,-83.3333333333333,4,2,15,85,0,1
79383,-83.3333333333333,4,2,17,85,0,1
79718,-83.3333333333333,4,2,19,85,0,1
81058,-83.3333333333333,4,2,1,85,0,1
81226,-83.3333333333333,4,2,20,85,0,1
81561,-83.3333333333333,4,2,21,85,0,1
82734,-83.3333333333333,4,2,22,85,0,1
83069,-83.3333333333333,4,2,1,85,0,1
83236,-83.3333333333333,4,2,19,85,0,1
83572,-83.3333333333333,4,2,17,85,0,1
83907,-83.3333333333333,4,2,15,85,0,1
84242,-83.3333333333333,4,2,14,85,0,1
84577,-83.3333333333333,4,2,12,85,0,1
84745,-83.3333333333333,4,2,14,85,0,1
85080,-83.3333333333333,4,2,15,85,0,1
86588,-83.3333333333333,4,2,10,85,0,1
86672,-83.3333333333333,4,2,1,85,0,1
86924,-83.3333333333333,4,2,15,85,0,1
87259,-83.3333333333333,4,2,14,85,0,1
87426,-83.3333333333333,4,2,15,85,0,1
87762,-83.3333333333333,4,2,14,85,0,1
88097,-83.3333333333333,4,2,15,85,0,1
88600,-83.3333333333333,4,2,17,85,0,1
88767,-83.3333333333333,4,2,15,85,0,1
89102,-83.3333333333333,4,2,19,85,0,1
89438,-83.3333333333333,4,2,20,85,0,1
89605,-83.3333333333333,4,2,21,85,0,1
89940,-83.3333333333333,4,2,15,85,0,1
90946,-125,4,2,1,70,0,1
92287,-111.111111111111,4,2,1,80,0,0
97650,-111.111111111111,4,2,1,75,0,0
100667,-111.111111111111,4,2,1,66,0,0
101002,-111.111111111111,4,2,1,71,0,0
101337,-111.111111111111,4,2,1,76,0,0
101672,-111.111111111111,4,2,1,81,0,0
102007,-111.111111111111,4,2,1,77,0,0
102343,-99.9999999999999,4,2,1,73,0,0
102678,-99.9999999999999,4,2,1,69,0,0
103013,-111.111111111111,4,2,1,70,0,0
113739,-111.111111111111,4,2,1,75,0,0
124465,-111.111111111111,4,2,1,70,0,0
133851,-333.333333333333,4,2,1,70,0,0
134857,-100,4,2,1,70,0,0
135192,-100,4,2,1,75,0,0
140555,-100,4,2,1,78,0,0
142231,-100,4,2,10,78,0,0
142567,-100,4,2,15,78,0,0
142734,-100,4,2,1,78,0,0
142902,-100,4,2,21,78,0,0
143236,-83.3333333333333,4,2,1,85,0,1
143237,-83.3333333333333,4,2,17,85,0,1
143572,-83.3333333333333,4,2,15,85,0,1
143740,-83.3333333333333,4,2,17,85,0,1
144075,-83.3333333333333,4,2,15,85,0,1
144745,-83.3333333333333,4,2,1,85,0,1
144913,-83.3333333333333,4,2,10,78,0,1
145249,-83.3333333333333,4,2,15,78,0,1
145584,-83.3333333333333,4,2,21,78,0,1
145919,-83.3333333333333,4,2,17,85,0,1
146254,-83.3333333333333,4,2,15,85,0,1
146422,-83.3333333333333,4,2,17,85,0,1
146757,-83.3333333333333,4,2,19,85,0,1
148097,-83.3333333333333,4,2,1,85,0,1
148265,-83.3333333333333,4,2,20,85,0,1
148600,-83.3333333333333,4,2,21,85,0,1
148935,-83.3333333333333,4,2,15,85,0,1
149773,-83.3333333333333,4,2,10,85,0,1
149941,-83.3333333333333,4,2,11,85,0,1
150276,-83.3333333333333,4,2,14,85,0,1
150444,-83.3333333333333,4,2,20,85,0,1
150779,-83.3333333333333,4,2,19,85,0,1
151114,-83.3333333333333,4,2,17,85,0,1
151617,-83.3333333333333,4,2,15,85,0,1
151785,-83.3333333333333,4,2,17,85,0,1
152120,-83.3333333333333,4,2,15,85,0,1
152287,-83.3333333333333,4,2,19,85,0,1
152958,-83.3333333333333,4,2,10,78,0,1
153294,-83.3333333333333,4,2,15,78,0,1
153629,-83.3333333333333,4,2,21,78,0,1
153964,-83.3333333333333,4,2,17,85,0,1
154299,-83.3333333333333,4,2,15,85,0,1
154467,-83.3333333333333,4,2,17,85,0,1
154802,-83.3333333333333,4,2,15,85,0,1
155472,-83.3333333333333,4,2,1,85,0,1
155640,-83.3333333333333,4,2,10,78,0,1
155976,-83.3333333333333,4,2,15,78,0,1
156311,-83.3333333333333,4,2,21,78,0,1
156646,-83.3333333333333,4,2,17,85,0,1
156981,-83.3333333333333,4,2,15,85,0,1
157149,-83.3333333333333,4,2,17,85,0,1
157484,-83.3333333333333,4,2,19,85,0,1
158824,-83.3333333333333,4,2,1,85,0,1
158992,-83.3333333333333,4,2,20,85,0,1
159327,-83.3333333333333,4,2,21,85,0,1
160500,-83.3333333333333,4,2,22,85,0,1
160835,-83.3333333333333,4,2,1,85,0,1
161002,-83.3333333333333,4,2,19,85,0,1
161338,-83.3333333333333,4,2,17,85,0,1
161673,-83.3333333333333,4,2,15,85,0,1
162008,-83.3333333333333,4,2,14,85,0,1
162343,-83.3333333333333,4,2,12,85,0,1
162511,-83.3333333333333,4,2,14,85,0,1
162846,-83.3333333333333,4,2,15,85,0,1
164354,-83.3333333333333,4,2,10,85,0,1
164438,-83.3333333333333,4,2,1,85,0,1
164690,-83.3333333333333,4,2,15,85,0,1
165025,-83.3333333333333,4,2,14,85,0,1
165192,-83.3333333333333,4,2,15,85,0,1
165528,-83.3333333333333,4,2,14,85,0,1
165863,-83.3333333333333,4,2,15,85,0,1
166366,-83.3333333333333,4,2,17,85,0,1
166533,-83.3333333333333,4,2,15,85,0,1
166868,-83.3333333333333,4,2,19,85,0,1
167204,-83.3333333333333,4,2,20,85,0,1
167371,-83.3333333333333,4,2,21,85,0,1
167706,-83.3333333333333,4,2,15,85,0,1
168711,-83.3333333333333,4,2,1,80,0,1
170052,-100,4,2,1,75,0,0
190499,-100,4,2,1,73,0,0
190834,-100,4,2,1,71,0,0
191169,-100,4,2,1,69,0,0
191505,-90.9090909090909,4,2,1,75,0,0
207594,-90.9090909090909,4,2,1,80,0,0
212957,-125,4,2,1,75,0,0
215639,-125,4,2,1,70,0,0
216979,-333.333333333333,4,2,1,70,0,0
226030,-166.666666666667,4,2,1,70,0,0
226365,-166.666666666667,4,2,1,65,0,0
229046,-250,4,2,1,65,0,0
230387,-166.666666666667,4,2,1,65,0,0
231728,-250,4,2,1,65,0,0
233069,-142.857142857143,4,2,1,65,0,0
234410,-200,4,2,1,60,0,0
234912,-250,4,2,1,60,0,0
235415,-400,4,2,1,60,0,0
236086,-111.111111111111,4,2,10,60,0,0
236422,-111.111111111111,4,2,15,60,0,0
236589,-111.111111111111,4,2,1,60,0,0
236757,-111.111111111111,4,2,21,60,0,0
237091,-83.3333333333333,4,2,1,85,0,1
237092,-83.3333333333333,4,2,17,85,0,1
237427,-83.3333333333333,4,2,15,85,0,1
237595,-83.3333333333333,4,2,17,85,0,1
237930,-83.3333333333333,4,2,15,85,0,1
238600,-83.3333333333333,4,2,1,85,0,1
238768,-83.3333333333333,4,2,10,78,0,1
239104,-83.3333333333333,4,2,15,78,0,1
239439,-83.3333333333333,4,2,21,78,0,1
239774,-83.3333333333333,4,2,17,85,0,1
240109,-83.3333333333333,4,2,15,85,0,1
240277,-83.3333333333333,4,2,17,85,0,1
240612,-83.3333333333333,4,2,19,85,0,1
241952,-83.3333333333333,4,2,1,85,0,1
242120,-83.3333333333333,4,2,20,85,0,1
242455,-83.3333333333333,4,2,21,85,0,1
242790,-83.3333333333333,4,2,15,85,0,1
243628,-83.3333333333333,4,2,10,85,0,1
243796,-83.3333333333333,4,2,11,85,0,1
244131,-83.3333333333333,4,2,14,85,0,1
244299,-83.3333333333333,4,2,20,85,0,1
244634,-83.3333333333333,4,2,19,85,0,1
244969,-83.3333333333333,4,2,17,85,0,1
245472,-83.3333333333333,4,2,15,85,0,1
245640,-83.3333333333333,4,2,17,85,0,1
245975,-83.3333333333333,4,2,15,85,0,1
246142,-83.3333333333333,4,2,19,85,0,1
246477,-83.3333333333333,4,2,1,85,0,1
246813,-83.3333333333333,4,2,10,78,0,1
247149,-83.3333333333333,4,2,15,78,0,1
247484,-83.3333333333333,4,2,21,78,0,1
247819,-83.3333333333333,4,2,17,85,0,1
248154,-83.3333333333333,4,2,15,85,0,1
248322,-83.3333333333333,4,2,17,85,0,1
248657,-83.3333333333333,4,2,15,85,0,1
249327,-83.3333333333333,4,2,1,85,0,1
249495,-83.3333333333333,4,2,10,78,0,1
249831,-83.3333333333333,4,2,15,78,0,1
250166,-83.3333333333333,4,2,21,78,0,1
250501,-83.3333333333333,4,2,17,85,0,1
250836,-83.3333333333333,4,2,15,85,0,1
251004,-83.3333333333333,4,2,17,85,0,1
251339,-83.3333333333333,4,2,19,85,0,1
252679,-83.3333333333333,4,2,1,85,0,1
252847,-83.3333333333333,4,2,20,85,0,1
253182,-83.3333333333333,4,2,21,85,0,1
254355,-83.3333333333333,4,2,22,85,0,1
254690,-83.3333333333333,4,2,1,85,0,1
254857,-83.3333333333333,4,2,19,85,0,1
255193,-83.3333333333333,4,2,17,85,0,1
255528,-83.3333333333333,4,2,15,85,0,1
255863,-83.3333333333333,4,2,14,85,0,1
256198,-83.3333333333333,4,2,12,85,0,1
256366,-83.3333333333333,4,2,14,85,0,1
256701,-83.3333333333333,4,2,15,85,0,1
258209,-83.3333333333333,4,2,10,85,0,1
258292,-83.3333333333333,4,2,1,85,0,1
258545,-83.3333333333333,4,2,15,85,0,1
258880,-83.3333333333333,4,2,14,85,0,1
259047,-83.3333333333333,4,2,15,85,0,1
259383,-83.3333333333333,4,2,14,85,0,1
259718,-83.3333333333333,4,2,15,85,0,1
260221,-83.3333333333333,4,2,17,85,0,1
260388,-83.3333333333333,4,2,15,85,0,1
260723,-83.3333333333333,4,2,19,85,0,1
261059,-83.3333333333333,4,2,20,85,0,1
261226,-83.3333333333333,4,2,21,85,0,1
261561,-83.3333333333333,4,2,15,85,0,1
262566,-125,4,2,1,70,0,0
263907,-125,4,2,1,80,0,0
269270,-100,4,2,1,75,0,0
272287,-100,4,2,1,66,0,0
272622,-100,4,2,1,71,0,0
272957,-100,4,2,1,76,0,0
273292,-111.111111111111,4,2,1,81,0,0
273627,-111.111111111111,4,2,1,77,0,0
273963,-100,4,2,1,73,0,0
274298,-100,4,2,1,69,0,0
274633,-100,4,2,1,65,0,0
279996,-100,4,2,1,15,0,0

[Colours]
Combo1 : 255,162,162
Combo2 : 255,189,222
Combo3 : 255,255,151
Combo4 : 255,196,196

[HitObjects]
32,289,1114,6,0,B|-11:269|-5:220|-5:220|9:250|46:269,1,146.999995513916,6|2,2:2|2:2,0:0:0:0:
127,302,1616,2,0,P|56:318|9:373,2,146.999995513916,2|2|2,2:2|2:2|2:2,0:0:0:0:
183,366,2454,2,0,P|225:372|260:380,1,73.4999977569581,2|2,2:2|2:2,0:0:0:0:
350,280,2789,2,0,P|392:274|427:266,1,73.4999977569581,2|2,2:2|2:2,0:0:0:0:
433,276,3460,2,0,P|449:238|441:199,1,73.4999977569581,2|0,2:2|0:0,0:0:0:0:
333,83,3795,2,0,P|348:131|367:251,1,146.999995513916,2|2,2:2|2:2,0:0:0:0:
279,242,4298,2,0,P|258:171|246:98,2,146.999995513916,2|2|2,2:2|2:2|2:2,0:0:0:0:
192,222,5136,2,0,P|183:176|169:141,1,73.4999977569581,2|2,2:2|2:2,0:0:0:0:
95,42,5471,2,0,P|139:57|176:62,1,73.4999977569581,2|2,2:2|2:2,0:0:0:0:
299,47,5806,2,0,P|263:77|240:107,1,73.4999977569581,2|2,2:2|2:2,0:0:0:0:
154,70,6141,2,0,P|117:63|83:50,1,73.4999977569581,2|0,2:2|0:0,0:0:0:0:
294,174,6477,6,0,P|346:162|412:95,1,146.999995513916,2|2,2:2|2:2,0:0:0:0:
499,90,6979,2,0,P|429:68|382:13,1,146.999995513916,2|0,2:2|0:0,0:0:0:0:
292,0,7482,2,0,P|304:43|311:85,1,73.4999977569581,2|0,2:2|0:0,0:0:0:0:
335,163,7817,2,0,P|287:108|218:86,1,146.999995513916,2|2,2:2|2:2,0:0:0:0:
176,0,8320,2,0,P|128:54|59:76,1,146.999995513916,2|2,2:2|2:2,0:0:0:0:
0,143,8823,2,0,P|41:154|77:176,1,73.4999977569581,2|0,2:2|0:0,0:0:0:0:
147,133,9158,2,0,P|146:206|167:277,1,146.999995513916,2|2,2:2|2:2,0:0:0:0:
248,261,9661,2,0,P|249:187|228:117,2,146.999995513916,2|2|2,2:2|2:2|2:2,0:0:0:0:
239,273,10667,2,0,P|277:287|315:310,1,73.4999977569581,2|2,2:2|2:2,0:0:0:0:
447,241,11002,2,0,P|480:218|502:186,1,73.4999977569581,2|0,2:2|0:0,0:0:0:0:
403,380,11337,2,0,P|395:334|378:286,2,73.4999977569581,2|2|0,2:2|2:2|0:0,0:0:0:0:
512,310,11840,6,0,P|459:305|329:197,1,210,4|0,1:2|0:0,0:0:0:0:
337,213,12678,2,0,P|344:176|346:146,1,52.5,2|2,2:2|2:2,0:0:0:0:
234,87,13013,2,0,P|254:154|257:245,1,157.5,2|2,2:2|2:2,0:0:0:0:
198,316,13683,2,0,P|129:299|46:248,1,157.5,2|2,2:2|2:2,0:0:0:0:
42,246,14521,2,0,P|52:284|60:371,1,105,2|2,2:2|2:2,0:0:0:0:
142,310,15024,2,0,P|147:257|160:207,2,105,2|2|2,2:2|2:2|2:2,0:0:0:0:
90,152,15862,2,0,P|84:119|76:92,1,52.5,2|2,2:2|2:2,0:0:0:0:
61,87,16197,2,0,P|67:54|75:27,1,52.5,2|2,2:2|2:2,0:0:0:0:
195,178,16532,2,0,P|189:145|181:118,1,52.5,2|2,2:2|2:2,0:0:0:0:
156,54,16867,2,0,P|162:21|170:-6,1,52.5,2|0,2:2|0:0,0:0:0:0:
361,69,17203,6,0,P|413:68|462:48,1,105,14|0,2:2|1:1,0:0:0:0:
462,48,17538,2,0,P|447:95|444:122,1,52.5,0|0,1:1|0:0,0:0:0:0:
351,189,17706,2,0,P|298:187|250:168,1,105,12|0,2:2|1:1,0:0:0:0:
250,168,18041,2,0,P|265:214|268:241,1,52.5,0|0,1:1|0:0,0:0:0:0:
412,273,18208,2,0,P|399:330|393:381,1,105,14|0,2:2|1:1,0:0:0:0:
191,380,18544,6,0,P|145:360|123:305,1,105,14|0,2:2|1:1,0:0:0:0:
0,182,18879,2,0,P|34:191|64:194,1,52.5,2|0,1:2|0:0,0:0:0:0:
135,302,19046,2,0,P|81:312|26:318,1,105,12|2,2:2|1:2,0:0:0:0:
184,121,19382,2,0,P|193:88|200:54,1,52.5,0|0,1:1|0:0,0:0:0:0:
73,3,19549,2,0,P|80:54|92:105,1,105,14|0,2:2|1:1,0:0:0:0:
479,376,19884,6,0,P|505:344|496:267,1,105,14|0,2:2|1:1,0:0:0:0:
299,143,20220,2,0,P|305:176|314:219,1,52.5,0|0,1:1|0:0,0:0:0:0:
412,219,20387,2,0,P|463:205|512:187,1,105,14|2,2:2|1:2,0:0:0:0:
257,381,20722,2,0,P|264:340|272:305,1,52.5,0|0,1:1|0:0,0:0:0:0:
161,197,20890,2,0,P|152:139|138:85,1,105,8|0,2:2|1:1,0:0:0:0:
488,11,21225,6,0,P|480:48|479:78,1,52.5,0|0,1:1|0:0,0:0:0:0:
412,219,21393,2,0,P|403:180|389:144,1,52.5,12|0,2:2|0:0,0:0:0:0:
309,63,21560,2,0,P|259:49|185:24,1,105,0|0,1:1|1:1,0:0:0:0:
45,265,21896,2,0,P|99:244|160:225,1,105,14|0,2:2|1:1,0:0:0:0:
0,3,22231,2,0,P|15:55|24:113,1,105,14|0,2:2|0:0,0:0:0:0:
232,364,22566,6,0,P|232:309|277:128,1,236.249992790222,4|2,1:2|2:2,0:0:0:0:
281,94,23907,6,0,P|287:119|294:144,7,52.5,2|0|0|0|0|0|0|0,2:2|0:0|0:0|0:0|0:0|0:0|3:3|0:0,0:0:0:0:
270,101,24577,2,0,P|282:55|287:31,7,52.5,0|0|0|0|0|0|0|0,0:0|0:0|3:3|0:0|3:3|0:0|0:0|0:0,0:0:0:0:
366,101,25248,6,0,P|301:98|167:177,1,210,6|8,1:2|0:1,0:0:0:0:
183,272,35974,6,0,P|245:261|356:166,1,210,2|8,1:2|0:1,0:0:0:0:
256,192,44019,12,12,45192,2:2:0:0:
145,140,45527,6,0,P|109:134|81:127,1,47.2499985580445,2|0,2:2|0:0,0:0:0:0:
98,131,45695,2,0,P|94:81|88:34,1,94.499997116089,2|2,1:2|3:2,0:0:0:0:
226,98,46030,2,0,P|221:47|215:0,1,94.499997116089,2|2,1:2|3:2,0:0:0:0:
322,134,46365,2,0,P|317:83|311:36,1,94.499997116089,2|0,3:2|3:3,0:0:0:0:
504,199,46700,6,0,P|446:189|353:280,1,188.999994232178,4|0,1:2|1:1,0:0:0:0:
434,373,47203,2,0,P|463:321|409:203,1,188.999994232178,2|0,2:2|0:0,0:0:0:0:
263,240,47706,2,0,P|275:293|280:341,1,94.499997116089,2|2,1:2|2:2,0:0:0:0:
13,356,48041,2,0,P|71:366|164:275,1,188.999994232178,2|0,1:2|1:1,0:0:0:0:
263,240,48544,2,0,P|205:169|113:169,1,188.999994232178,2|0,2:2|0:0,0:0:0:0:
0,137,49046,2,0,P|22:200|27:251,1,94.499997116089,2|2,1:2|2:2,0:0:0:0:
157,379,49382,2,0,P|164:323|205:182,1,188.999994232178,2|2,1:2|1:2,0:0:0:0:
276,51,49884,2,0,P|221:94|78:136,2,188.999994232178,2|2|2,2:2|2:2|2:2,0:0:0:0:
311,186,50722,6,0,P|354:198|410:218,1,94.499997116089,2|0,1:2|0:0,0:0:0:0:
392,236,51225,6,0,P|435:224|491:204,1,94.499997116089,2|0,2:2|1:1,0:0:0:0:
497,186,51728,6,0,P|483:241|483:269,1,47.2499985580445,2|0,1:2|0:0,0:0:0:0:
460,263,51896,2,0,P|468:285|472:308,1,47.2499985580445,2|0,2:2|0:0,0:0:0:0:
364,373,52063,6,0,P|312:365|249:247,1,188.999994232178,2|2,1:2|1:2,0:0:0:0:
329,252,52566,2,0,P|237:250|178:321,1,188.999994232178,2|0,2:2|0:0,0:0:0:0:
432,214,53069,2,0,P|415:275|410:325,1,94.499997116089,0|2,1:1|2:2,0:0:0:0:
290,165,53404,2,0,P|280:110|251:2,1,141.749995674133,2|0,1:2|0:0,0:0:0:0:
247,10,53739,2,0,P|301:31|344:43,1,94.499997116089,2|2,1:2|2:2,0:0:0:0:
202,190,54074,2,0,P|193:132|182:89,1,94.499997116089,2|0,1:2|0:0,0:0:0:0:
380,138,54410,2,0,P|334:174|302:205,1,94.499997116089,2|0,1:2|0:0,0:0:0:0:
95,76,54745,2,0,P|187:73|265:124,1,188.999994232178,2|2,1:2|1:2,0:0:0:0:
223,277,55248,2,0,P|130:279|52:228,2,188.999994232178,2|2|2,2:2|2:2|2:2,0:0:0:0:
90,158,56086,6,0,P|110:208|124:329,1,173.24999471283,2|0,1:2|0:0,0:0:0:0:
124,325,57091,6,0,P|136:279|148:257,1,52.5,10|0,2:2|0:0,0:0:0:0:
247,191,57259,2,0,P|290:204|312:210,1,52.5,2|0,2:2|0:0,0:0:0:0:
369,370,57426,6,0,P|423:354|475:342,1,105,4|0,1:2|0:0,0:0:0:0:
508,168,57762,2,0,P|478:162|449:153,1,52.5,10|0,2:2|0:0,0:0:0:0:
351,72,57929,2,0,P|370:142|376:198,1,105,2|0,1:2|0:0,0:0:0:0:
287,335,58264,2,0,P|257:341|228:350,1,52.5,0|0,1:1|0:0,0:0:0:0:
215,247,58432,2,0,P|163:236|112:225,1,105,10|2,2:2|2:2,0:0:0:0:
20,23,58767,6,0,P|31:69|33:93,1,52.5,4|0,1:2|1:1,0:0:0:0:
145,156,58935,2,0,P|180:145|204:139,3,52.5,8|0|2|0,2:2|3:3|3:2|3:3,0:0:0:0:
302,52,59270,2,0,P|288:109|280:165,1,105,2|0,1:2|0:0,0:0:0:0:
426,380,59605,2,0,P|411:338|399:306,1,52.5,0|0,1:1|0:0,0:0:0:0:
430,199,59773,2,0,P|473:206|542:216,1,105,10|2,2:2|2:2,0:0:0:0:
320,351,60108,6,0,P|257:345|225:295,1,105,4|0,1:2|0:0,0:0:0:0:
180,151,60443,2,0,P|188:115|192:82,1,52.5,10|0,2:2|0:0,0:0:0:0:
41,248,60611,2,0,P|52:302|59:356,1,105,2|0,1:2|0:0,0:0:0:0:
265,217,60946,2,0,P|232:229|206:240,1,52.5,0|0,1:1|1:1,0:0:0:0:
94,113,61114,2,0,P|50:105|-9:92,1,105,8|2,2:2|2:2,0:0:0:0:
333,13,61449,6,0,P|325:50|322:80,1,52.5,12|0,1:2|0:0,0:0:0:0:
423,237,61616,2,0,P|414:200|403:168,1,52.5,0|0,0:0|0:0,0:0:0:0:
484,62,61784,2,0,P|445:78|422:86,1,52.5,10|0,2:2|0:0,0:0:0:0:
308,179,61951,2,0,P|256:168|204:160,1,105,4|0,1:2|0:0,0:0:0:0:
399,368,62287,2,0,P|450:357|502:349,1,105,2|8,1:2|2:2,0:0:0:0:
252,303,62622,2,0,P|246:277|237:252,1,52.5,2|0,1:2|1:1,0:0:0:0:
379,11,62789,6,0,P|367:67|360:123,1,105,12|2,2:2|2:2,0:0:0:0:
133,373,63125,2,0,P|145:317|152:261,1,105,2|8,1:2|2:2,0:0:0:0:
0,34,63460,6,0,P|45:50|71:56,1,52.5,2|0,2:2|0:0,0:0:0:0:
265,147,63627,2,0,P|239:154|215:164,1,52.5,2|0,1:2|0:0,0:0:0:0:
66,311,63795,2,0,P|63:285|55:260,1,52.5,8|0,2:2|0:0,0:0:0:0:
142,102,63963,2,0,P|156:48|164:-8,1,105,4|0,1:2|0:0,0:0:0:0:
253,333,64298,6,0,P|255:359|260:384,1,52.5,8|0,1:2|0:0,0:0:0:0:
51,178,64465,2,0,P|46:136|30:55,1,105,10|0,2:2|0:0,0:0:0:0:
370,37,64801,6,0,P|320:19|272:0,1,105,10|2,1:2|3:2,0:0:0:0:
243,345,65136,6,0,P|282:310|324:278,1,105,10|0,2:2|0:0,0:0:0:0:
0,0,65471,6,0,P|86:3|168:176,1,251.999992309571,6|10,1:2|2:2,0:0:0:0:
137,384,65974,2,0,P|147:343|156:309,2,62.9999980773926,2|0|0,1:2|0:0|0:0,0:0:0:0:
98,234,66309,2,0,P|159:221|218:200,1,125.999996154785,2|8,1:2|2:2,0:0:0:0:
31,297,66644,2,0,P|0:284|-31:274,1,62.9999980773926,2|0,2:2|0:0,0:0:0:0:
218,200,66812,6,0,P|246:152|217:64,1,125.999996154785,0|2,1:1|2:2,0:0:0:0:
9,26,67147,2,0,P|25:99|32:165,1,125.999996154785,10|0,2:2|1:1,0:0:0:0:
286,284,67482,2,0,P|334:256|353:165,1,125.999996154785,2|0,2:2|1:1,0:0:0:0:
32,5,67817,2,0,P|20:98|4:213,1,188.999994232178,10|0,2:2|0:0,0:0:0:0:
0,92,68153,6,0,P|69:143|210:53,1,251.999992309571,2|10,1:2|2:2,0:0:0:0:
458,129,68655,2,0,P|419:118|390:105,2,62.9999980773926,2|0|0,1:2|0:0|0:0,0:0:0:0:
299,135,68991,2,0,P|289:73|282:10,1,125.999996154785,2|8,1:2|2:2,0:0:0:0:
451,232,69326,2,0,P|436:282|430:312,1,62.9999980773926,2|0,2:2|0:0,0:0:0:0:
266,378,69493,6,0,P|223:363|139:350,1,125.999996154785,0|0,1:1|1:1,0:0:0:0:
248,227,69829,2,0,P|310:218|370:199,1,125.999996154785,8|0,2:2|1:1,0:0:0:0:
41,268,70164,2,0,P|33:344|72:379,1,125.999996154785,2|2,2:2|1:2,0:0:0:0:
451,232,70499,2,0,P|459:156|354:99,1,188.999994232178,10|0,2:2|0:0,0:0:0:0:
462,258,70834,6,0,P|370:220|187:204,1,251.999992309571,6|10,1:2|2:2,0:0:0:0:
284,37,71337,2,0,P|201:19|139:176,1,251.999992309571,2|0,1:2|1:1,0:0:0:0:
259,375,71840,2,0,P|271:313|291:254,1,125.999996154785,8|2,2:2|2:2,0:0:0:0:
29,303,72175,6,0,P|120:313|218:165,1,251.999992309571,2|10,1:2|2:2,0:0:0:0:
363,178,72678,2,0,P|341:89|168:47,1,251.999992309571,2|2,1:2|1:2,0:0:0:0:
19,13,73181,2,0,P|36:96|39:125,2,62.9999980773926,8|0|2,2:2|0:0|2:2,0:0:0:0:
0,185,73516,6,0,P|84:191|226:302,1,251.999992309571,0|10,1:1|2:2,0:0:0:0:
340,87,74019,2,0,P|222:56|117:120,1,251.999992309571,2|2,1:2|1:2,0:0:0:0:
290,339,74521,2,0,P|300:276|321:207,1,125.999996154785,10|0,2:2|0:0,0:0:0:0:
245,37,74857,6,0,P|257:81|260:115,1,62.9999980773926,0|0,1:1|3:3,0:0:0:0:
399,230,75024,2,0,P|437:216|473:207,1,62.9999980773926,0|0,3:3|3:3,0:0:0:0:
512,91,75192,2,0,P|450:84|386:69,1,125.999996154785,10|0,2:2|1:1,0:0:0:0:
192,199,75527,2,0,P|253:210|316:215,1,125.999996154785,2|0,2:2|1:1,0:0:0:0:
73,377,75862,2,0,P|9:313|35:227,1,188.999994232178,10|0,2:2|0:0,0:0:0:0:
73,377,76197,6,0,P|141:349|332:316,1,251.999992309571,6|10,1:2|2:2,0:0:0:0:
494,157,76700,2,0,P|478:196|474:223,2,62.9999980773926,2|0|0,1:2|0:0|0:0,0:0:0:0:
425,382,77035,2,0,P|416:322|383:247,1,125.999996154785,2|8,1:2|2:2,0:0:0:0:
329,90,77370,2,0,P|371:77|399:63,1,62.9999980773926,2|0,2:2|0:0,0:0:0:0:
391,261,77538,6,0,P|325:251|248:235,1,125.999996154785,0|2,1:1|2:2,0:0:0:0:
122,78,77873,2,0,P|173:38|245:53,1,125.999996154785,10|0,2:2|1:1,0:0:0:0:
337,336,78208,2,0,P|274:344|213:360,1,125.999996154785,2|0,2:2|1:1,0:0:0:0:
86,1,78544,2,0,P|159:-1|223:126,1,188.999994232178,10|0,2:2|0:0,0:0:0:0:
284,0,78879,6,0,P|267:73|248:259,1,251.999992309571,2|10,1:2|2:2,0:0:0:0:
32,135,79382,2,0,P|27:95|16:59,2,62.9999980773926,2|0|0,1:2|0:0|0:0,0:0:0:0:
107,263,79717,2,0,P|60:242|-30:224,1,125.999996154785,2|8,1:2|2:2,0:0:0:0:
229,128,80052,2,0,P|237:87|240:51,1,62.9999980773926,2|0,2:2|0:0,0:0:0:0:
286,363,80220,6,0,P|354:355|388:289,1,125.999996154785,0|0,1:1|1:1,0:0:0:0:
285,206,80555,2,0,P|217:214|183:280,1,125.999996154785,8|0,2:2|1:1,0:0:0:0:
478,369,80890,2,0,P|466:302|463:207,1,125.999996154785,2|0,2:2|1:1,0:0:0:0:
85,116,81225,2,0,P|98:183|110:317,1,188.999994232178,10|0,2:2|0:0,0:0:0:0:
70,143,81560,6,0,P|144:156|229:0,1,251.999992309571,6|10,1:2|2:2,0:0:0:0:
266,261,82063,2,0,P|251:323|244:420,1,125.999996154785,2|0,1:2|0:0,0:0:0:0:
317,117,82398,2,0,P|270:73|190:18,1,125.999996154785,2|8,1:2|2:2,0:0:0:0:
418,227,82734,2,0,P|479:208|542:178,1,125.999996154785,2|0,2:2|1:1,0:0:0:0:
509,163,83236,6,0,P|494:240|487:295,1,125.999996154785,10|0,2:2|1:1,0:0:0:0:
279,205,83572,2,0,P|288:142|301:81,1,125.999996154785,2|0,2:2|1:1,0:0:0:0:
92,222,83907,2,0,P|77:299|70:354,1,125.999996154785,10|0,2:2|0:0,0:0:0:0:
0,51,84242,6,0,P|74:36|171:173,1,251.999992309571,2|10,1:2|2:2,0:0:0:0:
240,298,84745,2,0,P|150:260|-13:224,1,251.999992309571,2|2,1:2|1:2,0:0:0:0:
134,80,85248,2,0,P|188:61|257:22,1,125.999996154785,10|0,2:2|0:0,0:0:0:0:
327,371,85583,6,0,P|316:301|299:228,1,125.999996154785,0|0,1:1|1:1,0:0:0:0:
506,55,85918,2,0,P|454:47|392:103,1,125.999996154785,8|0,2:2|1:1,0:0:0:0:
412,329,86253,2,0,P|456:340|487:351,1,62.9999980773926,0|0,1:1|0:0,0:0:0:0:
327,157,86421,2,0,P|319:116|317:72,1,62.9999980773926,8|8,2:2|2:2,0:0:0:0:
199,291,86588,2,0,P|185:335|180:366,1,62.9999980773926,10|0,2:2|3:3,0:0:0:0:
131,95,86756,2,0,P|120:58|117:22,1,62.9999980773926,0|0,3:3|3:3,0:0:0:0:
16,258,86924,6,0,P|79:231|144:214,1,125.999996154785,6|0,1:2|0:0,0:0:0:0:
244,23,87259,2,0,P|212:10|174:-6,1,62.9999980773926,10|0,2:2|0:0,0:0:0:0:
253,190,87426,2,0,P|234:263|226:320,1,125.999996154785,2|8,1:2|2:2,0:0:0:0:
24,122,87762,2,0,P|17:65|0:-4,1,125.999996154785,2|8,1:2|2:2,0:0:0:0:
368,149,88097,6,0,P|372:210|331:255,1,125.999996154785,2|12,1:2|2:2,0:0:0:0:
11,280,88432,2,0,P|7:248|-4:206,1,62.9999980773926,2|0,1:2|0:0,0:0:0:0:
115,94,88600,2,0,P|184:108|243:115,1,125.999996154785,10|2,2:2|1:2,0:0:0:0:
374,329,88935,2,0,P|311:336|249:349,1,125.999996154785,8|2,2:2|1:2,0:0:0:0:
238,25,89270,2,0,P|312:37|344:93,1,125.999996154785,10|2,2:2|1:2,0:0:0:0:
156,371,89605,6,0,P|148:332|134:296,1,62.9999980773926,14|0,2:2|0:0,0:0:0:0:
285,147,89773,2,0,P|272:189|266:225,1,62.9999980773926,0|0,1:1|0:0,0:0:0:0:
112,163,89940,2,0,P|80:154|39:139,1,62.9999980773926,2|0,1:2|0:0,0:0:0:0:
231,291,90108,2,0,P|299:308|366:338,1,125.999996154785,14|0,2:2|1:1,0:0:0:0:
498,133,90443,2,0,P|456:148|429:157,1,62.9999980773926,0|0,1:1|0:0,0:0:0:0:
286,45,90611,2,0,P|304:117|314:188,1,125.999996154785,12|0,2:2|1:1,0:0:0:0:
511,384,90946,6,0,P|309:121|0:0,1,672,12|4,2:2|1:2,0:0:0:0:
256,192,92370,12,14,94968,2:2:0:0:
256,192,95052,12,14,96309,2:2:0:0:
256,192,96393,12,14,97315,2:2:0:0:
511,0,97650,6,0,P|395:249|131:322,1,566.999982696534,4|0,1:2|1:1,0:0:0:0:
131,322,98991,2,0,P|124:274|107:222,1,94.499997116089,0|2,1:1|2:2,0:0:0:0:
203,183,99326,2,0,P|210:231|227:283,1,94.499997116089,2|2,1:2|2:2,0:0:0:0:
123,333,99661,2,0,P|116:285|99:233,1,94.499997116089,2|2,1:2|2:2,0:0:0:0:
195,194,99996,2,0,P|202:242|219:294,1,94.499997116089,2|2,1:2|2:2,0:0:0:0:
398,372,100331,6,0,P|454:355|475:226,1,188.999994232178,12|0,1:2|3:3,0:0:0:0:
393,30,100834,2,0,L|385:84,1,47.2499985580445,0|0,3:3|0:0,0:0:0:0:
317,173,101002,2,0,P|258:187|209:196,1,94.499997116089,8|8,2:2|2:2,0:0:0:0:
64,21,101337,2,0,P|133:37|201:47,1,94.499997116089,8|8,2:2|2:2,0:0:0:0:
24,365,101672,6,0,L|10:309,1,47.2499985580445,10|0,2:2|0:0,0:0:0:0:
90,291,101840,6,0,L|91:235,1,47.2499985580445,8|0,2:2|0:0,0:0:0:0:
168,338,102007,6,0,L|184:278,1,47.2499985580445,0|0,1:1|1:1,0:0:0:0:
232,220,102175,6,0,L|211:156,1,47.2499985580445,0|0,1:1|1:1,0:0:0:0:
315,291,102343,6,0,L|338:213,1,52.5,8|0,2:2|3:3,0:0:0:0:
374,135,102510,6,0,L|362:54,1,52.5,0|0,3:3|3:3,0:0:0:0:
448,243,102678,6,0,L|440:176,1,52.5,0|0,1:1|1:1,0:0:0:0:
500,64,102845,6,0,L|517:-4,1,52.5,0|0,1:1|1:1,0:0:0:0:
499,323,103013,6,0,P|411:257|53:240,1,472.499985580445,4|0,1:2|0:0,0:0:0:0:
51,381,104019,2,0,P|102:371|123:322,1,94.499997116089,2|2,1:2|2:2,0:0:0:0:
61,236,104354,2,0,P|16:204|62:70,1,188.999994232178,2|0,1:2|1:1,0:0:0:0:
124,17,104857,2,0,P|170:46|306:104,1,188.999994232178,2|0,2:2|0:0,0:0:0:0:
321,206,105359,2,0,P|365:184|415:170,1,94.499997116089,2|2,1:2|2:2,0:0:0:0:
495,0,105695,2,0,P|438:-4|377:108,1,188.999994232178,2|2,1:2|1:2,0:0:0:0:
477,222,106197,2,0,P|490:172|512:129,1,94.499997116089,2|0,2:2|1:1,0:0:0:0:
352,205,106532,2,0,P|372:247|383:293,2,94.499997116089,2|0|2,2:2|1:1|2:2,0:0:0:0:
419,373,107035,2,0,P|460:338|517:303,1,94.499997116089,2|0,1:2|0:0,0:0:0:0:
296,280,107370,2,0,P|249:265|193:258,1,94.499997116089,0|0,1:1|0:0,0:0:0:0:
86,384,107706,2,0,P|114:336|127:280,1,94.499997116089,2|0,1:2|0:0,0:0:0:0:
32,162,108041,2,0,P|46:220|51:284,1,94.499997116089,2|8,1:2|2:2,0:0:0:0:
12,22,108376,2,0,P|41:64|427:145,1,472.499985580445,2|0,1:2|0:0,0:0:0:0:
488,43,109382,2,0,P|459:32|400:-4,1,94.499997116089,2|2,1:2|2:2,0:0:0:0:
294,76,109717,2,0,P|360:84|455:183,1,188.999994232178,2|0,1:2|1:1,0:0:0:0:
512,276,110220,2,0,P|446:284|351:383,1,188.999994232178,2|0,2:2|0:0,0:0:0:0:
297,274,110722,2,0,P|310:222|316:172,1,94.499997116089,2|2,1:2|2:2,0:0:0:0:
165,118,111058,2,0,P|184:187|195:329,1,188.999994232178,2|2,1:2|1:2,0:0:0:0:
84,325,111560,2,0,P|65:256|54:114,2,188.999994232178,2|2|2,2:2|2:2|2:2,0:0:0:0:
195,303,112398,2,0,P|247:319|282:342,1,94.499997116089,2|2,1:2|2:2,0:0:0:0:
268,215,112734,2,0,P|308:184|332:136,1,94.499997116089,2|2,1:2|2:2,0:0:0:0:
214,39,113069,2,0,P|235:93|248:148,1,94.499997116089,2|2,1:2|2:2,0:0:0:0:
407,180,113404,2,0,P|419:119|439:63,1,94.499997116089,10|2,2:2|2:2,0:0:0:0:
512,251,113739,6,0,P|453:257|368:350,1,188.999994232178,4|8,1:2|2:2,0:0:0:0:
459,381,114242,2,0,L|467:324,2,47.2499985580445,2|0|0,2:2|0:0|3:3,0:0:0:0:
383,255,114577,2,0,P|375:204|363:149,1,94.499997116089,0|2,1:1|1:2,0:0:0:0:
312,32,114912,2,0,P|347:17|371:3,1,47.2499985580445,10|0,2:2|0:0,0:0:0:0:
261,92,115080,2,0,P|209:81|123:73,1,94.499997116089,2|0,2:2|1:1,0:0:0:0:
56,23,115415,2,0,P|19:67|19:112,1,94.499997116089,8|2,2:2|2:2,0:0:0:0:
123,189,115750,2,0,P|130:248|140:296,1,94.499997116089,0|0,1:1|1:1,0:0:0:0:
40,375,116086,2,0,P|-4:347|5:292,1,94.499997116089,10|2,2:2|2:2,0:0:0:0:
35,183,116421,2,0,P|89:194|224:210,1,188.999994232178,0|10,1:1|2:2,0:0:0:0:
304,288,116924,2,0,P|361:267|354:134,1,188.999994232178,2|2,2:2|1:2,0:0:0:0:
236,77,117426,2,0,P|245:119|249:148,1,47.2499985580445,0|0,1:1|0:0,0:0:0:0:
221,209,117594,2,0,P|136:167|45:141,1,188.999994232178,10|0,2:2|1:1,0:0:0:0:
151,29,118097,2,0,P|135:84|130:137,1,94.499997116089,10|0,2:2|0:0,0:0:0:0:
49,224,118432,2,0,P|42:177|28:132,1,94.499997116089,2|0,1:2|1:1,0:0:0:0:
133,283,118767,2,0,P|117:338|112:391,1,94.499997116089,10|0,2:2|0:0,0:0:0:0:
308,333,119102,6,0,P|310:269|197:228,1,188.999994232178,4|8,1:2|2:2,0:0:0:0:
32,356,119605,2,0,P|90:336|221:309,1,188.999994232178,0|0,0:0|1:1,0:0:0:0:
156,150,120108,2,0,P|109:165|59:173,1,94.499997116089,10|2,2:2|2:2,0:0:0:0:
226,8,120443,2,0,P|284:38|421:73,1,188.999994232178,2|10,1:2|2:2,0:0:0:0:
508,178,120946,2,0,P|438:189|322:286,2,188.999994232178,2|2|2,2:2|1:2|2:2,0:0:0:0:
299,0,121784,6,0,P|317:50|334:159,1,141.749995674133,4|0,1:2|0:0,0:0:0:0:
332,154,122119,2,0,P|362:110|408:87,1,94.499997116089,8|2,2:2|1:2,0:0:0:0:
117,10,122454,2,0,P|160:28|206:43,2,94.499997116089,10|2|10,2:2|1:2|2:2,0:0:0:0:
187,199,122957,2,0,P|206:261|205:407,1,188.999994232178,4|2,1:2|1:2,0:0:0:0:
70,338,123460,6,0,P|139:326|197:316,1,94.499997116089,10|2,2:2|3:2,0:0:0:0:
372,229,123795,2,0,P|325:237|278:246,1,94.499997116089,10|2,2:2|3:2,0:0:0:0:
418,303,124130,2,0,P|487:291|545:281,1,94.499997116089,2|2,3:2|1:2,0:0:0:0:
512,27,124465,6,0,P|455:15|366:97,1,188.999994232178,4|0,1:2|1:1,0:0:0:0:
423,215,124968,2,0,P|461:171|435:53,1,188.999994232178,2|0,2:2|0:0,0:0:0:0:
275,58,125471,2,0,P|289:117|295:162,1,94.499997116089,2|2,1:2|2:2,0:0:0:0:
353,364,125806,2,0,P|284:352|235:247,1,188.999994232178,0|0,1:1|1:1,0:0:0:0:
148,224,126309,2,0,P|182:163|298:153,1,188.999994232178,2|0,2:2|0:0,0:0:0:0:
394,103,126812,2,0,P|378:162|372:206,1,94.499997116089,2|2,1:2|2:2,0:0:0:0:
277,322,127147,2,0,P|219:331|83:370,1,188.999994232178,2|2,1:2|1:2,0:0:0:0:
0,210,127650,2,0,P|90:201|150:270,2,188.999994232178,2|2|2,2:2|2:2|2:2,0:0:0:0:
173,138,128488,6,0,P|229:122|273:103,1,94.499997116089,2|0,1:2|0:0,0:0:0:0:
280,125,128991,6,0,P|292:72|307:23,1,94.499997116089,2|0,2:2|1:1,0:0:0:0:
328,23,129493,6,0,P|296:10|275:3,1,47.2499985580445,2|0,1:2|0:0,0:0:0:0:
216,52,129661,2,0,P|187:57|160:63,1,47.2499985580445,2|0,2:2|0:0,0:0:0:0:
61,16,129829,6,0,P|78:84|89:217,1,188.999994232178,2|2,1:2|1:2,0:0:0:0:
11,307,130331,2,0,P|87:318|160:225,1,188.999994232178,2|0,2:2|0:0,0:0:0:0:
256,142,130834,2,0,P|196:157|143:165,1,94.499997116089,0|2,1:1|2:2,0:0:0:0:
144,321,131169,2,0,P|193:306|307:286,1,141.749995674133,2|0,1:2|0:0,0:0:0:0:
297,277,131505,2,0,P|274:330|265:375,1,94.499997116089,2|2,1:2|2:2,0:0:0:0:
352,189,131840,2,0,P|317:142|283:112,1,94.499997116089,2|0,1:2|0:0,0:0:0:0:
415,300,132175,2,0,P|474:292|513:274,1,94.499997116089,2|0,1:2|0:0,0:0:0:0:
352,189,132510,2,0,P|293:201|123:225,1,188.999994232178,2|2,1:2|1:2,0:0:0:0:
82,362,133013,2,0,P|21:324|61:205,2,188.999994232178,2|0|0,2:2|0:0|0:0,0:0:0:0:
240,294,133851,6,0,P|246:245|268:127,1,157.499995193482,2|0,1:2|1:1,0:0:0:0:
265,138,134857,6,0,P|254:96|243:58,1,52.5,10|0,2:2|0:0,0:0:0:0:
369,11,135024,2,0,P|411:25|433:32,1,52.5,2|0,2:2|0:0,0:0:0:0:
512,174,135192,2,0,P|460:185|410:201,1,105,4|0,1:2|0:0,0:0:0:0:
274,379,135527,2,0,P|282:342|288:318,1,52.5,10|0,2:2|0:0,0:0:0:0:
189,285,135695,2,0,P|180:230|163:160,1,105,2|0,1:2|0:0,0:0:0:0:
285,28,136030,2,0,P|242:44|223:50,1,52.5,0|0,1:1|0:0,0:0:0:0:
184,174,136197,2,0,P|144:154|79:140,1,105,10|2,2:2|2:2,0:0:0:0:
32,373,136532,6,0,P|65:363|89:358,1,52.5,4|0,1:2|0:0,0:0:0:0:
189,285,136700,2,0,P|194:310|201:336,3,52.5,8|0|2|0,2:2|3:3|3:2|3:3,0:0:0:0:
307,221,137035,2,0,P|358:240|419:257,1,105,2|0,1:2|0:0,0:0:0:0:
497,23,137370,2,0,P|482:67|480:85,1,52.5,0|0,1:1|0:0,0:0:0:0:
354,153,137538,2,0,P|347:107|328:36,1,105,10|2,2:2|2:2,0:0:0:0:
100,14,137873,6,0,P|52:25|16:65,1,105,4|0,1:2|0:0,0:0:0:0:
200,216,138208,2,0,P|209:168|218:140,1,52.5,10|0,2:2|0:0,0:0:0:0:
53,233,138376,2,0,P|66:301|69:346,1,105,2|0,1:2|0:0,0:0:0:0:
278,381,138711,2,0,P|309:368|334:362,1,52.5,0|0,1:1|1:1,0:0:0:0:
400,227,138879,2,0,P|345:215|281:200,1,105,8|2,2:2|2:2,0:0:0:0:
162,13,139214,6,0,P|174:58|178:88,1,52.5,12|0,2:2|3:3,0:0:0:0:
282,214,139382,2,0,P|314:199|337:191,1,52.5,0|0,3:3|3:3,0:0:0:0:
476,95,139549,2,0,P|451:86|427:77,1,52.5,10|0,2:2|0:0,0:0:0:0:
283,1,139717,2,0,P|264:72|250:130,1,105,2|0,1:2|0:0,0:0:0:0:
112,346,140052,2,0,P|100:289|84:230,1,105,2|8,1:2|2:2,0:0:0:0:
19,31,140387,2,0,P|58:42|77:47,1,52.5,2|0,1:2|1:1,0:0:0:0:
101,232,140555,6,0,P|47:249|-15:265,1,105,12|0,2:2|1:1,0:0:0:0:
303,355,140890,2,0,P|357:338|419:322,1,105,0|8,1:1|2:2,0:0:0:0:
243,40,141225,6,0,P|232:78|223:109,1,52.5,0|0,1:1|0:0,0:0:0:0:
360,260,141393,2,0,P|349:222|345:189,1,52.5,0|0,1:1|0:0,0:0:0:0:
446,63,141560,2,0,P|478:72|505:79,1,52.5,8|0,2:2|0:0,0:0:0:0:
251,205,141728,2,0,P|202:220|113:250,1,105,6|0,1:2|0:0,0:0:0:0:
480,340,142063,6,0,P|489:304|497:277,2,52.5,10|0|10,2:2|0:0|1:2,0:0:0:0:
255,15,142398,2,0,P|260:40|266:66,2,52.5,0|8|10,0:0|2:2|2:2,0:0:0:0:
43,367,142734,6,0,P|9:374|-25:386,1,52.5,8|8,2:2|2:2,0:0:0:0:
195,244,142901,2,0,P|222:267|251:294,1,52.5,10|8,2:2|2:2,0:0:0:0:
19,204,143069,2,0,P|8:155|-3:127,1,52.5,8|8,2:2|2:2,0:0:0:0:
160,0,143236,6,0,P|141:61|99:269,1,251.999992309571,6|10,1:2|2:2,0:0:0:0:
335,383,143739,2,0,P|346:330|299:253,1,125.999996154785,2|0,1:2|0:0,0:0:0:0:
337,68,144074,2,0,P|290:84|268:87,1,62.9999980773926,2|0,1:2|0:0,0:0:0:0:
190,204,144242,2,0,P|140:179|57:155,1,125.999996154785,8|2,2:2|2:2,0:0:0:0:
52,371,144577,6,0,P|122:361|154:297,1,125.999996154785,0|2,1:1|2:2,0:0:0:0:
0,98,144912,2,0,P|18:174|21:257,1,125.999996154785,10|0,2:2|1:1,0:0:0:0:
211,384,145248,2,0,P|266:340|262:268,1,125.999996154785,2|0,2:2|1:1,0:0:0:0:
45,70,145583,2,0,P|21:164|4:279,1,188.999994232178,10|0,2:2|0:0,0:0:0:0:
0,150,145918,6,0,P|70:171|167:32,1,251.999992309571,2|10,1:2|2:2,0:0:0:0:
380,180,146421,2,0,P|430:187|508:206,1,125.999996154785,2|0,1:2|0:0,0:0:0:0:
262,60,146756,2,0,P|250:17|243:-17,1,62.9999980773926,2|0,1:2|0:0,0:0:0:0:
190,245,146924,2,0,P|132:258|54:284,1,125.999996154785,8|2,2:2|2:2,0:0:0:0:
413,382,147259,6,0,P|450:339|435:263,1,125.999996154785,0|0,1:1|1:1,0:0:0:0:
219,136,147594,2,0,P|182:179|197:255,1,125.999996154785,8|0,2:2|1:1,0:0:0:0:
457,63,147929,2,0,P|390:84|314:97,1,125.999996154785,2|2,2:2|1:2,0:0:0:0:
138,356,148264,2,0,P|212:332|342:310,1,188.999994232178,10|0,2:2|0:0,0:0:0:0:
138,356,148600,6,0,P|63:350|68:185,1,251.999992309571,6|10,1:2|2:2,0:0:0:0:
10,38,149102,2,0,P|65:100|230:174,1,251.999992309571,2|0,1:2|1:1,0:0:0:0:
308,21,149605,2,0,P|245:56|180:76,1,125.999996154785,8|2,2:2|2:2,0:0:0:0:
120,247,149940,6,0,P|202:266|325:389,1,251.999992309571,2|10,1:2|2:2,0:0:0:0:
477,273,150443,2,0,P|498:215|354:100,1,251.999992309571,2|2,1:2|1:2,0:0:0:0:
262,278,150946,2,0,P|254:314|248:348,2,62.9999980773926,8|0|2,2:2|0:0|2:2,0:0:0:0:
129,55,151281,6,0,P|147:158|164:319,1,251.999992309571,0|10,1:1|2:2,0:0:0:0:
295,148,151784,2,0,P|197:129|112:266,1,251.999992309571,2|2,1:2|1:2,0:0:0:0:
326,384,152287,2,0,P|338:319|358:254,1,125.999996154785,10|0,2:2|0:0,0:0:0:0:
505,1,152622,6,0,P|493:39|488:78,1,62.9999980773926,0|0,1:1|3:3,0:0:0:0:
419,190,152789,2,0,P|460:174|494:169,1,62.9999980773926,0|0,3:3|3:3,0:0:0:0:
358,69,152957,2,0,P|312:60|218:34,1,125.999996154785,10|0,2:2|1:1,0:0:0:0:
109,237,153292,2,0,P|170:249|231:266,1,125.999996154785,2|0,2:2|1:1,0:0:0:0:
19,17,153627,2,0,P|33:99|170:116,1,188.999994232178,10|0,2:2|0:0,0:0:0:0:
19,17,153963,6,0,P|99:-5|195:157,1,251.999992309571,6|10,1:2|2:2,0:0:0:0:
120,320,154465,2,0,P|69:330|-1:354,1,125.999996154785,2|0,1:2|0:0,0:0:0:0:
254,222,154801,2,0,P|267:174|281:135,1,62.9999980773926,2|0,1:2|0:0,0:0:0:0:
55,95,154968,2,0,P|71:170|77:233,1,125.999996154785,10|2,2:2|2:2,0:0:0:0:
352,375,155303,6,0,P|410:355|437:285,1,125.999996154785,0|2,1:1|2:2,0:0:0:0:
369,96,155639,2,0,P|308:82|250:59,1,125.999996154785,10|0,2:2|1:1,0:0:0:0:
509,346,155974,2,0,P|534:284|490:217,1,125.999996154785,2|0,2:2|1:1,0:0:0:0:
161,42,156309,2,0,P|255:34|345:8,1,188.999994232178,10|0,2:2|0:0,0:0:0:0:
446,73,156644,6,0,P|376:48|265:199,1,251.999992309571,2|10,1:2|2:2,0:0:0:0:
149,378,157147,2,0,P|209:360|278:348,1,125.999996154785,2|0,1:2|0:0,0:0:0:0:
66,235,157482,2,0,P|28:224|-4:213,1,62.9999980773926,2|0,1:2|0:0,0:0:0:0:
165,136,157650,2,0,P|141:56|130:-5,1,125.999996154785,8|2,2:2|2:2,0:0:0:0:
436,200,157985,6,0,P|457:257|434:314,1,125.999996154785,0|0,1:1|1:1,0:0:0:0:
268,225,158320,2,0,P|246:167|269:110,1,125.999996154785,8|0,2:2|1:1,0:0:0:0:
351,351,158655,2,0,P|309:359|227:386,1,125.999996154785,2|0,2:2|1:1,0:0:0:0:
181,67,158991,2,0,P|268:93|378:108,1,188.999994232178,10|0,2:2|0:0,0:0:0:0:
191,53,159326,6,0,P|106:78|99:231,1,251.999992309571,6|10,1:2|2:2,0:0:0:0:
301,384,159829,2,0,P|257:338|201:311,1,125.999996154785,2|0,1:2|0:0,0:0:0:0:
434,154,160164,2,0,P|416:215|421:277,1,125.999996154785,2|8,1:2|2:2,0:0:0:0:
169,154,160499,2,0,P|230:139|282:103,1,125.999996154785,2|0,2:2|1:1,0:0:0:0:
304,124,161002,6,0,P|293:56|289:-2,1,125.999996154785,10|0,2:2|1:1,0:0:0:0:
461,245,161337,2,0,P|450:177|446:119,1,125.999996154785,2|0,2:2|1:1,0:0:0:0:
215,220,161672,2,0,P|204:152|200:94,1,125.999996154785,10|0,2:2|0:0,0:0:0:0:
0,384,162007,6,0,P|40:314|208:317,1,251.999992309571,2|10,1:2|2:2,0:0:0:0:
341,122,162510,2,0,P|264:159|62:187,1,251.999992309571,2|2,1:2|1:2,0:0:0:0:
269,381,163013,2,0,P|282:311|305:250,1,125.999996154785,10|0,2:2|0:0,0:0:0:0:
145,34,163348,6,0,P|167:112|169:180,1,125.999996154785,0|0,1:1|1:1,0:0:0:0:
379,313,163683,2,0,P|439:281|449:206,1,125.999996154785,8|0,2:2|1:1,0:0:0:0:
486,3,164019,2,0,P|447:16|412:27,1,62.9999980773926,0|0,1:1|0:0,0:0:0:0:
248,176,164186,2,0,P|288:188|322:204,1,62.9999980773926,8|8,2:2|2:2,0:0:0:0:
440,381,164354,2,0,P|424:335|419:301,1,62.9999980773926,10|0,2:2|3:3,0:0:0:0:
497,102,164521,2,0,P|503:132|512:162,1,62.9999980773926,0|0,3:3|3:3,0:0:0:0:
315,303,164689,6,0,P|249:323|177:355,1,125.999996154785,6|0,1:2|0:0,0:0:0:0:
0,167,165024,2,0,P|58:187|105:198,1,62.9999980773926,10|0,2:2|0:0,0:0:0:0:
190,114,165192,2,0,P|173:50|165:-9,1,125.999996154785,2|8,1:2|2:2,0:0:0:0:
383,251,165527,2,0,P|366:311|357:374,1,125.999996154785,2|8,1:2|2:2,0:0:0:0:
49,314,165862,6,0,P|42:271|91:206,1,125.999996154785,2|12,1:2|2:2,0:0:0:0:
334,49,166197,2,0,P|376:66|403:73,1,62.9999980773926,2|0,1:2|0:0,0:0:0:0:
285,231,166365,2,0,P|226:239|135:261,1,125.999996154785,10|2,2:2|1:2,0:0:0:0:
48,23,166700,2,0,P|131:33|159:103,1,125.999996154785,8|2,2:2|1:2,0:0:0:0:
359,384,167035,2,0,P|376:303|397:238,1,125.999996154785,10|2,2:2|1:2,0:0:0:0:
87,131,167370,6,0,P|101:190|102:217,1,62.9999980773926,14|0,2:2|0:0,0:0:0:0:
222,370,167538,2,0,P|228:325|239:289,1,62.9999980773926,0|0,1:1|0:0,0:0:0:0:
103,334,167706,2,0,P|63:346|36:358,1,62.9999980773926,2|0,1:2|0:0,0:0:0:0:
184,220,167873,2,0,P|244:197|304:148,1,125.999996154785,14|0,2:2|1:1,0:0:0:0:
495,7,168208,2,0,P|480:59|475:94,1,62.9999980773926,0|0,1:1|0:0,0:0:0:0:
491,271,168376,2,0,P|443:246|356:224,1,125.999996154785,12|0,2:2|0:0,0:0:0:0:
139,0,168711,6,0,P|147:44|150:77,1,62.9999980773926,4|0,1:2|0:0,0:0:0:0:
6,267,168879,2,0,P|86:252|228:90,1,251.999992309571,8|2,2:2|1:2,0:0:0:0:
138,265,169382,2,0,P|123:333|121:351,2,62.9999980773926,10|0|0,2:2|3:3|3:3,0:0:0:0:
387,139,169717,2,0,P|294:120|127:49,1,251.999992309571,10|4,2:2|1:2,0:0:0:0:
256,192,170136,12,8,171393,2:2:0:0:
256,192,171477,12,2,172398,1:2:0:0:
14,67,172734,6,0,P|77:91|221:117,1,210,6|0,1:2|1:1,0:0:0:0:
285,6,173236,2,0,P|231:20|176:30,1,105,0|0,0:0|1:1,0:0:0:0:
197,208,173572,2,0,P|251:194|306:184,1,105,0|0,0:0|1:1,0:0:0:0:
249,93,173907,2,0,P|234:138|231:158,2,52.5,2|8|10,3:2|2:2|2:2,0:0:0:0:
492,373,174410,2,0,P|479:334|477:310,1,52.5,2|0,1:2|0:0,0:0:0:0:
499,234,174577,2,0,P|435:251|375:265,1,105,2|0,2:2|1:1,0:0:0:0:
297,358,174912,2,0,P|245:370|195:384,1,105,2|0,2:2|1:1,0:0:0:0:
101,271,175248,2,0,P|66:281|36:288,1,52.5,2|0,2:2|0:0,0:0:0:0:
14,384,175415,6,0,P|35:281|52:170,1,210,4|0,1:2|1:1,0:0:0:0:
135,20,175918,2,0,P|187:33|225:85,1,105,0|0,0:0|1:1,0:0:0:0:
135,227,176253,2,0,P|83:214|45:162,1,105,0|0,0:0|1:1,0:0:0:0:
46,40,176588,2,0,P|60:91|64:113,2,52.5,2|8|10,3:2|2:2|2:2,0:0:0:0:
213,363,177091,2,0,P|220:328|229:298,1,52.5,2|0,1:2|0:0,0:0:0:0:
176,222,177259,2,0,P|237:233|290:243,1,105,2|0,2:2|1:1,0:0:0:0:
350,351,177594,2,0,P|411:362|464:372,1,105,2|0,2:2|1:1,0:0:0:0:
360,146,177929,2,0,P|405:157|427:163,1,52.5,2|0,2:2|0:0,0:0:0:0:
504,210,178097,6,0,P|431:169|411:20,1,210,6|2,1:2|1:2,0:0:0:0:
381,235,178600,2,0,P|329:247|276:279,1,105,2|0,2:2|1:1,0:0:0:0:
212,94,178935,2,0,P|264:82|317:50,1,105,2|2,2:2|1:2,0:0:0:0:
438,137,179270,2,0,P|448:178|460:206,2,52.5,0|8|8,3:3|2:2|2:2,0:0:0:0:
46,361,179773,2,0,P|56:323|59:283,1,52.5,0|0,1:1|0:0,0:0:0:0:
16,221,179940,2,0,P|75:230|131:235,1,105,0|0,0:0|1:1,0:0:0:0:
178,340,180276,2,0,P|230:345|282:353,1,105,0|2,0:0|1:2,0:0:0:0:
364,193,180611,2,0,P|415:203|427:206,1,52.5,0|0,0:0|0:0,0:0:0:0:
507,158,180778,6,0,P|438:174|384:334,1,210,4|2,1:2|1:2,0:0:0:0:
507,384,181281,2,0,P|523:333|511:280,1,105,2|0,2:2|1:1,0:0:0:0:
352,138,181616,2,0,P|290:158|224:169,1,105,0|0,0:0|1:1,0:0:0:0:
29,309,181951,2,0,P|54:314|80:321,1,52.5,2|8,3:2|2:2,0:0:0:0:
178,340,182119,6,0,P|101:323|49:184,1,210,10|2,2:2|1:2,0:0:0:0:
156,113,182622,2,0,P|138:180|131:259,1,105,2|0,2:2|1:1,0:0:0:0:
0,0,182957,2,0,P|18:67|25:146,1,105,2|0,2:2|1:1,0:0:0:0:
239,110,183292,2,0,P|230:64|228:32,1,52.5,2|0,2:2|0:0,0:0:0:0:
329,60,183460,6,0,P|227:71|153:1,1,210,4|0,1:2|1:1,0:0:0:0:
326,167,183963,2,0,P|373:148|440:135,1,105,0|0,0:0|1:1,0:0:0:0:
505,335,184298,2,0,P|443:340|394:295,1,105,0|2,0:0|1:2,0:0:0:0:
512,171,184633,2,0,P|499:221|496:238,1,52.5,2|8,3:2|2:2,0:0:0:0:
336,268,184801,6,0,P|269:283|210:301,1,105,10|2,2:2|2:2,0:0:0:0:
113,159,185136,2,0,P|127:116|130:90,1,52.5,0|0,1:1|0:0,0:0:0:0:
20,241,185303,2,0,P|40:310|48:351,1,105,2|0,2:2|1:1,0:0:0:0:
227,181,185639,2,0,P|229:127|191:68,1,105,2|0,2:2|1:1,0:0:0:0:
50,24,185974,2,0,P|27:32|-3:39,1,52.5,2|0,2:2|0:0,0:0:0:0:
163,228,186141,6,0,P|241:197|501:403,1,420,4|0,1:2|1:1,0:0:0:0:
489,378,187147,2,0,P|443:339|440:286,1,105,2|2,1:2|3:2,0:0:0:0:
504,144,187482,6,0,P|433:203|90:270,1,420,10|0,2:2|1:1,0:0:0:0:
35,60,188488,2,0,P|87:55|144:103,1,105,8|2,2:2|2:2,0:0:0:0:
336,119,188823,6,0,P|242:120|160:228,1,210,4|2,1:2|1:2,0:0:0:0:
303,7,189326,2,0,P|350:87|485:104,1,210,2|2,2:2|2:2,0:0:0:0:
278,246,189829,2,0,P|273:193|258:143,1,105,0|2,1:1|2:2,0:0:0:0:
463,383,190164,6,0,P|472:315|485:252,2,105,0|2|2,1:1|3:2|1:2,0:0:0:0:
368,110,190667,2,0,P|359:154|356:174,1,52.5,0|0,3:3|3:3,0:0:0:0:
278,246,190834,2,0,P|224:261|156:281,1,105,2|0,1:2|3:3,0:0:0:0:
50,45,191169,2,0,P|100:59|151:73,1,105,2|2,1:2|3:2,0:0:0:0:
15,372,191505,6,0,B|-14:272|82:183|191:258|222:343|304:195|300:76|178:53|54:107|117:222,1,577.500017623902,4|0,1:2|1:1,0:0:0:0:
106,196,192510,2,0,P|136:204|171:212,1,57.7500017623902,8|0,2:2|0:0,0:0:0:0:
207,345,192678,2,0,P|179:339|152:332,1,57.7500017623902,2|2,2:2|2:2,0:0:0:0:
384,252,192845,2,0,B|345:173|388:83|388:83|345:173|234:169,2,346.500010574341,0|2|10,1:1|1:2|2:2,0:0:0:0:
238,384,194186,6,0,P|405:169|503:133,1,346.500010574341,2|2,1:2|2:2,0:0:0:0:
466,142,195024,2,0,P|452:102|446:69,5,57.7500017623902,2|0|10|0|0|0,1:2|0:0|2:2|0:0|0:0|0:0,0:0:0:0:
430,110,195527,6,0,P|433:81|434:53,3,57.7500017623902,2|2|2|0,1:2|2:2|2:2|0:0,0:0:0:0:
355,66,195862,2,0,P|292:58|196:39,1,115.50000352478,8|2,2:2|1:2,0:0:0:0:
381,267,196197,2,0,P|431:246|500:237,1,115.50000352478,2|2,2:2|1:2,0:0:0:0:
175,0,196532,2,0,P|124:51|139:128,1,115.50000352478,10|2,2:2|2:2,0:0:0:0:
435,360,196868,6,0,P|399:278|170:118,1,346.500010574341,4|2,1:2|2:2,0:0:0:0:
24,250,197538,2,0,P|59:241|93:228,3,57.7500017623902,0|0|0|0,1:1|0:0|1:1|0:0,0:0:0:0:
27,123,197873,2,0,P|36:60|46:-3,1,115.50000352478,8|2,2:2|2:2,0:0:0:0:
141,319,198208,6,0,P|129:258|109:106,2,173.250005287171,0|2|2,1:1|2:2|2:2,0:0:0:0:
233,41,198879,2,0,P|215:118|198:231,2,173.250005287171,2|2|2,1:2|2:2|2:2,0:0:0:0:
0,194,199549,2,0,P|183:151|499:390,1,577.500017623902,0|0,1:1|1:1,0:0:0:0:
491,376,200555,2,0,P|499:330|511:293,1,57.7500017623902,10|0,2:2|0:0,0:0:0:0:
414,222,200722,2,0,P|423:188|429:140,1,57.7500017623902,2|0,2:2|0:0,0:0:0:0:
312,359,200890,6,0,P|266:366|181:391,1,115.50000352478,0|0,1:1|3:3,0:0:0:0:
0,260,201225,2,0,P|56:250|112:234,1,115.50000352478,8|2,2:2|1:2,0:0:0:0:
112,234,201728,2,0,P|124:273|127:300,1,57.7500017623902,0|0,1:1|1:1,0:0:0:0:
222,151,201896,2,0,P|232:84|245:34,1,115.50000352478,10|2,2:2|2:2,0:0:0:0:
507,319,202231,6,0,P|437:343|393:372,1,115.50000352478,4|2,1:2|2:2,0:0:0:0:
311,98,202566,2,0,P|381:74|425:45,1,115.50000352478,10|2,2:2|1:2,0:0:0:0:
316,351,202901,2,0,P|270:301|289:234,1,115.50000352478,2|2,2:2|1:2,0:0:0:0:
497,17,203236,2,0,P|517:68|480:139,1,115.50000352478,10|2,2:2|2:2,0:0:0:0:
512,350,203572,6,0,P|461:334|393:326,1,115.50000352478,0|2,1:1|1:2,0:0:0:0:
141,214,203907,2,0,P|174:200|205:184,1,57.7500017623902,10|0,2:2|0:0,0:0:0:0:
264,86,204074,2,0,P|235:159|209:329,1,231.000007049561,2|2,1:2|1:2,0:0:0:0:
55,122,204577,2,0,P|51:63|35:3,1,115.50000352478,10|2,2:2|2:2,0:0:0:0:
1,318,204912,6,0,P|62:321|118:288,1,115.50000352478,0|2,1:1|2:2,0:0:0:0:
261,126,205248,2,0,P|197:105|136:78,1,115.50000352478,10|2,2:2|1:2,0:0:0:0:
154,382,205583,2,0,P|208:354|240:297,1,115.50000352478,2|2,2:2|1:2,0:0:0:0:
62,41,205918,2,0,P|74:108|81:190,1,115.50000352478,10|2,2:2|2:2,0:0:0:0:
318,370,206253,6,0,P|330:307|348:253,2,115.50000352478,0|2|10,1:1|1:2|2:2,0:0:0:0:
501,56,206756,2,0,P|417:37|269:236,1,346.500010574341,2|10,1:2|2:2,0:0:0:0:
413,353,207426,2,0,P|453:339|476:334,1,57.7500017623902,0|0,1:1|1:1,0:0:0:0:
187,161,207594,6,0,P|123:184|35:206,1,115.50000352478,12|0,2:2|0:0,0:0:0:0:
359,286,207929,2,0,P|371:227|389:163,1,115.50000352478,8|0,2:2|1:1,0:0:0:0:
66,0,208264,2,0,P|81:55|92:112,1,115.50000352478,10|2,2:2|1:2,0:0:0:0:
306,373,208600,2,0,P|366:377|415:332,1,115.50000352478,10|0,2:2|1:1,0:0:0:0:
274,13,208935,2,0,P|195:38|150:50,1,115.50000352478,10|0,2:2|1:1,0:0:0:0:
365,272,209270,2,0,P|375:207|387:147,1,115.50000352478,8|2,2:2|1:2,0:0:0:0:
210,121,209605,2,0,P|220:177|229:234,1,115.50000352478,10|0,2:2|1:1,0:0:0:0:
470,153,209940,2,0,P|457:94|396:55,1,115.50000352478,8|2,2:2|2:2,0:0:0:0:
244,252,210276,6,0,P|183:265|5:324,1,231.000007049561,12|0,2:2|1:1,0:0:0:0:
82,82,210778,2,0,P|191:119|303:146,1,231.000007049561,12|0,2:2|1:1,0:0:0:0:
183,321,211281,2,0,P|143:331|108:345,3,57.7500017623902,12|2|2|2,2:2|2:2|1:2|2:2,0:0:0:0:
270,369,211616,6,0,P|279:325|281:301,1,57.7500017623902,2|2,1:2|2:2,0:0:0:0:
207,172,211784,2,0,P|210:200|217:228,1,57.7500017623902,12|2,2:2|2:2,0:0:0:0:
387,350,211951,2,0,P|396:306|398:282,1,57.7500017623902,2|2,1:2|2:2,0:0:0:0:
298,96,212119,2,0,P|301:124|308:152,1,57.7500017623902,2|2,1:2|2:2,0:0:0:0:
507,131,212287,6,0,P|447:173|356:205,1,115.50000352478,12|0,2:2|1:1,0:0:0:0:
194,51,212538,2,0,P|241:83|298:96,1,115.50000352478,2|0,2:2|0:0,0:0:0:0:
317,319,212789,2,0,P|310:290|299:264,1,57.7500017623902,2|0,2:2|0:0,0:0:0:0:
512,0,212957,6,0,P|203:120|1:384,1,672,4|2,1:2|2:2,0:0:0:0:
256,192,214382,12,4,215639,2:2:0:0:
205,41,216979,6,0,P|212:81|219:167,1,125.999996154785,2|2,0:0|0:0,0:0:0:0:
300,191,217985,6,0,P|309:160|311:118,1,62.9999980773926,2|2,0:0|0:0,0:0:0:0:
218,166,219158,6,0,L|173:173,1,31.4999990386963,2|2,0:0|0:0,0:0:0:0:
386,284,219661,6,0,P|356:255|300:190,1,125.999996154785,2|2,0:0|0:0,0:0:0:0:
219,218,220667,6,0,P|229:248|253:283,1,62.9999980773926,2|2,0:0|0:0,0:0:0:0:
301,192,221840,6,0,L|333:159,1,31.4999990386963,2|2,0:0|0:0,0:0:0:0:
96,193,222343,6,0,P|136:199|220:219,1,125.999996154785,2|2,0:0|0:0,0:0:0:0:
268,148,223348,6,0,P|241:129|201:115,1,62.9999980773926,2|2,0:0|0:0,0:0:0:0:
219,218,224521,6,0,L|211:262,1,31.4999990386963,2|2,0:0|0:0,0:0:0:0:
383,96,225024,6,0,P|347:115|268:149,1,125.999996154785,2|2,0:0|0:0,0:0:0:0:
208,344,226030,6,0,P|226:307|271:233,1,125.999996154785,2|4,0:0|1:2,0:0:0:0:
270,235,227035,6,0,P|257:199|244:109,1,125.999996154785,2|2,0:0|0:0,0:0:0:0:
64,59,227706,6,0,B|43:37|50:16|50:16|71:23|73:54,1,94.499997116089,0|0,0:0|0:0,0:0:0:0:
97,82,228041,2,0,B|126:87|133:108|133:108|112:115|92:91,1,94.499997116089,2|0,2:2|0:0,0:0:0:0:
56,83,228376,2,0,B|28:96|10:83|10:83|23:65|54:72,1,94.499997116089,8|0,0:1|0:0,0:0:0:0:
89,58,228711,2,0,B|103:31|125:31|125:31|125:53|96:65,1,94.499997116089,2|0,2:2|0:0,0:0:0:0:
69,96,229046,6,0,P|45:151|36:190,1,84,2|2,0:0|0:0,0:0:0:0:
89,250,229549,2,0,P|48:256|8:268,2,84,2|2|2,0:0|0:0|0:0,0:0:0:0:
265,333,230387,6,0,B|286:355|279:376|279:376|258:369|256:338,1,94.499997116089,2|0,2:2|0:0,0:0:0:0:
232,310,230722,2,0,B|202:304|195:283|195:283|216:276|236:300,1,94.499997116089,2|0,2:2|0:0,0:0:0:0:
273,308,231057,2,0,B|300:294|318:307|318:307|305:325|274:318,1,94.499997116089,8|0,0:1|0:0,0:0:0:0:
240,334,231392,2,0,B|225:360|203:360|203:360|203:338|232:326,1,94.499997116089,2|0,2:2|0:0,0:0:0:0:
252,295,231728,6,0,P|272:218|275:198,1,84,2|2,0:0|0:0,0:0:0:0:
344,152,232231,2,0,P|324:75|321:55,2,84,2|2|2,0:0|0:0|0:0,0:0:0:0:
440,191,233069,6,0,P|380:202|229:42,1,293.999991027832,2|8,2:2|0:1,0:0:0:0:
229,54,234074,2,0,P|267:40|320:55,1,73.4999977569581,2|0,0:0|0:0,0:0:0:0:
384,3,234410,6,0,P|379:64|373:131,1,105,2|0,2:0|0:0,0:0:0:0:
385,118,234912,6,0,P|380:179|378:207,1,84,2|0,2:0|0:0,0:0:0:0:
384,213,235415,6,0,L|381:251,2,26.25
256,192,236086,12,2,236756,2:2:0:0:
229,52,237091,6,0,P|233:135|163:97,1,188.999994232178,6|0,1:2|0:0,0:0:0:0:
165,106,237426,2,0,P|158:65|148:28,1,62.9999980773926,10|0,2:2|0:0,0:0:0:0:
8,259,237594,2,0,P|68:242|131:232,1,125.999996154785,2|0,1:2|0:0,0:0:0:0:
314,280,237929,2,0,P|306:341|256:376,1,125.999996154785,2|8,1:2|2:2,0:0:0:0:
72,97,238264,2,0,P|79:127|84:158,1,62.9999980773926,2|0,2:2|0:0,0:0:0:0:
8,259,238432,6,0,P|79:270|238:326,1,188.999994232178,0|0,1:1|0:0,0:0:0:0:
255,376,238767,2,0,P|306:341|314:280,1,125.999996154785,10|0,2:2|1:1,0:0:0:0:
437,125,239102,2,0,P|366:105|317:79,1,125.999996154785,2|0,2:2|1:1,0:0:0:0:
13,110,239438,2,0,P|6:49|116:88,1,188.999994232178,10|0,2:2|0:0,0:0:0:0:
192,5,239773,6,0,P|202:100|221:193,1,188.999994232178,2|0,1:2|0:0,0:0:0:0:
220,191,240108,2,0,P|178:178|133:175,1,62.9999980773926,10|0,2:2|0:0,0:0:0:0:
301,375,240276,2,0,P|318:303|338:243,1,125.999996154785,2|0,1:2|0:0,0:0:0:0:
512,147,240611,2,0,P|471:97|403:91,1,125.999996154785,2|8,1:2|2:2,0:0:0:0:
179,268,240946,2,0,P|208:273|238:284,1,62.9999980773926,2|0,2:2|0:0,0:0:0:0:
394,345,241114,6,0,P|382:276|353:105,1,188.999994232178,0|0,1:1|0:0,0:0:0:0:
413,88,241449,2,0,P|473:98|511:146,1,125.999996154785,8|0,2:2|1:1,0:0:0:0:
253,16,241784,2,0,P|269:90|278:155,1,125.999996154785,2|2,2:2|1:2,0:0:0:0:
120,344,242119,2,0,P|32:342|57:242,1,188.999994232178,10|0,2:2|0:0,0:0:0:0:
14,155,242454,6,0,P|74:185|205:223,1,188.999994232178,6|0,1:2|0:0,0:0:0:0:
190,220,242789,2,0,P|174:267|171:295,1,62.9999980773926,10|0,2:2|0:0,0:0:0:0:
317,370,242957,2,0,P|385:336|386:171,1,251.999992309571,2|0,1:2|1:1,0:0:0:0:
255,76,243460,2,0,P|248:45|242:14,2,62.9999980773926,8|0|2,2:2|0:0|2:2,0:0:0:0:
499,291,243795,6,0,P|510:229|525:163,1,125.999996154785,2|0,1:2|0:0,0:0:0:0:
322,177,244130,2,0,P|286:167|240:155,1,62.9999980773926,10|0,2:2|0:0,0:0:0:0:
499,291,244298,2,0,P|381:270|317:370,2,251.999992309571,2|2|2,1:2|1:2|2:2,0:0:0:0:
317,370,245136,6,0,P|253:347|42:321,1,251.999992309571,0|10,1:1|2:2,0:0:0:0:
7,95,245639,2,0,P|70:87|134:67,1,125.999996154785,2|0,1:2|0:0,0:0:0:0:
287,197,245974,2,0,P|264:248|261:278,1,62.9999980773926,2|0,1:2|0:0,0:0:0:0:
176,384,246141,2,0,P|167:319|145:239,1,125.999996154785,10|0,2:2|0:0,0:0:0:0:
457,19,246477,6,0,P|451:63|442:110,1,62.9999980773926,0|0,1:1|3:3,0:0:0:0:
391,257,246644,2,0,P|431:238|467:231,1,62.9999980773926,0|0,3:3|3:3,0:0:0:0:
350,125,246812,2,0,P|281:111|193:82,1,125.999996154785,10|0,2:2|1:1,0:0:0:0:
41,311,247147,2,0,P|101:293|163:281,1,125.999996154785,2|0,2:2|1:1,0:0:0:0:
1,42,247482,2,0,P|15:121|27:261,1,188.999994232178,10|0,2:2|0:0,0:0:0:0:
18,24,247817,6,0,P|84:-2|144:97,1,188.999994232178,6|0,1:2|0:0,0:0:0:0:
148,79,248153,2,0,P|101:89|66:103,1,62.9999980773926,10|0,2:2|0:0,0:0:0:0:
265,0,248320,2,0,P|246:74|235:146,1,125.999996154785,2|0,1:2|0:0,0:0:0:0:
452,298,248655,2,0,P|410:342|349:339,1,125.999996154785,2|8,1:2|2:2,0:0:0:0:
122,207,248991,2,0,P|152:197|182:191,1,62.9999980773926,2|0,2:2|0:0,0:0:0:0:
339,61,249158,6,0,P|357:153|368:247,1,188.999994232178,0|0,1:1|0:0,0:0:0:0:
349,339,249493,2,0,P|409:342|451:297,1,125.999996154785,10|0,2:2|1:1,0:0:0:0:
237,122,249829,2,0,P|177:105|108:74,1,125.999996154785,2|0,2:2|1:1,0:0:0:0:
11,322,250164,2,0,P|9:242|106:244,1,188.999994232178,10|0,2:2|0:0,0:0:0:0:
100,328,250499,6,0,P|175:332|300:354,1,188.999994232178,2|0,1:2|0:0,0:0:0:0:
287,350,250834,2,0,P|278:307|272:276,1,62.9999980773926,10|0,2:2|0:0,0:0:0:0:
445,161,251002,2,0,P|378:181|312:195,1,125.999996154785,2|0,1:2|0:0,0:0:0:0:
159,0,251337,2,0,P|111:31|108:106,1,125.999996154785,2|8,1:2|2:2,0:0:0:0:
362,297,251672,2,0,P|368:327|374:358,1,62.9999980773926,2|0,2:2|0:0,0:0:0:0:
372,98,251840,6,0,P|284:113|152:160,1,188.999994232178,0|0,1:1|0:0,0:0:0:0:
103,97,252175,2,0,P|109:36|157:0,1,125.999996154785,8|0,2:2|1:1,0:0:0:0:
122,281,252510,2,0,P|75:268|-8:253,1,125.999996154785,2|0,2:2|1:1,0:0:0:0:
278,359,252845,2,0,P|356:357|341:251,1,188.999994232178,10|0,2:2|0:0,0:0:0:0:
428,154,253181,6,0,P|352:185|195:221,1,188.999994232178,6|0,1:2|0:0,0:0:0:0:
248,212,253516,2,0,P|262:252|268:281,1,62.9999980773926,10|0,2:2|0:0,0:0:0:0:
485,375,253683,2,0,P|514:319|470:244,1,125.999996154785,2|0,1:2|0:0,0:0:0:0:
243,50,254019,2,0,P|302:71|363:85,1,125.999996154785,2|8,1:2|2:2,0:0:0:0:
179,285,254354,2,0,P|139:301|104:322,1,62.9999980773926,2|0,2:2|0:0,0:0:0:0:
7,376,254521,6,0,P|66:337|97:206,1,188.999994232178,0|0,1:1|0:0,0:0:0:0:
0,136,254857,2,0,P|17:202|28:274,1,125.999996154785,10|0,2:2|1:1,0:0:0:0:
245,157,255192,2,0,P|234:94|219:34,1,125.999996154785,2|0,2:2|1:1,0:0:0:0:
400,255,255527,2,0,P|415:315|426:378,1,125.999996154785,10|0,2:2|0:0,0:0:0:0:
488,48,255862,6,0,P|428:31|340:129,1,188.999994232178,2|0,1:2|0:0,0:0:0:0:
341,108,256197,2,0,P|354:158|358:185,1,62.9999980773926,10|0,2:2|0:0,0:0:0:0:
276,297,256365,2,0,P|208:280|130:274,1,125.999996154785,2|0,1:2|0:0,0:0:0:0:
5,105,256700,2,0,P|34:97|70:84,1,62.9999980773926,2|0,1:2|0:0,0:0:0:0:
183,7,256868,2,0,P|165:70|150:135,1,125.999996154785,10|0,2:2|0:0,0:0:0:0:
64,374,257203,6,0,P|51:339|35:309,1,62.9999980773926,0|0,1:1|0:0,0:0:0:0:
221,198,257370,2,0,P|206:241|201:266,1,62.9999980773926,0|0,1:1|0:0,0:0:0:0:
0,201,257538,2,0,P|52:225|119:251,1,125.999996154785,8|0,2:2|3:3,0:0:0:0:
448,370,257873,2,0,P|425:317|406:236,1,125.999996154785,0|8,1:1|2:2,0:0:0:0:
319,11,258208,2,0,P|296:49|273:74,1,62.9999980773926,10|0,2:2|3:3,0:0:0:0:
439,174,258376,2,0,P|479:185|514:197,1,62.9999980773926,0|0,3:3|3:3,0:0:0:0:
308,315,258544,6,0,P|329:242|344:171,1,125.999996154785,6|0,1:2|0:0,0:0:0:0:
196,47,258879,2,0,P|213:99|217:123,1,62.9999980773926,10|0,2:2|0:0,0:0:0:0:
119,212,259046,2,0,P|61:230|-16:259,1,125.999996154785,2|8,1:2|2:2,0:0:0:0:
292,324,259382,2,0,P|355:341|427:365,1,125.999996154785,2|8,1:2|2:2,0:0:0:0:
84,129,259717,6,0,P|97:61|104:4,1,125.999996154785,2|12,1:2|2:2,0:0:0:0:
371,264,260052,2,0,P|359:217|357:181,1,62.9999980773926,2|0,1:2|0:0,0:0:0:0:
460,47,260220,2,0,P|397:73|323:89,1,125.999996154785,10|2,2:2|1:2,0:0:0:0:
52,337,260555,2,0,P|115:311|189:295,1,125.999996154785,8|2,2:2|1:2,0:0:0:0:
446,377,260890,2,0,P|489:341|487:267,1,125.999996154785,10|2,2:2|1:2,0:0:0:0:
168,23,261225,6,0,P|184:68|189:98,1,62.9999980773926,12|0,2:2|0:0,0:0:0:0:
292,278,261393,2,0,P|302:238|313:193,1,62.9999980773926,0|0,1:1|0:0,0:0:0:0:
404,71,261560,2,0,P|365:58|336:43,1,62.9999980773926,2|0,1:2|0:0,0:0:0:0:
224,192,261728,2,0,P|165:208|97:238,1,125.999996154785,14|0,2:2|1:1,0:0:0:0:
379,256,262063,2,0,P|436:280|497:297,1,125.999996154785,0|12,1:1|2:2,0:0:0:0:
325,94,262398,2,0,P|317:53|310:22,1,62.9999980773926,0|0,1:1|1:1,0:0:0:0:
511,383,262566,6,0,P|308:120|0:0,1,672,12|4,2:2|1:2,0:0:0:0:
256,192,263991,12,14,266588,2:2:0:0:
256,192,266672,12,14,267929,2:2:0:0:
256,192,268013,12,14,268935,2:2:0:0:
482,378,269270,6,0,P|366:129|25:34,1,630,4|0,1:2|1:1,0:0:0:0:
30,22,270611,2,0,P|91:13|144:-4,1,105,0|2,1:1|2:2,0:0:0:0:
165,112,270946,2,0,P|104:121|51:138,1,105,2|2,1:2|2:2,0:0:0:0:
23,36,271281,2,0,P|84:27|137:10,1,105,2|2,1:2|2:2,0:0:0:0:
158,126,271616,2,0,P|97:135|44:152,1,105,2|2,1:2|2:2,0:0:0:0:
316,47,271951,2,0,P|293:110|263:276,1,210,12|0,1:2|3:3,0:0:0:0:
198,369,272454,2,0,P|180:265|146:166,1,210,0|8,3:3|2:2,0:0:0:0:
365,228,272957,2,0,P|347:292|342:340,1,105,8|8,2:2|2:2,0:0:0:0:
488,19,273292,6,0,L|502:75,1,47.2499985580445,10|0,2:2|0:0,0:0:0:0:
422,93,273460,6,0,L|421:149,1,47.2499985580445,8|0,2:2|0:0,0:0:0:0:
344,46,273627,6,0,L|328:106,1,47.2499985580445,8|0,2:2|0:0,0:0:0:0:
280,164,273795,6,0,L|301:228,1,47.2499985580445,8|8,2:2|2:2,0:0:0:0:
197,93,273963,6,0,L|174:171,1,52.5,8|0,2:2|0:0,0:0:0:0:
138,249,274130,6,0,L|150:330,1,52.5,0|0,3:3|0:0,0:0:0:0:
64,141,274298,6,0,L|72:208,1,52.5,0|0,3:3|0:0,0:0:0:0:
12,320,274465,6,0,L|-5:388,2,52.5,2|2|4,1:2|2:2|1:2,0:0:0:0:
256,192,274717,12,0,279996,0:0:0:0:
