osu file format v14

[General]
AudioFilename: audio.mp3
AudioLeadIn: 0
PreviewTime: 214549
Countdown: 0
SampleSet: Soft
StackLeniency: 0.7
Mode: 0
LetterboxInBreaks: 0
EpilepsyWarning: 1
WidescreenStoryboard: 1

[Editor]
Bookmarks: 143236,170052,174912,215639,226365
DistanceSpacing: 1.7
BeatDivisor: 4
GridSize: 16
TimelineZoom: 2.6

[Metadata]
Title:Rinne
TitleUnicode:輪廻
Artist:Yamamoto Mineko
ArtistUnicode:山本美禰子
Creator:Share
Version:Eternal feeling
Source:さくら、もゆ。-as the Night's, Reincarnation-
Tags:山本 美禰子 Sakura Moyu 2nd opening op2 Takayuki Ishikura 石倉 誉之 maro Masato Yokoe 横江将人 Kotaro Odaka 小高 光太郎 FVS-SAKREC Japanese Vocal FAVORITE 15th ANNIVERSARY SPECIAL LIVE Denkigai Matsuri 2019 SUMMER FVS-SAKOST OST Original Soundtrack CD Cherry Blossom Dark Fantasy Mahou Shoujo Catgirl eroge ero video hentai game galgame pop japanese j-pop jpop kowari kuki1537 Len Fast leominexd leomine - Ex - -_Ex_- Pado
BeatmapID:3501824
BeatmapSetID:1713744

[Difficulty]
HPDrainRate:5.4
CircleSize:4
OverallDifficulty:8.8
ApproachRate:9.4
SliderMultiplier:1.65
SliderTickRate:1

[Events]
//Background and Video events
0,0,"rinnebg.png",0,0
//Break Periods
2,215839,224789
//Storyboard Layer 0 (Background)
//Storyboard Layer 1 (Fail)
//Storyboard Layer 2 (Pass)
//Storyboard Layer 3 (Foreground)
//Storyboard Layer 4 (Overlay)
//Storyboard Sound Samples

[TimingPoints]
1114,335.195530726257,4,2,1,62,1,0
1114,-133.333333333333,4,2,1,62,0,0
11840,-111.111111111111,4,2,1,65,0,0
17122,-111.111111111111,4,2,1,65,0,0
17203,-90.9090909090909,4,2,1,80,0,0
17289,-90.9090909090909,4,2,1,80,0,0
22566,-133.333333333333,4,2,1,75,0,0
23658,-133.333333333333,4,2,1,75,0,0
23739,-100,4,2,1,75,0,0
23823,-100,4,2,1,75,0,0
23826,-100,4,2,1,75,0,0
23907,-111.111111111111,4,2,1,75,0,0
25248,-100,4,2,1,67,0,0
43602,-100,4,2,1,67,0,0
43854,-100,4,2,1,67,0,0
43937,-100,4,2,1,67,0,0
45192,-100,4,2,1,72,0,0
46619,-100,4,2,1,72,0,0
46700,-100,4,2,1,70,0,0
57345,-100,4,2,1,70,0,0
57426,-95.2380952380952,4,2,1,75,0,0
62789,-95.2380952380952,4,2,1,78,0,0
64465,-95.2380952380952,4,2,10,78,0,0
64801,-95.2380952380952,4,2,15,78,0,0
64968,-95.2380952380952,4,2,1,78,0,0
65136,-95.2380952380952,4,2,21,78,0,0
65306,-95.2380952380952,4,2,21,78,0,0
65390,-95.2380952380952,4,2,21,78,0,0
65471,-90.9090909090909,4,2,17,85,0,1
65806,-90.9090909090909,4,2,15,85,0,1
65974,-90.9090909090909,4,2,17,85,0,1
66309,-90.9090909090909,4,2,15,85,0,1
66979,-90.9090909090909,4,2,1,85,0,1
67147,-90.9090909090909,4,2,10,78,0,1
67483,-90.9090909090909,4,2,15,78,0,1
67818,-90.9090909090909,4,2,21,78,0,1
68153,-90.9090909090909,4,2,17,85,0,1
68488,-90.9090909090909,4,2,15,85,0,1
68656,-90.9090909090909,4,2,17,85,0,1
68991,-90.9090909090909,4,2,19,85,0,1
70331,-90.9090909090909,4,2,1,85,0,1
70499,-90.9090909090909,4,2,20,85,0,1
70753,-90.9090909090909,4,2,20,85,0,1
70834,-90.9090909090909,4,2,21,85,0,1
71088,-90.9090909090909,4,2,21,85,0,1
71169,-90.9090909090909,4,2,15,85,0,1
72007,-90.9090909090909,4,2,10,85,0,1
72175,-90.9090909090909,4,2,11,85,0,1
72510,-90.9090909090909,4,2,14,85,0,1
72678,-90.9090909090909,4,2,20,85,0,1
73013,-90.9090909090909,4,2,19,85,0,1
73348,-90.9090909090909,4,2,17,85,0,1
73851,-90.9090909090909,4,2,15,85,0,1
74019,-90.9090909090909,4,2,17,85,0,1
74354,-90.9090909090909,4,2,15,85,0,1
74521,-90.9090909090909,4,2,19,85,0,1
74857,-90.9090909090909,4,2,1,85,0,1
75192,-90.9090909090909,4,2,10,78,0,1
75359,-100,4,2,10,78,0,0
75528,-100,4,2,15,78,0,0
75863,-100,4,2,21,78,0,0
76197,-90.9090909090909,4,2,21,78,0,1
76198,-90.9090909090909,4,2,17,85,0,1
76533,-90.9090909090909,4,2,15,85,0,1
76701,-90.9090909090909,4,2,17,85,0,1
77036,-90.9090909090909,4,2,15,85,0,1
77706,-90.9090909090909,4,2,1,85,0,1
77874,-90.9090909090909,4,2,10,78,0,1
78210,-90.9090909090909,4,2,15,78,0,1
78545,-90.9090909090909,4,2,21,78,0,1
78880,-90.9090909090909,4,2,17,85,0,1
79215,-90.9090909090909,4,2,15,85,0,1
79383,-90.9090909090909,4,2,17,85,0,1
79718,-90.9090909090909,4,2,19,85,0,1
81058,-90.9090909090909,4,2,1,85,0,1
81226,-90.9090909090909,4,2,20,85,0,1
81561,-90.9090909090909,4,2,21,85,0,1
82734,-90.9090909090909,4,2,22,85,0,1
83069,-90.9090909090909,4,2,1,85,0,1
83236,-90.9090909090909,4,2,19,85,0,1
83572,-90.9090909090909,4,2,17,85,0,1
83907,-90.9090909090909,4,2,15,85,0,1
84242,-90.9090909090909,4,2,14,85,0,1
84577,-90.9090909090909,4,2,12,85,0,1
84745,-90.9090909090909,4,2,14,85,0,1
85080,-90.9090909090909,4,2,15,85,0,1
86588,-90.9090909090909,4,2,10,85,0,1
86672,-90.9090909090909,4,2,1,85,0,1
86924,-90.9090909090909,4,2,15,85,0,1
87259,-90.9090909090909,4,2,14,85,0,1
87426,-90.9090909090909,4,2,15,85,0,1
87762,-90.9090909090909,4,2,14,85,0,1
88097,-90.9090909090909,4,2,15,85,0,1
88600,-90.9090909090909,4,2,17,85,0,1
88767,-90.9090909090909,4,2,15,85,0,1
89102,-90.9090909090909,4,2,19,85,0,1
89438,-90.9090909090909,4,2,20,85,0,1
89524,-90.9090909090909,4,2,20,85,0,1
89605,-90.9090909090909,4,2,21,85,0,1
89940,-90.9090909090909,4,2,15,85,0,1
90865,-90.9090909090909,4,2,15,85,0,1
90946,-90.9090909090909,4,2,1,70,0,1
92035,-90.9090909090909,4,2,1,70,0,1
92119,-90.9090909090909,4,2,1,70,0,1
92205,-90.9090909090909,4,2,1,70,0,1
92287,-100,4,2,1,80,0,0
92541,-100,4,2,1,80,0,0
97650,-100,4,2,1,75,0,0
100250,-100,4,2,1,75,0,0
100331,-100,4,2,1,75,0,0
100667,-100,4,2,1,66,0,0
101002,-100,4,2,1,71,0,0
101337,-100,4,2,1,76,0,0
101591,-100,4,2,1,76,0,0
101672,-100,4,2,1,81,0,0
102007,-100,4,2,1,77,0,0
102343,-100,4,2,1,73,0,0
102678,-100,4,2,1,69,0,0
102932,-100,4,2,1,69,0,0
103013,-100,4,2,1,70,0,0
113739,-100,4,2,1,75,0,0
119021,-100,4,2,1,75,0,0
119102,-100,4,2,1,75,0,0
120362,-100,4,2,1,75,0,0
120697,-100,4,2,1,75,0,0
124384,-100,4,2,1,75,0,0
124465,-100,4,2,1,70,0,0
135110,-100,4,2,1,70,0,0
135192,-95.2380952380952,4,2,1,75,0,0
140555,-95.2380952380952,4,2,1,78,0,0
141647,-95.2380952380952,4,2,1,78,0,0
141982,-95.2380952380952,4,2,1,78,0,0
142231,-95.2380952380952,4,2,10,78,0,0
142567,-95.2380952380952,4,2,15,78,0,0
142652,-95.2380952380952,4,2,15,78,0,0
142734,-95.2380952380952,4,2,1,78,0,0
142820,-95.2380952380952,4,2,1,78,0,0
142902,-95.2380952380952,4,2,21,78,0,0
143236,-90.9090909090909,4,2,1,85,0,1
143237,-90.9090909090909,4,2,17,85,0,1
143572,-90.9090909090909,4,2,15,85,0,1
143740,-90.9090909090909,4,2,17,85,0,1
144075,-90.9090909090909,4,2,15,85,0,1
144745,-90.9090909090909,4,2,1,85,0,1
144913,-90.9090909090909,4,2,10,78,0,1
145249,-90.9090909090909,4,2,15,78,0,1
145584,-90.9090909090909,4,2,21,78,0,1
145919,-90.9090909090909,4,2,17,85,0,1
146254,-90.9090909090909,4,2,15,85,0,1
146422,-90.9090909090909,4,2,17,85,0,1
146757,-90.9090909090909,4,2,19,85,0,1
148097,-90.9090909090909,4,2,1,85,0,1
148265,-90.9090909090909,4,2,20,85,0,1
148518,-90.9090909090909,4,2,20,85,0,1
148600,-90.9090909090909,4,2,21,85,0,1
148854,-90.9090909090909,4,2,21,85,0,1
148935,-90.9090909090909,4,2,15,85,0,1
149773,-90.9090909090909,4,2,10,85,0,1
149941,-90.9090909090909,4,2,11,85,0,1
150276,-90.9090909090909,4,2,14,85,0,1
150444,-90.9090909090909,4,2,20,85,0,1
150779,-90.9090909090909,4,2,19,85,0,1
151114,-90.9090909090909,4,2,17,85,0,1
151617,-90.9090909090909,4,2,15,85,0,1
151785,-90.9090909090909,4,2,17,85,0,1
152120,-90.9090909090909,4,2,15,85,0,1
152287,-90.9090909090909,4,2,19,85,0,1
152622,-90.9090909090909,4,2,1,85,0,1
152958,-90.9090909090909,4,2,10,78,0,1
153125,-100,4,2,10,78,0,0
153294,-100,4,2,15,78,0,0
153629,-100,4,2,21,78,0,0
153963,-90.9090909090909,4,2,21,78,0,1
153964,-90.9090909090909,4,2,17,85,0,1
154299,-90.9090909090909,4,2,15,85,0,1
154467,-90.9090909090909,4,2,17,85,0,1
154802,-90.9090909090909,4,2,15,85,0,1
155472,-90.9090909090909,4,2,1,85,0,1
155640,-90.9090909090909,4,2,10,78,0,1
155976,-90.9090909090909,4,2,15,78,0,1
156311,-90.9090909090909,4,2,21,78,0,1
156646,-90.9090909090909,4,2,17,85,0,1
156981,-90.9090909090909,4,2,15,85,0,1
157149,-90.9090909090909,4,2,17,85,0,1
157484,-90.9090909090909,4,2,19,85,0,1
158824,-90.9090909090909,4,2,1,85,0,1
158992,-90.9090909090909,4,2,20,85,0,1
159327,-90.9090909090909,4,2,21,85,0,1
160500,-90.9090909090909,4,2,22,85,0,1
160835,-90.9090909090909,4,2,1,85,0,1
161002,-90.9090909090909,4,2,19,85,0,1
161338,-90.9090909090909,4,2,17,85,0,1
161673,-90.9090909090909,4,2,15,85,0,1
162008,-90.9090909090909,4,2,14,85,0,1
162343,-90.9090909090909,4,2,12,85,0,1
162511,-90.9090909090909,4,2,14,85,0,1
162846,-90.9090909090909,4,2,15,85,0,1
164354,-90.9090909090909,4,2,10,85,0,1
164438,-90.9090909090909,4,2,1,85,0,1
164690,-90.9090909090909,4,2,15,85,0,1
165025,-90.9090909090909,4,2,14,85,0,1
165192,-90.9090909090909,4,2,15,85,0,1
165528,-90.9090909090909,4,2,14,85,0,1
165863,-90.9090909090909,4,2,15,85,0,1
166366,-90.9090909090909,4,2,17,85,0,1
166533,-90.9090909090909,4,2,15,85,0,1
166868,-90.9090909090909,4,2,19,85,0,1
167204,-90.9090909090909,4,2,20,85,0,1
167289,-90.9090909090909,4,2,20,85,0,1
167371,-90.9090909090909,4,2,21,85,0,1
167706,-90.9090909090909,4,2,15,85,0,1
168630,-90.9090909090909,4,2,15,85,0,1
168711,-90.9090909090909,4,2,1,80,0,1
169971,-90.9090909090909,4,2,1,80,0,1
170052,-90.9090909090909,4,2,1,75,0,0
170055,-90.9090909090909,4,2,1,75,0,0
175248,-100,4,2,1,75,0,0
180778,-100,4,2,1,75,0,0
189747,-100,4,2,1,75,0,0
189831,-100,4,2,1,75,0,0
189915,-100,4,2,1,75,0,0
189999,-100,4,2,1,75,0,0
190250,-100,4,2,1,75,0,0
190418,-100,4,2,1,75,0,0
190499,-100,4,2,1,73,0,0
190834,-100,4,2,1,71,0,0
191169,-100,4,2,1,69,0,0
191423,-100,4,2,1,69,0,0
191505,-90.9090909090909,4,2,1,75,0,0
192678,-100,4,2,1,75,0,0
194105,-100,4,2,1,75,0,0
194440,-100,4,2,1,75,0,0
196786,-100,4,2,1,75,0,0
197122,-100,4,2,1,75,0,0
201560,-90.9090909090909,4,2,1,75,0,0
206756,-76.9230769230769,4,2,1,75,0,0
207259,-100,4,2,1,75,0,0
207594,-100,4,2,1,80,0,0
212957,-100,4,2,1,75,0,0
214130,-111.111111111111,4,2,1,75,0,0
214552,-111.111111111111,4,2,1,75,0,0
215557,-111.111111111111,4,2,1,75,0,0
215639,-111.111111111111,4,2,1,70,0,0
225359,-133.333333333333,4,2,1,70,0,0
226365,-111.111111111111,4,2,1,65,0,0
234242,-133.333333333333,4,2,1,65,0,0
234328,-133.333333333333,4,2,1,65,0,0
234410,-333.333333333333,4,2,1,60,0,0
235331,-333.333333333333,4,2,1,5,0,0
236004,-333.333333333333,4,2,1,60,0,0
236086,-125,4,2,10,60,0,1
236256,-90.9090909090909,4,2,10,5,0,1
236421,-111.111111111111,4,2,15,60,0,1
236591,-90.9090909090909,4,2,1,5,0,1
236756,-100,4,2,21,78,0,1
236926,-90.9090909090909,4,2,21,5,0,1
237091,-90.9090909090909,4,2,1,85,0,1
237092,-90.9090909090909,4,2,17,85,0,1
237427,-90.9090909090909,4,2,15,85,0,1
237595,-90.9090909090909,4,2,17,85,0,1
237930,-90.9090909090909,4,2,15,85,0,1
238600,-90.9090909090909,4,2,1,85,0,1
238768,-90.9090909090909,4,2,10,78,0,1
239104,-90.9090909090909,4,2,15,78,0,1
239439,-90.9090909090909,4,2,21,78,0,1
239774,-90.9090909090909,4,2,17,85,0,1
240109,-90.9090909090909,4,2,15,85,0,1
240277,-90.9090909090909,4,2,17,85,0,1
240612,-90.9090909090909,4,2,19,85,0,1
241952,-90.9090909090909,4,2,1,85,0,1
242120,-90.9090909090909,4,2,20,85,0,1
242373,-90.9090909090909,4,2,20,85,0,1
242455,-90.9090909090909,4,2,21,85,0,1
242708,-90.9090909090909,4,2,21,85,0,1
242790,-90.9090909090909,4,2,15,85,0,1
243628,-90.9090909090909,4,2,10,85,0,1
243796,-90.9090909090909,4,2,11,85,0,1
244131,-90.9090909090909,4,2,14,85,0,1
244299,-90.9090909090909,4,2,20,85,0,1
244634,-90.9090909090909,4,2,19,85,0,1
244969,-90.9090909090909,4,2,17,85,0,1
245472,-90.9090909090909,4,2,15,85,0,1
245640,-90.9090909090909,4,2,17,85,0,1
245975,-90.9090909090909,4,2,15,85,0,1
246142,-90.9090909090909,4,2,19,85,0,1
246477,-90.9090909090909,4,2,1,85,0,1
246813,-90.9090909090909,4,2,10,78,0,1
246979,-90.9090909090909,4,2,10,78,0,0
247149,-90.9090909090909,4,2,15,78,0,0
247315,-90.9090909090909,4,2,1,78,0,0
247484,-90.9090909090909,4,2,21,78,0,0
247817,-90.9090909090909,4,2,21,78,0,1
247819,-90.9090909090909,4,2,17,85,0,1
248154,-90.9090909090909,4,2,15,85,0,1
248322,-90.9090909090909,4,2,17,85,0,1
248657,-90.9090909090909,4,2,15,85,0,1
249327,-90.9090909090909,4,2,1,85,0,1
249495,-90.9090909090909,4,2,10,78,0,1
249831,-90.9090909090909,4,2,15,78,0,1
250166,-90.9090909090909,4,2,21,78,0,1
250501,-90.9090909090909,4,2,17,85,0,1
250836,-90.9090909090909,4,2,15,85,0,1
251004,-90.9090909090909,4,2,17,85,0,1
251339,-90.9090909090909,4,2,19,85,0,1
252679,-90.9090909090909,4,2,1,85,0,1
252847,-90.9090909090909,4,2,20,85,0,1
253182,-90.9090909090909,4,2,21,85,0,1
254355,-90.9090909090909,4,2,22,85,0,1
254690,-90.9090909090909,4,2,1,85,0,1
254857,-90.9090909090909,4,2,19,85,0,1
255193,-90.9090909090909,4,2,17,85,0,1
255528,-90.9090909090909,4,2,15,85,0,1
255863,-90.9090909090909,4,2,14,85,0,1
256198,-90.9090909090909,4,2,12,85,0,1
256366,-90.9090909090909,4,2,14,85,0,1
256701,-90.9090909090909,4,2,15,85,0,1
258209,-90.9090909090909,4,2,10,85,0,1
258292,-90.9090909090909,4,2,1,85,0,1
258545,-90.9090909090909,4,2,15,85,0,1
258880,-90.9090909090909,4,2,14,85,0,1
259047,-90.9090909090909,4,2,15,85,0,1
259383,-90.9090909090909,4,2,14,85,0,1
259718,-90.9090909090909,4,2,15,85,0,1
260221,-90.9090909090909,4,2,17,85,0,1
260388,-90.9090909090909,4,2,15,85,0,1
260723,-90.9090909090909,4,2,19,85,0,1
261059,-90.9090909090909,4,2,20,85,0,1
261144,-90.9090909090909,4,2,20,85,0,1
261226,-90.9090909090909,4,2,21,85,0,1
261561,-90.9090909090909,4,2,15,85,0,1
262485,-90.9090909090909,4,2,15,85,0,1
262566,-90.9090909090909,4,2,1,70,0,1
263739,-100,4,2,1,70,0,0
263826,-100,4,2,1,70,0,0
263907,-100,4,2,1,80,0,0
264161,-100,4,2,1,80,0,0
264242,-100,4,2,1,80,0,0
269270,-100,4,2,1,75,0,0
271870,-100,4,2,1,75,0,0
272287,-100,4,2,1,66,0,0
272622,-100,4,2,1,71,0,0
272957,-100,4,2,1,76,0,0
273292,-100,4,2,1,81,0,0
273627,-100,4,2,1,77,0,0
273963,-100,4,2,1,73,0,0
274298,-100,4,2,1,69,0,0
274384,-100,4,2,1,69,0,0
274552,-100,4,2,1,69,0,0
274633,-100,4,2,1,65,0,0
274884,-100,4,2,1,5,0,0
278574,-100,4,2,1,65,0,0
279245,-100,4,2,1,65,0,0
279580,-100,4,2,1,65,0,0
279915,-100,4,2,1,65,0,0
279996,-100,4,2,1,15,0,0

[Colours]
Combo1 : 255,162,162
Combo2 : 255,189,222
Combo3 : 255,255,151
Combo4 : 255,196,196

[HitObjects]
45,58,1114,6,0,B|116:54|93:95|177:84,1,123.750004720688,6|2,2:2|2:2,0:0:0:0:
242,192,1616,2,0,P|233:147|239:126,1,61.875002360344,2|0,2:2|0:0,0:0:0:0:
322,65,1951,2,0,P|331:110|325:131,1,61.875002360344,2|0,2:2|0:0,0:0:0:0:
242,192,2287,1,2,2:2:0:0:
467,202,2454,6,0,P|405:207|349:232,1,123.750004720688,2|2,2:2|2:2,0:0:0:0:
256,334,2957,2,0,P|276:290|238:201,1,123.750004720688,2|0,2:2|0:0,0:0:0:0:
103,262,3460,2,0,P|161:282|210:266,1,92.812503540516,2|0,2:2|0:0,0:0:0:0:
257,219,3795,6,0,L|261:71,1,123.750004720688,2|2,2:2|2:2,0:0:0:0:
153,40,4298,2,0,L|164:116,1,61.875002360344,2|0,2:2|0:0,0:0:0:0:
55,154,4633,2,0,L|66:78,1,61.875002360344,2|0,2:2|0:0,0:0:0:0:
142,186,4968,1,2,2:2:0:0:
89,268,5136,6,0,P|58:264|28:269,1,61.875002360344,2|2,2:2|2:2,0:0:0:0:
148,341,5471,2,0,P|186:345|214:340,1,61.875002360344,2|2,2:2|2:2,0:0:0:0:
282,215,5806,2,0,P|271:244|280:289,1,61.875002360344,2|2,2:2|2:2,0:0:0:0:
359,355,6141,1,2,2:2:0:0:
477,146,6477,6,0,P|413:149|354:111,1,123.750004720688,2|2,2:2|2:2,0:0:0:0:
299,41,6979,2,0,P|312:111|291:167,1,123.750004720688,2|0,2:2|0:0,0:0:0:0:
225,228,7482,2,0,P|277:232|308:282,1,92.812503540516,2|0,2:2|0:0,0:0:0:0:
338,341,7817,6,0,P|264:330|210:328,1,123.750004720688,2|2,2:2|2:2,0:0:0:0:
303,261,8320,2,0,P|325:213|308:137,1,123.750004720688,2|2,2:2|2:2,0:0:0:0:
189,75,8823,2,0,P|152:87|111:86,1,61.875002360344,2|0,2:2|0:0,0:0:0:0:
9,157,9158,6,0,P|72:166|150:200,1,123.750004720688,2|2,2:2|2:2,0:0:0:0:
243,153,9661,2,0,P|250:193|236:224,1,61.875002360344,2|0,2:2|0:0,0:0:0:0:
119,287,9996,2,0,P|160:270|187:271,1,61.875002360344,2|0,2:2|0:0,0:0:0:0:
304,335,10331,2,0,P|267:309|254:285,1,61.875002360344,2|2,2:2|2:2,0:0:0:0:
345,149,10667,2,0,L|355:216,1,61.875002360344,2|2,2:2|2:2,0:0:0:0:
438,306,11002,2,0,L|461:169,1,123.750004720688,2|2,2:2|2:2,0:0:0:0:
354,210,11505,2,0,P|297:215|252:189,1,92.812503540516,2|0,2:2|0:0,0:0:0:0:
250,185,11840,6,0,L|233:38,1,148.49999546814,4|2,1:2|2:2,0:0:0:0:
107,7,12343,2,0,L|96:86,1,74.2499977340699,2|0,2:2|0:0,0:0:0:0:
24,173,12678,1,2,2:2:0:0:
161,138,12845,1,2,2:2:0:0:
95,299,13013,2,0,P|94:257|95:215,1,74.2499977340699,2|2,2:2|2:2,0:0:0:0:
207,256,13348,5,2,2:2:0:0:
228,267,13431,1,2,2:2:0:0:
251,272,13516,1,2,2:2:0:0:
275,270,13600,1,0,0:0:0:0:
298,262,13683,1,2,2:2:0:0:
382,131,13851,5,2,2:2:0:0:
384,157,13934,1,2,2:2:0:0:
386,184,14018,1,2,2:2:0:0:
388,210,14102,1,0,0:0:0:0:
390,238,14186,6,0,L|382:353,1,111.374996601105,2|2,2:2|2:2,0:0:0:0:
479,366,14521,2,0,L|472:292,1,74.2499977340699,2|0,2:2|0:0,0:0:0:0:
469,179,14857,1,2,2:2:0:0:
390,238,15024,2,0,P|348:235|300:242,1,74.2499977340699,2|0,2:2|0:0,0:0:0:0:
239,186,15359,2,0,P|188:192|118:175,1,111.374996601105,2|0,2:2|0:0,0:0:0:0:
73,131,15695,1,2,2:2:0:0:
19,274,15862,6,0,L|114:265,1,74.2499977340699,2|2,2:2|2:2,0:0:0:0:
147,337,16114,1,2,2:2:0:0:
147,337,16197,2,0,L|214:332,3,37.1249988670349,2|0|2|0,2:2|0:0|2:2|0:0,0:0:0:0:
286,286,16532,6,0,P|278:335|292:380,1,74.2499977340699,2|2,2:2|2:2,0:0:0:0:
401,360,16868,2,0,P|409:313|392:268,1,74.2499977340699,2|0,2:2|0:0,0:0:0:0:
298,194,17203,6,0,B|253:197|174:220|174:220|205:211|215:176,1,181.500005538941,14|0,2:2|1:1,0:0:0:0:
53,240,17706,2,0,P|87:330|171:343,1,181.500005538941,12|0,2:2|1:1,0:0:0:0:
275,112,18208,1,14,2:2:0:0:
140,260,18376,1,0,1:1:0:0:
346,275,18544,6,0,B|422:259|389:319|492:292,1,136.125004154205,14|0,2:2|0:0,0:0:0:0:
448,222,18879,2,0,B|461:187|461:187|453:120,1,90.7500027694703,2|12,1:2|2:2,0:0:0:0:
281,23,19214,2,0,B|268:58|268:58|276:125,1,90.7500027694703,2|0,1:2|1:1,0:0:0:0:
346,275,19549,1,14,2:2:0:0:
388,59,19717,1,0,1:1:0:0:
212,213,19884,6,0,B|150:230|96:252|96:252|64:236|65:194,1,181.500005538941,14|0,2:2|1:1,0:0:0:0:
274,111,20387,1,14,2:2:0:0:
197,312,20555,1,2,1:2:0:0:
131,93,20722,1,0,1:1:0:0:
317,265,20890,2,0,P|313:315|312:372,1,90.7500027694703,8|0,2:2|1:1,0:0:0:0:
63,205,21225,5,0,1:1:0:0:
274,111,21393,2,0,B|385:93|343:168|468:138,1,181.500005538941,12|0,2:2|1:1,0:0:0:0:
229,186,21896,1,14,2:2:0:0:
450,266,22063,1,0,1:1:0:0:
413,37,22231,1,14,2:2:0:0:
271,295,22398,1,0,0:0:0:0:
414,135,22566,6,0,B|447:96|514:106|514:106|483:70|440:57|345:69|378:142|259:105,1,371.250014162064,4|0,1:2|0:0,0:0:0:0:
267,91,23739,2,0,L|263:41,1,41.25,2|2,2:2|2:2,0:0:0:0:
142,47,23906,5,2,2:2:0:0:
144,66,23990,1,0,0:0:0:0:
146,85,24074,1,0,0:0:0:0:
148,99,24158,1,0,0:0:0:0:
150,116,24242,2,0,L|155:162,3,37.1249988670349,0|0|0|0,0:0|0:0|3:3|0:0,0:0:0:0:
9,210,24577,5,0,0:0:0:0:
33,208,24660,1,0,0:0:0:0:
58,211,24744,1,0,3:3:0:0:
80,221,24828,1,0,0:0:0:0:
100,237,24912,1,0,3:3:0:0:
123,247,24995,1,0,0:0:0:0:
147,251,25079,1,0,0:0:0:0:
172,252,25163,1,0,0:0:0:0:
206,245,25248,6,0,P|290:233|396:221,1,165,6|8,1:2|0:1,0:0:0:0:
333,75,25750,2,0,P|311:127|316:165,1,82.5,2|8,2:2|0:1,0:0:0:0:
385,230,26086,1,0,0:0:0:0:
414,132,26253,1,8,0:1:0:0:
312,151,26421,1,2,2:2:0:0:
256,281,26588,6,0,B|349:269|314:326|413:311,1,165,2|8,2:2|0:1,0:0:0:0:
493,356,27091,2,0,P|436:300|466:227,1,165
498,145,27594,1,8,0:1:0:0:
373,201,27762,1,2,1:2:0:0:
414,24,27929,6,0,P|416:83|417:130,1,82.5,2|0,1:2|0:0,0:0:0:0:
308,54,28264,1,8,0:1:0:0:
308,54,28432,2,0,P|256:43|209:57,1,82.5,2|8,2:2|0:1,0:0:0:0:
252,136,28767,2,0,P|219:187|229:222,1,82.5,2|8,2:2|0:1,0:0:0:0:
365,302,29102,1,2,2:2:0:0:
365,302,29270,6,0,L|348:118,1,165,2|8,2:2|0:1,0:0:0:0:
448,153,29773,1,0,1:1:0:0:
375,45,29940,2,0,P|332:36|291:51,1,82.5,8|2,0:1|2:2,0:0:0:0:
196,141,30276,2,0,P|245:135|289:129,1,82.5,8|0,0:1|1:1,0:0:0:0:
135,201,30611,6,0,P|106:147|159:63,1,165,2|8,1:2|0:1,0:0:0:0:
254,213,31114,1,2,2:2:0:0:
254,213,31281,2,0,L|241:303,1,82.5,8|0,0:1|0:0,0:0:0:0:
286,374,31616,1,8,0:1:0:0:
343,283,31784,1,2,2:2:0:0:
188,358,31951,6,0,B|104:330|111:405|10:360,1,165,2|8,2:2|0:1,0:0:0:0:
73,286,32454,2,0,P|114:235|83:136,1,165,2|0,2:2|1:1,0:0:0:0:
36,205,32957,1,8,0:1:0:0:
187,142,33125,1,2,1:2:0:0:
104,63,33292,6,0,L|216:62,1,82.5,2|0,1:2|0:0,0:0:0:0:
283,102,33627,1,8,0:1:0:0:
379,26,33795,2,0,P|370:73|390:128,1,82.5,2|8,2:2|0:1,0:0:0:0:
448,161,34130,2,0,P|457:200|449:241,1,82.5,2|8,2:2|0:1,0:0:0:0:
371,334,34465,1,2,2:2:0:0:
379,205,34633,5,2,2:2:0:0:
501,307,34801,1,2,2:2:0:0:
371,334,34968,2,0,P|313:324|278:326,1,82.5,8|2,0:1|1:2,0:0:0:0:
227,262,35303,2,0,P|169:272|134:270,1,82.5,8|2,0:1|1:2,0:0:0:0:
57,318,35639,1,8,1:1:0:0:
57,318,35806,1,2,2:2:0:0:
179,193,35974,6,0,P|204:140|171:33,1,165,2|8,1:2|0:1,0:0:0:0:
33,123,36477,2,0,P|85:118|122:114,1,82.5,2|8,2:2|0:1,0:0:0:0:
179,193,36812,1,0,0:0:0:0:
259,112,36979,1,8,0:1:0:0:
178,40,37147,1,2,2:2:0:0:
78,194,37315,6,0,P|59:271|120:330,1,165,2|8,1:2|0:1,0:0:0:0:
205,338,37817,2,0,B|106:329|151:385|49:373,1,165,2|0,2:2|0:0,0:0:0:0:
150,250,38320,2,0,P|197:255|236:250,1,82.5,8|2,0:1|2:2,0:0:0:0:
283,179,38655,6,0,P|334:176|379:186,1,82.5,2|0,1:2|0:0,0:0:0:0:
455,281,38991,1,8,0:1:0:0:
455,281,39158,2,0,P|449:219|467:176,1,82.5,2|8,2:2|0:1,0:0:0:0:
488,72,39493,2,0,P|395:81|315:56,1,165,2|2,2:2|1:2,0:0:0:0:
128,55,39996,6,0,P|138:104|130:157,1,82.5,2|0,1:2|0:0,0:0:0:0:
248,125,40331,2,0,P|233:180|238:219,1,82.5,8|2,0:1|1:2,0:0:0:0:
60,181,40667,2,0,P|75:236|70:275,1,82.5,8|0,0:1|0:0,0:0:0:0:
178,271,41002,2,0,P|163:326|168:365,1,82.5,8|0,0:1|0:0,0:0:0:0:
343,230,41337,6,0,P|267:210|175:187,1,165,2|8,1:2|0:1,0:0:0:0:
275,298,41840,1,2,2:2:0:0:
355,149,42007,2,0,P|347:194|343:234,1,82.5,8|2,0:1|2:2,0:0:0:0:
466,205,42343,1,8,0:1:0:0:
466,205,42510,1,2,2:2:0:0:
418,86,42678,6,0,B|373:62|332:65|332:65|291:94|251:80,1,165,2|8,1:2|0:1,0:0:0:0:
82,43,43181,2,0,P|133:35|173:32,1,82.5,2|8,2:2|0:1,0:0:0:0:
245,165,43516,2,0,P|189:160|149:155,1,82.5,2|8,2:2|0:1,0:0:0:0:
34,133,43851,1,2,2:2:0:0:
138,293,44019,6,0,P|185:242|135:139,1,165,2|2,1:2|1:2,0:0:0:0:
70,214,44521,1,2,2:2:0:0:
244,314,44689,2,0,P|290:312|336:309,1,82.5,2|2,1:2|2:2,0:0:0:0:
47,351,45024,1,2,1:2:0:0:
162,156,45192,6,0,B|248:138|230:203|321:183,1,165,12|2,2:2|2:2,0:0:0:0:
279,94,45695,1,2,1:2:0:0:
353,261,45862,1,2,3:2:0:0:
406,90,46030,1,2,1:2:0:0:
352,279,46197,1,2,3:2:0:0:
390,181,46365,5,2,3:2:0:0:
460,320,46532,1,0,3:3:0:0:
293,349,46700,6,0,P|217:336|108:347,1,165,4|0,1:2|1:1,0:0:0:0:
193,259,47203,2,0,P|225:205|189:96,1,165,2|0,2:2|0:0,0:0:0:0:
41,71,47706,1,2,1:2:0:0:
131,179,47873,1,2,2:2:0:0:
247,39,48041,6,0,B|188:31|117:21|117:21|142:24|158:51,1,165,2|0,1:2|1:1,0:0:0:0:
308,125,48544,2,0,B|361:133|383:154|383:154|335:107|374:61,1,165,2|0,2:2|0:0,0:0:0:0:
332,234,49046,1,2,1:2:0:0:
456,98,49214,1,2,2:2:0:0:
282,45,49382,6,0,B|188:28|225:102|112:63,1,165,2|2,1:2|1:2,0:0:0:0:
46,234,49884,2,0,P|102:220|149:213,1,82.5,2|0,2:2|1:1,0:0:0:0:
345,143,50220,2,0,P|289:129|242:122,1,82.5,2|0,2:2|1:1,0:0:0:0:
87,142,50555,1,2,2:2:0:0:
216,343,50722,6,0,P|256:267|215:203,1,165,2|0,1:2|1:1,0:0:0:0:
10,269,51225,2,0,B|104:237|79:309|185:265,1,165,2|0,2:2|0:0,0:0:0:0:
236,76,51728,1,2,1:2:0:0:
130,200,51896,1,2,2:2:0:0:
343,275,52063,6,0,B|391:274|445:295|445:295|493:288|486:236,1,165,2|2,1:2|1:2,0:0:0:0:
406,161,52566,2,0,B|332:164|332:164|327:165|323:166|323:166|233:169,1,165,2|0,2:2|0:0,0:0:0:0:
120,337,53069,1,0,1:1:0:0:
272,250,53236,1,2,2:2:0:0:
115,171,53404,6,0,P|73:168|32:171,1,82.5,2|0,1:2|0:0,0:0:0:0:
267,369,53739,2,0,P|326:372|377:364,1,82.5,2|2,1:2|2:2,0:0:0:0:
126,255,54074,2,0,P|124:316|114:357,1,82.5,2|0,1:2|0:0,0:0:0:0:
358,270,54410,2,0,P|360:209|370:168,1,82.5,2|0,1:2|0:0,0:0:0:0:
225,20,54745,6,0,P|241:96|230:167,1,123.75,2|0,1:2|0:0,0:0:0:0:
203,209,55080,1,2,1:2:0:0:
70,328,55248,2,0,B|174:361|149:303|231:318,1,165,2|2,2:2|2:2,0:0:0:0:
334,188,55750,1,0,1:1:0:0:
320,373,55918,1,2,2:2:0:0:
203,209,56086,6,0,P|208:135|185:40,1,165,2|0,1:2|1:1,0:0:0:0:
50,74,56588,2,0,P|54:120|56:186,1,82.5,2|0,2:2|1:1,0:0:0:0:
103,297,56924,1,0,3:3:0:0:
132,294,57007,1,0,3:3:0:0:
162,292,57091,1,10,2:2:0:0:
191,290,57175,1,0,3:3:0:0:
221,290,57259,1,2,3:3:0:0:
251,290,57342,1,0,3:3:0:0:
283,291,57426,6,0,B|385:277|339:350|475:319,1,173.24999471283,4|10,1:2|2:2,0:0:0:0:
442,181,57929,2,0,P|404:255|455:328,1,173.24999471283,2|0,1:2|1:1,0:0:0:0:
373,109,58432,1,10,2:2:0:0:
495,248,58600,1,2,2:2:0:0:
293,176,58767,5,4,1:2:0:0:
467,85,58935,1,8,2:2:0:0:
467,85,59019,1,0,3:3:0:0:
467,85,59102,1,2,3:2:0:0:
279,42,59270,2,0,B|198:52|77:72,1,173.24999471283,2|0,1:2|1:1,0:0:0:0:
26,205,59773,1,10,2:2:0:0:
188,152,59940,1,2,2:2:0:0:
172,297,60108,6,0,P|141:216|194:149,1,173.24999471283,4|10,1:2|2:2,0:0:0:0:
341,249,60611,2,0,P|290:233|237:232,1,86.6249973564149,2|0,1:2|0:0,0:0:0:0:
85,328,60946,1,0,1:1:0:0:
285,324,61114,1,8,2:2:0:0:
187,151,61281,1,2,2:2:0:0:
21,238,61449,5,12,1:2:0:0:
56,236,61532,1,0,3:3:0:0:
92,235,61616,1,0,3:3:0:0:
127,234,61700,1,0,3:3:0:0:
167,234,61784,1,10,2:2:0:0:
199,65,61951,6,0,L|184:166,1,86.6249973564149,4|0,1:2|0:0,0:0:0:0:
285,324,62287,2,0,L|270:223,1,86.6249973564149,2|8,1:2|2:2,0:0:0:0:
140,325,62622,1,2,1:2:0:0:
140,325,62706,1,2,1:2:0:0:
140,325,62789,5,12,2:2:0:0:
367,107,62957,1,2,2:2:0:0:
82,137,63125,1,2,1:2:0:0:
394,259,63292,5,8,2:2:0:0:
231,25,63460,1,2,2:2:0:0:
244,282,63627,1,2,1:2:0:0:
447,106,63795,5,8,2:2:0:0:
145,31,63963,1,4,1:2:0:0:
151,181,64298,5,8,1:2:0:0:
474,101,64465,1,10,2:2:0:0:
347,106,64801,5,10,1:2:0:0:
370,138,64884,1,0,3:3:0:0:
378,177,64968,1,2,3:2:0:0:
369,216,65052,1,0,3:3:0:0:
343,253,65136,2,0,P|286:234|214:221,1,129.937496034622,10|0,2:2|0:0,0:0:0:0:
160,175,65471,6,0,P|176:239|151:301,1,136.125004154205,6|0,1:2|0:0,0:0:0:0:
137,321,65806,1,10,2:2:0:0:
1,251,65974,2,0,P|59:242|95:238,1,90.7500027694703,2|0,1:2|0:0,0:0:0:0:
172,56,66309,2,0,P|119:64|78:69,1,90.7500027694703,2|8,1:2|2:2,0:0:0:0:
269,171,66644,1,2,2:2:0:0:
90,238,66812,6,0,P|148:231|193:235,1,90.7500027694703,0|2,1:1|2:2,0:0:0:0:
371,341,67147,1,10,2:2:0:0:
351,128,67315,1,0,1:1:0:0:
255,272,67482,2,0,P|266:337|271:376,1,90.7500027694703,2|0,2:2|1:1,0:0:0:0:
478,253,67817,2,0,P|422:253|359:256,1,90.7500027694703,10|0,2:2|0:0,0:0:0:0:
454,161,68153,6,0,P|467:96|391:44,1,136.125004154205,2|0,1:2|0:0,0:0:0:0:
395,39,68488,1,10,2:2:0:0:
174,129,68655,2,0,B|274:99|246:175|372:119,1,181.500005538941,2|2,1:2|1:2,0:0:0:0:
216,206,69158,1,8,2:2:0:0:
304,56,69326,1,2,2:2:0:0:
270,308,69493,6,0,P|194:289|78:280,1,181.500005538941,0|8,1:1|2:2,0:0:0:0:
216,206,69996,1,0,1:1:0:0:
17,120,70164,2,0,P|29:175|37:217,1,90.7500027694703,2|2,2:2|1:2,0:0:0:0:
196,103,70499,2,0,P|199:57|203:4,1,90.7500027694703,10|0,2:2|0:0,0:0:0:0:
294,269,70834,6,0,P|222:302|153:273,1,136.125004154205,6|0,1:2|0:0,0:0:0:0:
144,268,71169,1,10,2:2:0:0:
304,161,71337,2,0,P|398:177|489:174,1,181.500005538941,2|0,1:2|1:1,0:0:0:0:
294,269,71840,1,8,2:2:0:0:
487,330,72007,5,2,2:2:0:0:
487,330,72091,1,0,1:3:0:0:
487,330,72175,2,0,P|423:317|365:321,1,90.7500027694703,2|0,1:2|0:0,0:0:0:0:
284,354,72510,1,10,2:2:0:0:
431,237,72678,2,0,P|448:171|403:106,1,136.125004154205,2|0,1:2|0:0,0:0:0:0:
387,93,73013,1,2,1:2:0:0:
294,269,73181,2,0,P|296:206|295:172,1,90.7500027694703,8|2,2:2|2:2,0:0:0:0:
220,104,73432,5,0,0:0:0:0:
220,104,73516,2,0,B|139:88|167:135|88:117,1,136.125004154205,0|0,1:1|0:0,0:0:0:0:
27,76,73851,1,10,2:2:0:0:
12,249,74019,2,0,P|73:243|121:240,1,90.7500027694703,2|0,1:2|0:0,0:0:0:0:
192,280,74354,1,2,1:2:0:0:
24,158,74521,2,0,P|9:118|33:70,1,90.7500027694703,10|0,2:2|0:0,0:0:0:0:
193,199,74857,5,0,1:1:0:0:
23,338,75024,1,0,3:3:0:0:
23,338,75108,1,0,3:3:0:0:
23,338,75192,2,0,L|111:334,1,45.3750013847352,10|0,2:2|0:0,0:0:0:0:
247,271,75359,2,0,P|334:279|406:289,1,123.75,0|0,1:1|0:0,0:0:0:0:
404,289,75695,1,0,1:1:0:0:
326,201,75862,2,0,P|300:158|355:81,1,123.75,10|0,2:2|0:0,0:0:0:0:
388,37,76197,6,0,P|300:46|231:54,1,136.125004154205,6|0,1:2|0:0,0:0:0:0:
215,53,76532,1,10,2:2:0:0:
58,140,76700,2,0,P|68:84|69:45,1,90.7500027694703,2|0,1:2|0:0,0:0:0:0:
189,237,77035,2,0,P|179:181|178:142,1,90.7500027694703,2|8,1:2|2:2,0:0:0:0:
119,354,77370,1,2,2:2:0:0:
292,268,77538,6,0,B|363:262|363:262|416:286|416:286|495:280,1,181.500005538941,0|10,1:1|2:2,0:0:0:0:
319,349,78041,1,0,1:1:0:0:
445,118,78208,2,0,P|438:168|432:221,1,90.7500027694703,2|0,2:2|1:1,0:0:0:0:
279,130,78544,2,0,P|273:84|267:40,1,90.7500027694703,10|0,2:2|0:0,0:0:0:0:
187,241,78879,6,0,B|122:258|77:273|77:273|122:258|132:221,1,181.500005538941,2|10,1:2|2:2,0:0:0:0:
269,210,79382,2,0,P|269:277|251:316,1,90.7500027694703,2|0,1:2|0:0,0:0:0:0:
54,194,79717,2,0,P|54:127|72:88,1,90.7500027694703,2|8,1:2|2:2,0:0:0:0:
187,241,80052,1,2,2:2:0:0:
37,21,80220,6,0,L|162:41,1,90.7500027694703,0|0,1:1|1:1,0:0:0:0:
344,165,80555,1,8,2:2:0:0:
214,43,80722,1,0,1:1:0:0:
270,247,80890,5,2,2:2:0:0:
373,27,81058,1,0,1:1:0:0:
418,267,81225,5,10,2:2:0:0:
198,151,81393,1,0,0:0:0:0:
456,90,81560,6,0,P|433:163|417:269,1,181.500005538941,6|10,1:2|2:2,0:0:0:0:
339,119,82063,2,0,P|286:46|211:46,1,136.125004154205,2|0,1:2|0:0,0:0:0:0:
205,40,82398,1,2,1:2:0:0:
270,247,82566,1,8,2:2:0:0:
77,162,82734,1,2,2:2:0:0:
281,269,82901,6,0,P|361:264|436:268,1,136.125004154205,0|0,1:1|0:0,0:0:0:0:
450,274,83236,2,0,P|466:333|445:372,1,90.7500027694703,10|0,2:2|1:1,0:0:0:0:
281,269,83572,2,0,P|265:210|286:171,1,90.7500027694703,2|0,2:2|1:1,0:0:0:0:
454,116,83907,2,0,P|380:89|292:56,1,136.125004154205,10|0,2:2|0:0,0:0:0:0:
295,54,84242,5,2,1:2:0:0:
158,225,84410,1,0,0:0:0:0:
367,192,84577,1,10,2:2:0:0:
195,52,84745,2,0,B|93:30|116:89|10:58,1,181.500005538941,2|2,1:2|1:2,0:0:0:0:
68,237,85248,2,0,P|126:227|173:224,1,90.7500027694703,10|0,2:2|0:0,0:0:0:0:
346,114,85583,5,0,1:1:0:0:
157,224,85750,1,0,1:1:0:0:
390,282,85918,5,8,2:2:0:0:
185,133,86086,1,0,1:1:0:0:
279,348,86253,5,0,1:1:0:0:
447,217,86421,1,8,2:2:0:0:
462,197,86504,1,8,2:2:0:0:
472,173,86588,1,10,2:2:0:0:
475,148,86672,1,0,3:3:0:0:
471,123,86756,1,0,3:3:0:0:
459,101,86839,1,0,3:3:0:0:
441,75,86924,6,0,L|330:57,1,90.7500027694703,6|0,1:2|0:0,0:0:0:0:
97,260,87259,5,10,2:2:0:0:
341,140,87426,1,2,1:2:0:0:
105,66,87594,5,8,2:2:0:0:
254,288,87762,1,2,1:2:0:0:
254,288,87845,1,0,1:1:0:0:
254,288,87929,5,8,2:2:0:0:
325,31,88097,5,2,1:2:0:0:
144,158,88264,1,12,2:2:0:0:
425,211,88432,5,2,1:2:0:0:
242,87,88600,1,10,2:2:0:0:
373,345,88767,5,2,1:2:0:0:
373,345,88851,1,0,1:1:0:0:
373,345,88935,1,8,2:2:0:0:
417,94,89102,6,0,L|357:107,1,45.3750013847352,2|0,1:2|0:0,0:0:0:0:
144,158,89270,1,10,2:2:0:0:
425,211,89438,1,2,1:2:0:0:
425,211,89521,1,0,0:0:0:0:
425,211,89605,5,14,2:2:0:0:
140,46,89773,1,0,1:1:0:0:
251,329,89940,1,2,1:2:0:0:
314,36,90108,5,14,2:2:0:0:
38,165,90276,1,0,1:1:0:0:
327,244,90443,1,0,1:1:0:0:
140,46,90611,5,12,2:2:0:0:
75,307,90778,1,0,1:1:0:0:
75,307,90862,1,0,1:1:0:0:
75,307,90946,1,12,2:2:0:0:
256,192,91030,12,2,91951,2:2:0:0:
369,76,92119,5,0,1:1:0:0:
369,76,92203,1,0,1:1:0:0:
369,76,92287,2,0,P|289:31|207:66,1,165,4|0,1:2|1:1,0:0:0:0:
281,234,92789,2,0,P|290:188|283:139,1,82.5,14|0,2:2|1:1,0:0:0:0:
128,32,93125,1,0,1:1:0:0:
128,32,93292,2,0,P|117:87|126:127,1,82.5,14|0,2:2|1:1,0:0:0:0:
153,282,93627,6,0,B|233:275|207:340|306:326,1,165,12|2,2:2|1:2,0:0:0:0:
445,199,94130,1,12,2:2:0:0:
301,125,94298,2,0,P|286:181|292:215,1,82.5,2|0,1:2|1:1,0:0:0:0:
434,359,94633,2,0,P|444:311|434:268,1,82.5,14|0,2:2|1:1,0:0:0:0:
371,56,94968,6,0,B|332:48|287:26|287:26|240:39|216:72,1,165,14|0,2:2|1:1,0:0:0:0:
92,158,95471,1,14,2:2:0:0:
91,158,95639,2,0,P|131:153|172:144,1,82.5,0|0,1:1|1:1,0:0:0:0:
315,271,95974,2,0,P|254:259|193:266,1,123.75,14|0,2:2|0:0,0:0:0:0:
135,330,96309,5,14,2:2:0:0:
248,137,96477,1,0,1:1:0:0:
12,228,96644,2,0,P|51:237|100:249,1,82.5,2|12,1:2|2:2,0:0:0:0:
239,41,96979,2,0,P|199:53|160:66,1,82.5,2|0,1:2|1:1,0:0:0:0:
385,80,97315,2,0,P|389:142|392:204,1,123.75,14|0,2:2|0:0,0:0:0:0:
479,313,97650,5,4,1:2:0:0:
479,313,97985,2,0,P|430:307|381:305,1,82.5,0|0,1:1|0:0,0:0:0:0:
309,195,98320,2,0,P|349:200|391:202,1,82.5,0|0,1:1|0:0,0:0:0:0:
305,290,98655,1,0,1:1:0:0:
455,127,98823,5,2,2:2:0:0:
455,127,98907,1,2,2:2:0:0:
455,127,98991,2,0,P|406:115|363:103,1,82.5,0|2,1:1|2:2,0:0:0:0:
167,121,99326,5,2,1:2:0:0:
309,195,99493,1,2,2:2:0:0:
256,32,99661,1,2,1:2:0:0:
218,209,99829,1,2,2:2:0:0:
167,121,99996,1,2,1:2:0:0:
109,205,100164,1,2,2:2:0:0:
205,353,100331,6,0,P|244:292|203:197,1,165,12|0,1:2|3:3,0:0:0:0:
61,312,100834,1,0,3:3:0:0:
164,276,101002,1,8,2:2:0:0:
39,184,101169,1,8,2:2:0:0:
61,312,101337,1,8,2:2:0:0:
135,95,101505,1,8,2:2:0:0:
350,161,101672,5,10,2:2:0:0:
266,14,101840,2,0,L|258:72,1,41.25,8|0,2:2|0:0,0:0:0:0:
243,200,102007,2,0,L|228:142,1,41.25,0|0,1:1|1:1,0:0:0:0:
139,53,102175,2,0,L|133:110,1,41.25,0|0,1:1|1:1,0:0:0:0:
133,267,102343,5,8,2:2:0:0:
153,291,102426,1,0,3:3:0:0:
179,309,102510,1,0,3:3:0:0:
208,320,102594,1,0,3:3:0:0:
240,322,102678,1,0,1:1:0:0:
271,317,102761,1,0,1:1:0:0:
300,303,102845,1,0,1:1:0:0:
324,282,102929,1,0,1:1:0:0:
336,258,103013,6,0,P|407:253|521:252,1,165,4|0,1:2|1:1,0:0:0:0:
421,172,103516,2,0,P|401:135|400:95,1,82.5,2|0,2:2|1:1,0:0:0:0:
456,17,103852,1,0,0:0:0:0:
496,103,104019,1,2,1:2:0:0:
400,95,104187,1,2,2:2:0:0:
306,26,104354,6,0,B|202:-2|226:73|127:48,1,165,2|0,1:2|1:1,0:0:0:0:
141,196,104857,2,0,P|179:121|135:41,1,165,2|0,2:2|0:0,0:0:0:0:
2,55,105360,1,2,1:2:0:0:
95,120,105528,1,2,2:2:0:0:
21,221,105695,6,0,P|17:170|14:119,1,82.5,2|0,1:2|0:0,0:0:0:0:
147,197,106030,1,2,1:2:0:0:
147,197,106198,2,0,P|196:191|257:197,1,82.5,2|0,2:2|1:1,0:0:0:0:
373,150,106533,2,0,P|340:201|350:236,1,82.5,2|0,2:2|1:1,0:0:0:0:
395,309,106868,1,2,2:2:0:0:
395,309,107036,6,0,L|211:326,1,165,2|0,1:2|0:0,0:0:0:0:
235,230,107539,1,0,0:0:0:0:
154,372,107706,2,0,P|142:327|148:288,1,82.5,2|0,1:2|0:0,0:0:0:0:
226,150,108042,2,0,P|238:189|234:230,1,82.5,2|0,1:2|0:0,0:0:0:0:
69,228,108377,6,0,P|148:224|240:230,1,165,2|2,1:2|1:1,0:0:0:0:
315,277,108880,1,2,2:2:0:0:
315,277,109047,2,0,L|302:367,1,82.5,0|0,1:1|0:0,0:0:0:0:
400,239,109382,1,2,1:2:0:0:
400,239,109550,1,2,2:2:0:0:
309,181,109717,6,0,B|221:179|250:249|140:235,1,165,2|0,1:2|1:1,0:0:0:0:
121,360,110220,2,0,P|175:325|144:226,1,165,2|0,2:2|0:0,0:0:0:0:
8,224,110723,1,2,1:2:0:0:
95,281,110891,1,2,2:2:0:0:
85,153,111058,6,0,L|197:152,1,82.5,2|0,1:2|0:0,0:0:0:0:
274,158,111393,1,2,1:2:0:0:
217,8,111561,2,0,P|208:55|228:110,1,82.5,2|0,2:2|1:1,0:0:0:0:
348,202,111896,2,0,P|357:163|349:122,1,82.5,2|0,2:2|1:1,0:0:0:0:
302,44,112231,1,2,2:2:0:0:
274,158,112399,5,2,1:2:0:0:
406,52,112567,1,2,2:2:0:0:
460,138,112734,2,0,P|470:196|468:231,1,82.5,2|2,1:2|2:2,0:0:0:0:
357,283,113069,2,0,P|347:225|349:190,1,82.5,2|2,1:2|2:2,0:0:0:0:
350,116,113405,1,10,2:2:0:0:
350,116,113572,1,2,2:2:0:0:
264,253,113739,6,0,P|211:278|104:245,1,165,4|8,1:2|2:2,0:0:0:0:
169,111,114243,2,0,P|177:165|178:200,1,82.5,2|0,2:2|3:3,0:0:0:0:
47,164,114578,1,0,1:1:0:0:
169,111,114745,1,2,1:2:0:0:
56,41,114913,1,10,2:2:0:0:
178,192,115080,6,0,P|255:211|314:150,1,165,2|8,2:2|2:2,0:0:0:0:
477,102,115583,2,0,B|378:111|423:56|321:67,1,165,2|0,2:2|1:1,0:0:0:0:
234,41,116086,2,0,P|229:88|234:127,1,82.5,10|2,2:2|2:2,0:0:0:0:
344,241,116421,6,0,P|347:190|337:145,1,82.5,0|0,1:1|0:0,0:0:0:0:
242,324,116757,1,10,2:2:0:0:
242,324,116924,2,0,P|236:262|254:219,1,82.5,2|0,2:2|3:3,0:0:0:0:
422,338,117259,2,0,P|368:335|328:340,1,82.5,2|0,1:2|1:1,0:0:0:0:
174,221,117594,6,0,P|257:233|339:240,1,165,10|0,2:2|1:1,0:0:0:0:
434,146,118097,2,0,P|377:143|338:143,1,82.5,10|0,2:2|0:0,0:0:0:0:
224,86,118433,2,0,P|253:123|255:171,1,82.5,2|0,1:2|1:1,0:0:0:0:
165,303,118768,2,0,P|170:256|175:209,1,82.5,10|0,2:2|0:0,0:0:0:0:
17,105,119103,6,0,P|97:126|177:147,1,165,4|8,1:2|2:2,0:0:0:0:
327,100,119606,1,0,0:0:0:0:
236,5,119773,2,0,P|228:50|224:90,1,82.5,2|0,1:2|1:1,0:0:0:0:
293,260,120109,1,10,2:2:0:0:
293,260,120276,1,2,2:2:0:0:
468,171,120443,6,0,B|418:159|418:159|362:179|362:179|301:165,1,165,2|10,1:2|2:2,0:0:0:0:
150,109,120947,2,0,P|203:107|243:104,1,82.5,2|0,2:2|1:1,0:0:0:0:
422,49,121282,2,0,P|366:44|326:39,1,82.5,2|8,1:2|2:2,0:0:0:0:
147,22,121617,1,2,2:2:0:0:
297,261,121784,6,0,P|344:210|294:107,1,165,4|8,1:2|2:2,0:0:0:0:
219,314,122287,1,2,1:2:0:0:
168,187,122455,2,0,P|214:185|260:182,1,82.5,10|2,2:2|1:2,0:0:0:0:
444,205,122790,1,10,2:2:0:0:
336,69,122958,6,0,B|247:88|265:23|179:41,1,165,4|2,1:2|1:1,0:0:0:0:
22,65,123461,1,10,2:2:0:0:
202,124,123628,1,2,3:2:0:0:
22,226,123796,1,10,2:2:0:0:
97,36,123963,1,2,3:2:0:0:
152,264,124131,5,2,3:2:0:0:
0,143,124298,1,2,1:2:0:0:
165,283,124466,6,0,P|247:276|328:290,1,165,4|0,1:2|1:1,0:0:0:0:
264,192,124968,2,0,P|229:119|254:42,1,165,2|0,2:2|3:0,0:0:0:0:
384,183,125472,1,2,1:2:0:0:
364,55,125639,1,2,2:2:0:0:
384,218,125807,6,0,B|443:226|514:236|514:236|489:233|473:206,1,165,0|2,1:1|3:0,0:0:0:0:
318,319,126310,2,0,B|265:327|243:348|243:348|291:301|252:255,1,165,2|0,2:2|0:0,0:0:0:0:
259,151,126812,1,2,1:2:0:0:
159,292,126980,1,2,2:2:0:0:
420,251,127147,6,0,B|326:234|363:308|250:269,1,165,2|0,1:2|1:1,0:0:0:0:
75,210,127650,2,0,P|131:196|178:189,1,82.5,2|0,2:2|1:1,0:0:0:0:
272,111,127986,2,0,P|286:167|293:214,1,82.5,2|0,2:2|1:1,0:0:0:0:
159,292,128321,1,2,2:2:0:0:
194,71,128488,6,0,P|262:29|352:71,1,165,2|0,1:2|1:1,0:0:0:0:
448,199,128991,2,0,B|357:230|382:158|288:190,1,165,2|2,2:2|1:1,0:0:0:0:
413,121,129494,1,2,1:2:0:0:
337,275,129662,1,2,2:2:0:0:
263,103,129829,6,0,B|190:81|147:136|147:136|120:108|152:88,1,165,2|2,1:2|1:2,0:0:0:0:
228,210,130332,2,0,P|256:268|195:359,1,165,2|2,2:2|1:1,0:0:0:0:
72,228,130835,1,0,1:1:0:0:
158,277,131002,1,2,2:2:0:0:
47,216,131170,6,0,P|50:174|52:130,1,82.5,2|0,1:2|0:0,0:0:0:0:
206,19,131505,2,0,P|208:72|210:109,1,82.5,2|2,1:2|2:2,0:0:0:0:
239,288,131840,2,0,P|188:279|137:276,1,82.5,2|0,1:2|0:0,0:0:0:0:
19,48,132176,2,0,P|80:46|121:36,1,82.5,2|0,1:2|0:0,0:0:0:0:
338,32,132511,6,0,P|354:108|343:179,1,123.75,2|0,1:2|0:0,0:0:0:0:
338,185,132846,1,2,1:2:0:0:
102,120,133014,2,0,B|206:153|181:95|263:110,1,165,2|2,2:2|1:1,0:0:0:0:
189,231,133516,1,0,1:1:0:0:
146,37,133684,1,0,0:0:0:0:
369,107,133852,6,0,P|348:185|357:276,1,165,2|2,1:2|1:1,0:0:0:0:
189,231,134354,2,0,P|199:270|200:311,1,82.5,2|0,2:2|1:1,0:0:0:0:
76,188,134689,5,10,2:2:0:0:
63,161,134773,1,10,2:2:0:0:
64,131,134856,1,10,2:2:0:0:
77,105,134940,1,10,2:2:0:0:
101,87,135024,1,10,2:2:0:0:
130,82,135107,1,10,2:2:0:0:
156,86,135192,6,0,B|258:72|212:145|348:114,1,173.24999471283,4|10,1:2|2:2,0:0:0:0:
186,174,135695,2,0,P|148:248|199:321,1,173.24999471283,2|0,1:2|1:1,0:0:0:0:
355,218,136198,1,10,2:2:0:0:
235,245,136366,1,2,2:2:0:0:
380,323,136533,5,4,1:2:0:0:
327,114,136701,1,8,2:2:0:0:
327,114,136785,1,0,3:3:0:0:
327,114,136868,1,2,3:2:0:0:
478,254,137035,2,0,B|397:264|276:284,1,173.24999471283,2|2,1:2|1:1,0:0:0:0:
119,268,137539,1,10,2:2:0:0:
235,161,137706,1,2,2:2:0:0:
193,328,137873,6,0,P|117:357|33:312,1,173.24999471283,4|10,1:2|2:2,0:0:0:0:
119,93,138377,2,0,P|118:160|117:213,1,86.6249973564149,2|0,1:2|0:0,0:0:0:0:
256,262,138712,1,0,1:1:0:0:
255,75,138880,1,8,2:2:0:0:
119,186,139047,1,2,2:2:0:0:
331,175,139215,5,12,2:2:0:0:
366,173,139298,1,0,3:3:0:0:
402,172,139382,1,0,3:3:0:0:
437,171,139466,1,0,3:3:0:0:
477,171,139550,1,10,2:2:0:0:
394,4,139717,6,0,L|379:105,1,86.6249973564149,2|0,1:2|0:0,0:0:0:0:
256,262,140053,2,0,L|241:161,1,86.6249973564149,2|8,1:2|2:2,0:0:0:0:
144,42,140388,1,2,1:2:0:0:
144,42,140471,1,2,1:2:0:0:
144,42,140555,5,12,2:2:0:0:
66,248,140723,1,0,1:1:0:0:
278,84,140891,1,0,1:1:0:0:
15,77,141058,5,8,2:2:0:0:
187,289,141226,1,0,1:1:0:0:
220,27,141393,1,0,1:1:0:0:
12,175,141561,5,8,2:2:0:0:
275,320,141729,1,6,1:2:0:0:
122,346,142063,5,10,2:2:0:0:
435,257,142231,2,0,L|407:150,1,86.6249973564149,10|0,1:2|0:0,0:0:0:0:
402,144,142482,1,8,2:2:0:0:
402,144,142566,2,0,L|319:137,1,43.3124986782074,10|0,2:2|0:0,0:0:0:0:
177,254,142734,5,10,2:2:0:0:
134,261,142817,1,10,2:2:0:0:
94,246,142901,1,10,2:2:0:0:
67,213,142985,1,8,2:2:0:0:
60,171,143069,1,8,2:2:0:0:
76,131,143152,1,8,2:2:0:0:
102,111,143236,6,0,P|169:107|238:106,1,136.125004154205,6|0,1:2|0:0,0:0:0:0:
238,106,143572,1,10,2:2:0:0:
306,257,143739,2,0,P|321:214|324:169,1,90.7500027694703,2|0,1:2|0:0,0:0:0:0:
446,38,144074,2,0,P|438:82|444:127,1,90.7500027694703,2|8,1:2|2:2,0:0:0:0:
314,45,144410,1,2,2:2:0:0:
495,238,144577,6,0,P|438:226|387:225,1,90.7500027694703,0|2,1:1|2:2,0:0:0:0:
247,344,144912,1,10,2:2:0:0:
426,314,145080,1,0,1:1:0:0:
298,131,145248,2,0,P|302:176|304:222,1,90.7500027694703,2|0,2:2|1:1,0:0:0:0:
146,285,145583,2,0,P|150:240|152:195,1,90.7500027694703,10|0,2:2|0:0,0:0:0:0:
168,53,145918,6,0,P|93:48|55:119,1,136.125004154205,2|0,1:2|0:0,0:0:0:0:
51,129,146253,1,10,2:2:0:0:
259,105,146421,2,0,B|360:74|337:161|457:95,1,181.500005538941,2|2,1:2|1:2,0:0:0:0:
293,186,146924,1,8,2:2:0:0:
384,34,147092,1,2,2:2:0:0:
157,128,147259,6,0,P|176:204|185:320,1,181.500005538941,0|8,1:1|2:2,0:0:0:0:
293,186,147762,1,0,1:1:0:0:
99,273,147930,2,0,P|83:320|94:363,1,90.7500027694703,2|2,2:2|1:2,0:0:0:0:
272,364,148265,2,0,P|290:322|276:273,1,90.7500027694703,10|0,2:2|0:0,0:0:0:0:
193,112,148600,6,0,P|192:183|191:254,1,136.125004154205,6|0,1:2|0:0,0:0:0:0:
191,248,148935,1,10,2:2:0:0:
293,186,149103,2,0,P|384:184|478:199,1,181.500005538941,2|0,1:2|1:1,0:0:0:0:
369,269,149606,1,8,2:2:0:0:
349,101,149773,5,2,2:2:0:0:
349,101,149857,1,0,0:0:0:0:
349,101,149941,2,0,P|285:88|227:92,1,90.7500027694703,2|0,1:2|0:0,0:0:0:0:
279,267,150276,1,10,2:2:0:0:
427,153,150444,2,0,P|444:87|399:22,1,136.125004154205,2|0,1:2|0:0,0:0:0:0:
412,30,150779,1,2,1:2:0:0:
368,269,150947,2,0,P|414:266|459:269,1,90.7500027694703,8|2,2:2|2:2,0:0:0:0:
306,171,151198,5,0,0:0:0:0:
306,171,151282,2,0,B|225:155|253:202|174:184,1,136.125004154205,0|0,1:1|0:0,0:0:0:0:
139,160,151617,1,10,2:2:0:0:
15,308,151785,2,0,P|69:297|124:299,1,90.7500027694703,2|0,1:2|0:0,0:0:0:0:
281,260,152120,1,2,1:2:0:0:
139,160,152287,2,0,P|124:120|148:72,1,90.7500027694703,10|0,2:2|0:0,0:0:0:0:
41,213,152623,5,0,1:1:0:0:
219,47,152790,1,0,3:3:0:0:
219,47,152874,1,0,3:3:0:0:
219,47,152958,2,0,L|287:36,1,45.3750013847352,10|0,2:2|0:0,0:0:0:0:
371,28,153125,2,0,P|363:115|353:187,1,123.75,0|2,1:1|0:0,0:0:0:0:
358,151,153461,1,0,1:1:0:0:
361,266,153628,2,0,P|409:231|486:243,1,123.75,10|0,2:2|0:0,0:0:0:0:
419,345,153963,6,0,P|331:354|262:362,1,136.125004154205,6|0,1:2|0:0,0:0:0:0:
207,365,154298,1,10,2:2:0:0:
263,240,154466,2,0,P|274:189|269:144,1,90.7500027694703,2|0,1:2|0:0,0:0:0:0:
93,218,154801,2,0,P|87:273|100:313,1,90.7500027694703,2|10,1:2|2:2,0:0:0:0:
125,91,155136,1,2,2:2:0:0:
270,150,155304,6,0,B|341:144|341:144|394:168|394:168|473:162,1,181.500005538941,0|10,1:1|2:2,0:0:0:0:
290,52,155807,1,0,1:1:0:0:
433,262,155974,2,0,P|383:255|330:249,1,90.7500027694703,2|0,2:2|1:1,0:0:0:0:
180,161,156310,2,0,P|230:154|283:148,1,90.7500027694703,10|0,2:2|0:0,0:0:0:0:
159,263,156644,6,0,B|94:280|49:295|49:295|94:280|104:243,1,181.500005538941,2|10,1:2|2:2,0:0:0:0:
185,70,157148,2,0,P|178:132|182:176,1,90.7500027694703,2|0,1:2|0:0,0:0:0:0:
257,347,157483,2,0,P|266:300|259:240,1,90.7500027694703,2|8,1:2|2:2,0:0:0:0:
88,162,157818,1,2,2:2:0:0:
290,133,157986,6,0,L|415:153,1,90.7500027694703,0|0,1:1|1:1,0:0:0:0:
472,258,158321,1,8,2:2:0:0:
459,65,158488,1,0,1:1:0:0:
262,256,158656,5,2,2:2:0:0:
483,166,158824,1,0,1:1:0:0:
290,133,158991,5,10,2:2:0:0:
384,333,159159,1,0,0:0:0:0:
267,147,159326,6,0,P|191:127|86:91,1,181.500005538941,6|10,1:2|2:2,0:0:0:0:
126,219,159829,2,0,P|126:309|65:353,1,136.125004154205,2|0,1:2|0:0,0:0:0:0:
97,339,160164,1,2,1:2:0:0:
220,214,160332,1,8,2:2:0:0:
26,259,160500,1,2,2:2:0:0:
222,329,160667,6,0,P|302:324|377:328,1,136.125004154205,0|0,1:1|0:0,0:0:0:0:
324,238,161002,2,0,P|307:196|317:153,1,90.7500027694703,10|0,2:2|1:1,0:0:0:0:
442,284,161338,2,0,P|458:343|437:382,1,90.7500027694703,2|0,2:2|1:1,0:0:0:0:
222,329,161673,2,0,P|215:250|207:156,1,136.125004154205,10|0,2:2|0:0,0:0:0:0:
210,193,162008,5,2,1:2:0:0:
113,255,162176,1,0,0:0:0:0:
303,137,162343,1,10,2:2:0:0:
53,47,162510,2,0,B|155:25|132:84|238:53,1,181.500005538941,2|0,1:2|1:1,0:0:0:0:
393,127,162929,1,0,0:0:0:0:
393,127,163014,2,0,P|339:131|288:140,1,90.7500027694703,10|0,2:2|0:0,0:0:0:0:
113,255,163348,5,0,1:1:0:0:
136,293,163432,1,0,1:1:0:0:
176,313,163515,1,0,1:1:0:0:
221,309,163600,1,0,1:1:0:0:
256,281,163683,1,8,2:2:0:0:
257,58,163852,5,0,1:1:0:0:
193,230,164019,1,0,1:1:0:0:
97,73,164187,1,8,2:2:0:0:
82,93,164270,1,8,2:2:0:0:
72,117,164354,1,10,2:2:0:0:
69,142,164438,1,0,3:3:0:0:
73,167,164522,1,0,3:3:0:0:
85,189,164605,1,0,3:3:0:0:
103,215,164690,6,0,L|214:233,1,90.7500027694703,6|0,1:2|0:0,0:0:0:0:
418,266,165024,5,10,2:2:0:0:
254,84,165192,1,2,1:2:0:0:
358,357,165360,5,8,2:2:0:0:
430,93,165528,1,2,1:2:0:0:
430,93,165611,1,0,1:1:0:0:
430,93,165695,5,8,2:2:0:0:
230,249,165863,5,2,1:2:0:0:
481,158,166030,1,12,2:2:0:0:
308,16,166198,5,2,1:2:0:0:
329,256,166366,1,10,2:2:0:0:
137,66,166533,5,2,1:2:0:0:
137,66,166617,1,0,1:1:0:0:
137,66,166701,1,8,2:2:0:0:
346,135,166868,6,0,L|286:148,1,45.3750013847352,2|0,1:2|0:0,0:0:0:0:
62,233,167036,1,10,2:2:0:0:
246,77,167204,1,2,1:2:0:0:
246,77,167287,1,0,0:0:0:0:
246,77,167371,5,14,2:2:0:0:
167,333,167539,1,0,1:1:0:0:
36,102,167706,1,2,1:2:0:0:
21,320,167874,5,14,2:2:0:0:
297,193,168042,1,0,1:1:0:0:
36,102,168209,1,0,1:1:0:0:
157,251,168377,5,12,2:2:0:0:
333,45,168544,1,0,1:1:0:0:
335,327,168711,5,4,1:2:0:0:
130,138,168879,2,0,L|243:139,1,90.7500027694703,8|0,2:2|0:0,0:0:0:0:
157,251,169214,1,2,1:2:0:0:
334,132,169382,5,10,2:2:0:0:
313,171,169465,1,0,3:3:0:0:
314,212,169549,1,0,3:3:0:0:
347,248,169633,1,0,3:3:0:0:
381,265,169717,2,0,L|446:253,1,45.3750013847352,10|0,2:2|0:0,0:0:0:0:
494,134,169884,2,0,L|429:146,1,45.3750013847352,2|0,2:2|0:0,0:0:0:0:
334,132,170052,6,0,P|346:74|361:37,1,90.7500027694703,4|0,1:2|0:0,0:0:0:0:
199,130,170387,2,0,P|219:185|226:224,1,90.7500027694703,0|0,1:1|1:1,0:0:0:0:
221,239,170639,1,0,1:1:0:0:
221,239,170722,1,0,1:1:0:0:
103,322,170890,1,0,3:3:0:0:
103,322,170974,1,0,3:3:0:0:
103,322,171058,2,0,P|103:259|86:217,1,90.7500027694703,0|0,1:1|3:3,0:0:0:0:
20,163,171309,5,8,2:2:0:0:
20,163,171393,2,0,P|88:149|213:127,1,181.500005538941,8|0,2:2|1:1,0:0:0:0:
307,144,171896,1,0,3:3:0:0:
185,39,172063,2,0,P|196:95|198:139,1,90.7500027694703,2|0,1:2|0:0,0:0:0:0:
255,222,172315,1,0,1:1:0:0:
255,222,172398,2,0,P|243:280|242:317,1,90.7500027694703,2|0,1:2|0:0,0:0:0:0:
388,353,172650,5,0,2:2:0:0:
388,353,172734,2,0,P|397:283|392:242,1,90.7500027694703,6|0,1:2|0:0,0:0:0:0:
449,127,173069,1,0,3:1:0:0:
449,127,173153,1,0,3:1:0:0:
449,127,173236,2,0,L|342:150,1,90.7500027694703,0|0,3:1|1:1,0:0:0:0:
226,232,173572,1,0,3:3:0:0:
267,71,173739,2,0,L|272:116,1,45.3750013847352,0|0,1:1|0:0,0:0:0:0:
226,232,173906,1,2,3:2:0:0:
226,232,173990,1,8,2:2:0:0:
226,232,174074,6,0,B|156:215|179:267|81:251,1,136.125004154205,10|0,2:2|0:0,0:0:0:0:
95,252,174410,1,2,1:2:0:0:
121,168,174577,2,0,P|136:123|106:71,1,90.7500027694703,2|0,2:2|1:1,0:0:0:0:
13,84,174912,2,0,P|-2:129|28:181,1,90.7500027694703,2|0,2:2|1:1,0:0:0:0:
226,232,175248,5,2,2:2:0:0:
226,232,175331,1,0,2:0:0:0:
226,232,175415,2,0,P|307:218|374:230,1,123.75,4|0,1:2|0:0,0:0:0:0:
413,270,175750,2,0,P|393:211|409:168,1,82.5,0|0,1:1|3:3,0:0:0:0:
403,168,176002,1,0,3:3:0:0:
412,153,176086,1,0,1:1:0:0:
276,37,176253,2,8,L|295:101,1,41.25,8|8,3:3|3:3,3:3:0:0:
412,153,176421,2,0,B|427:47,1,82.5,0|2,1:1|3:2,0:0:0:0:
300,195,176672,5,8,2:2:0:0:
300,195,176756,2,0,P|230:175|155:176,1,123.75,10|0,2:2|0:0,0:0:0:0:
179,173,177091,1,2,1:2:0:0:
107,33,177259,2,0,L|117:121,1,82.5,2|0,2:2|1:1,0:0:0:0:
7,212,177594,2,0,L|17:124,1,82.5,2|0,2:2|1:1,0:0:0:0:
142,270,177929,1,2,2:2:0:0:
20,340,178097,6,0,B|106:321|89:372|196:345,1,165,6|2,1:2|1:2,0:0:0:0:
187,210,178600,2,0,P|149:235|144:280,1,82.5,2|0,2:2|1:1,0:0:0:0:
292,249,178935,1,2,2:2:0:0:
292,249,179102,2,0,L|280:137,1,82.5,2|0,1:2|3:3,0:0:0:0:
379,60,179354,5,8,2:2:0:0:
379,60,179438,2,0,B|208:77|382:70|209:87,1,165,8|0,2:2|1:1,0:0:0:0:
61,106,179940,1,0,0:0:0:0:
142,31,180108,2,0,P|144:86|147:128,1,82.5,0|0,1:1|0:0,0:0:0:0:
95,185,180443,2,0,P|93:240|90:282,1,82.5,2|0,1:2|0:0,0:0:0:0:
307,148,180778,6,0,P|240:133|142:112,1,165,4|2,1:2|1:2,0:0:0:0:
181,216,181281,2,0,P|212:276|155:358,1,165,2|0,2:2|3:0,0:0:0:0:
103,275,181784,1,0,1:1:0:0:
286,354,181951,5,2,3:2:0:0:
286,354,182035,1,8,2:2:0:0:
286,354,182119,2,0,L|412:344,1,123.75,10|0,2:2|0:0,0:0:0:0:
409,344,182454,1,2,1:2:0:0:
338,269,182622,2,0,P|312:237|307:197,1,82.5,2|0,2:2|1:1,0:0:0:0:
317,180,182873,1,2,2:2:0:0:
325,163,182957,1,2,2:2:0:0:
442,203,183125,1,0,1:1:0:0:
328,59,183292,5,2,2:2:0:0:
328,59,183376,1,0,1:1:0:0:
328,59,183460,2,0,P|236:63|161:69,1,165,4|0,1:2|1:1,0:0:0:0:
42,187,183963,1,0,3:0:0:0:
42,187,184046,1,0,3:0:0:0:
42,187,184130,2,0,L|133:171,1,82.5,0|0,1:1|3:0,0:0:0:0:
244,257,184465,1,2,1:2:0:0:
221,145,184633,5,2,3:2:0:0:
221,145,184717,1,8,2:2:0:0:
221,145,184801,1,10,2:2:0:0:
98,268,184968,2,0,L|156:256,1,41.25,2|0,2:2|0:0,0:0:0:0:
337,174,185136,1,0,1:1:0:0:
252,62,185303,2,0,B|172:36|172:36|119:70,1,123.75,2|0,2:2|0:0,0:0:0:0:
108,101,185639,2,0,L|136:207,1,82.5,2|0,2:2|1:1,0:0:0:0:
201,338,185974,5,2,2:2:0:0:
201,338,186058,1,0,1:0:0:0:
201,338,186141,2,0,L|279:284,1,82.5,4|0,1:2|0:0,0:0:0:0:
287,282,186393,1,0,1:1:0:0:
299,275,186477,1,0,1:1:0:0:
425,189,186644,2,0,P|383:269|423:337,1,165,0|0,3:3|3:0,0:0:0:0:
484,261,187147,1,2,1:2:0:0:
347,143,187315,5,2,3:2:0:0:
347,143,187398,1,8,2:2:0:0:
347,143,187482,2,0,B|171:146|349:151|171:152,1,165,10|0,2:2|1:1,0:0:0:0:
63,256,187985,2,0,P|130:248|172:247,1,82.5,0|0,3:3|1:1,0:0:0:0:
99,155,188320,1,0,3:3:0:0:
236,244,188488,1,8,2:2:0:0:
74,75,188655,5,2,2:2:0:0:
74,75,188739,1,0,1:1:0:0:
74,75,188823,2,0,B|143:61|130:106|224:81,1,123.75,4|0,1:2|0:0,0:0:0:0:
195,87,189158,1,2,1:2:0:0:
347,73,189326,2,0,P|306:57|268:33,1,82.5,2|0,2:2|1:1,0:0:0:0:
375,187,189661,2,0,P|410:165|448:150,1,82.5,2|0,2:2|1:1,0:0:0:0:
465,146,189912,1,0,1:0:0:0:
478,146,189996,1,2,2:2:0:0:
417,310,190164,5,0,1:1:0:0:
385,310,190247,1,0,0:0:0:0:
354,304,190331,1,2,3:2:0:0:
324,293,190415,1,0,3:3:0:0:
300,272,190499,5,2,1:2:0:0:
275,252,190582,1,0,3:3:0:0:
246,240,190666,1,0,3:3:0:0:
215,234,190750,1,0,3:3:0:0:
177,241,190834,6,0,L|176:290,1,41.25,2|0,1:2|3:3,0:0:0:0:
290,159,191002,2,0,L|275:115,1,41.25,0|0,3:3|3:3,0:0:0:0:
203,51,191169,5,2,1:2:0:0:
159,46,191252,1,0,3:3:0:0:
118,64,191336,1,2,3:2:0:0:
76,74,191420,1,0,3:3:0:0:
27,57,191505,6,0,B|-14:31|-14:31|11:46|28:164|28:164|59:182|59:182|67:253|67:253|31:281|31:281|67:253|67:253|145:247|125:309|226:281,1,544.500016616822,4|8,1:2|2:2,0:0:0:0:
351,106,192678,5,2,2:2:0:0:
351,106,192762,1,2,2:2:0:0:
351,106,192845,2,0,P|295:118|246:125,1,82.5,0|0,1:1|0:0,0:0:0:0:
157,69,193181,1,8,2:2:0:0:
325,19,193348,2,0,B|421:8|395:78|503:63,1,165,2|0,1:2|1:1,0:0:0:0:
364,260,193851,2,0,P|382:198|356:121,1,123.75,10|0,2:2|0:0,0:0:0:0:
351,106,194186,6,0,B|170:131|352:119|171:141,1,165,2|8,1:2|2:2,0:0:0:0:
210,303,194689,2,0,P|243:269|241:211,1,82.5,2|0,2:2|1:1,0:0:0:0:
82,238,195024,1,2,1:2:0:0:
82,247,195108,1,0,0:0:0:0:
83,255,195192,2,0,L|90:346,1,82.5,10|0,2:2|0:0,0:0:0:0:
175,141,195527,5,2,1:2:0:0:
38,32,195695,2,0,B|138:12|93:81|212:50,1,165,2|2,2:2|1:2,0:0:0:0:
241,209,196197,1,2,2:2:0:0:
83,149,196365,1,2,1:2:0:0:
290,70,196532,2,0,B|381:105|381:105|427:93,1,123.75,10|2,2:2|2:2,0:0:0:0:
467,49,196868,6,0,P|454:163|469:221,1,165,4|8,1:2|2:2,0:0:0:0:
387,310,197287,5,0,0:0:0:0:
364,327,197370,1,2,2:2:0:0:
337,338,197454,1,0,0:0:0:0:
308,339,197538,5,0,1:1:0:0:
280,332,197622,1,0,0:0:0:0:
255,317,197705,1,0,1:1:0:0:
237,295,197789,1,0,0:0:0:0:
216,265,197873,2,0,B|136:255|164:301|81:282,1,123.75,8|2,2:2|2:2,0:0:0:0:
13,317,198208,6,0,P|27:277|18:235,1,82.5,0|0,1:1|0:0,0:0:0:0:
63,107,198460,1,2,2:2:0:0:
63,107,198544,2,0,P|125:138|163:142,1,82.5,8|2,2:2|2:2,0:0:0:0:
229,63,198879,1,2,1:2:0:0:
316,187,199046,1,0,1:1:0:0:
316,187,199130,1,2,2:2:0:0:
316,187,199214,2,0,P|326:109|331:72,1,82.5,8|2,2:2|2:2,0:0:0:0:
430,41,199465,5,8,2:0:0:0:
430,41,199549,2,0,L|442:145,1,82.5,0|2,1:1|2:2,0:0:0:0:
319,280,199884,1,8,2:2:0:0:
503,238,200052,2,0,P|443:215|389:212,1,82.5,0|0,1:1|0:0,0:0:0:0:
276,358,200387,1,0,1:1:0:0:
451,331,200555,1,10,2:2:0:0:
329,191,200722,1,2,2:2:0:0:
120,350,200890,6,0,B|173:340|173:340|224:369|224:369|290:354,1,165,0|8,1:1|2:2,0:0:0:0:
100,228,201393,1,2,1:2:0:0:
227,280,201560,2,0,P|225:226|224:190,1,90.7500027694703,0|0,0:0|1:1,0:0:0:0:
222,168,201812,1,0,1:1:0:0:
223,149,201896,1,10,2:2:0:0:
60,43,202063,1,2,2:2:0:0:
60,43,202147,1,2,2:2:0:0:
60,43,202231,5,4,1:2:0:0:
85,260,202398,1,2,2:2:0:0:
210,64,202566,1,10,2:2:0:0:
4,132,202734,1,2,1:2:0:0:
210,279,202901,1,2,2:2:0:0:
118,150,203069,1,2,1:2:0:0:
156,358,203236,5,10,2:2:0:0:
188,361,203320,1,0,0:0:0:0:
219,363,203404,1,2,2:2:0:0:
250,365,203487,1,0,0:0:0:0:
282,362,203572,6,0,L|390:351,1,90.7500027694703,0|2,1:1|1:2,0:0:0:0:
439,198,203907,1,10,2:2:0:0:
321,273,204074,2,0,P|275:225|321:111,1,181.500005538941,2|2,1:2|1:2,0:0:0:0:
319,111,204493,1,2,2:2:0:0:
340,112,204577,1,10,2:2:0:0:
182,221,204745,5,2,2:2:0:0:
182,221,204829,1,0,0:0:0:0:
182,221,204912,2,0,P|129:235|73:248,1,90.7500027694703,0|2,1:1|2:2,0:0:0:0:
123,121,205248,1,10,2:2:0:0:
62,344,205415,1,2,1:2:0:0:
3,159,205583,1,2,2:2:0:0:
173,316,205750,5,2,1:2:0:0:
173,316,205834,1,0,0:0:0:0:
173,316,205918,2,0,L|241:323,1,45.3750013847352,10|0,2:2|0:0,0:0:0:0:
341,226,206086,2,0,L|287:237,1,45.3750013847352,2|0,2:2|0:0,0:0:0:0:
227,149,206253,5,0,1:1:0:0:
351,329,206421,2,0,P|412:337|458:308,1,90.7500027694703,2|10,1:2|2:2,0:0:0:0:
204,235,206756,2,0,P|157:228|77:226,1,107.249995090485,2|0,1:2|0:0,0:0:0:0:
54,231,207007,1,2,1:2:0:0:
54,231,207091,1,2,1:2:0:0:
227,149,207259,1,10,2:2:0:0:
11,102,207426,5,0,1:1:0:0:
11,102,207510,1,0,1:1:0:0:
11,102,207594,2,0,P|61:101|119:87,1,82.5,12|0,2:2|0:0,0:0:0:0:
294,63,207929,5,8,2:2:0:0:
163,262,208097,1,0,1:1:0:0:
180,43,208264,5,10,2:2:0:0:
347,226,208432,1,2,1:2:0:0:
347,226,208516,1,2,2:2:0:0:
347,226,208600,1,10,2:2:0:0:
148,154,208767,5,0,1:1:0:0:
148,154,208851,1,0,1:1:0:0:
148,154,208935,1,10,2:2:0:0:
385,42,209102,1,0,1:1:0:0:
393,308,209270,5,8,2:2:0:0:
275,145,209438,1,2,1:2:0:0:
266,355,209605,5,10,2:2:0:0:
416,159,209773,1,0,1:1:0:0:
416,159,209857,1,0,1:1:0:0:
416,159,209940,1,8,2:2:0:0:
168,237,210108,1,2,2:2:0:0:
289,31,210276,6,0,P|293:79|299:140,1,82.5,12|0,2:2|1:1,0:0:0:0:
348,346,210611,1,0,1:1:0:0:
498,152,210778,6,0,P|443:156|403:160,1,82.5,12|0,2:2|1:1,0:0:0:0:
168,237,211114,1,0,1:1:0:0:
144,218,211197,1,0,1:1:0:0:
128,192,211281,1,12,2:2:0:0:
122,163,211365,1,2,2:2:0:0:
127,133,211449,1,2,1:2:0:0:
141,107,211532,1,2,2:2:0:0:
161,91,211616,6,0,L|155:30,1,41.25,2|2,1:2|2:2,0:0:0:0:
49,8,211784,2,0,L|55:69,1,41.25,12|2,2:2|2:2,0:0:0:0:
212,163,211951,5,2,1:2:0:0:
255,142,212063,1,2,2:2:0:0:
296,165,212175,1,2,1:2:0:0:
342,146,212287,6,0,B|367:137|384:114|384:114|356:203,1,123.75,12|2,2:2|2:2,0:0:0:0:
382,260,212622,1,12,2:2:0:0:
211,84,212789,5,2,2:2:0:0:
211,84,212873,1,0,0:0:0:0:
211,84,212957,2,0,B|106:65|166:176|12:129|12:129|87:152|87:152|63:200|63:200|137:228|137:228|91:211|65:267,1,495,4|0,1:2|0:0,0:0:0:0:
199,333,214130,5,2,2:2:0:0:
199,333,214214,1,2,2:2:0:0:
199,333,214298,2,0,P|114:329|45:337,1,148.49999546814,2|2,2:2|2:2,0:0:0:0:
136,229,214968,1,2,2:2:0:0:
13,129,215303,1,2,2:2:0:0:
309,113,215639,5,4,2:2:0:0:
152,99,225359,6,0,P|197:87|227:89,1,61.875002360344,0|0,0:0|0:0,0:0:0:0:
281,154,225695,2,0,P|236:166|204:167,1,61.875002360344,0|0,0:0|0:0,0:0:0:0:
155,217,226030,2,0,P|164:248|147:285,1,61.875002360344,0|0,0:0|0:0,0:0:0:0:
29,338,226365,6,0,B|119:316|92:383|198:354,1,148.49999546814,4|2,1:2|2:2,0:0:0:0:
272,290,226868,2,0,P|270:339|277:365,1,74.2499977340699,2|8,2:2|0:1,0:0:0:0:
374,213,227203,2,0,P|381:257|376:294,1,74.2499977340699,2|2,2:2|2:2,0:0:0:0:
155,210,227538,6,0,P|235:190|312:170,1,148.49999546814,2|0,2:2|0:0,0:0:0:0:
232,39,228041,2,0,P|227:94|222:127,1,74.2499977340699,2|2,2:2|2:2,0:0:0:0:
347,90,228376,2,0,P|336:52|326:14,1,74.2499977340699,8|0,0:1|0:0,0:0:0:0:
224,112,228711,2,0,P|217:171|214:204,1,74.2499977340699,2|0,2:2|0:0,0:0:0:0:
350,302,229046,6,0,P|350:243|357:170,1,111.374996601105,2|0,2:2|0:0,0:0:0:0:
355,191,229382,1,2,2:2:0:0:
259,255,229549,2,0,P|218:258|167:262,1,74.2499977340699,2|8,2:2|0:1,0:0:0:0:
81,328,229884,2,0,P|124:335|168:343,1,74.2499977340699,2|0,2:2|0:0,0:0:0:0:
90,234,230220,6,0,P|58:189|161:86,1,222.74999320221,2|2,2:2|2:2,0:0:0:0:
422,120,231058,2,0,P|385:110|340:100,1,74.2499977340699,8|0,0:1|0:0,0:0:0:0:
265,207,231393,2,0,P|302:197|347:187,1,74.2499977340699,2|0,2:2|0:0,0:0:0:0:
457,220,231728,6,0,P|412:271|433:345,1,148.49999546814,2|2,2:2|2:2,0:0:0:0:
329,351,232231,2,0,P|287:345|248:344,1,74.2499977340699,2|8,2:2|0:1,0:0:0:0:
183,283,232566,2,0,P|136:285|99:283,1,74.2499977340699,2|0,2:2|0:0,0:0:0:0:
273,258,232901,6,0,P|328:219|283:112,1,185.624994335175,2|0,2:2|0:0,0:0:0:0:
263,106,233404,2,0,L|248:184,1,74.2499977340699,2|2,2:2|2:2,0:0:0:0:
149,198,233739,2,0,L|134:120,1,74.2499977340699,8|0,0:1|0:0,0:0:0:0:
185,34,234074,1,2,2:2:0:0:
84,306,234410,6,0,B|170:293|140:347|236:328,1,148.49999546814,2|2,2:2|2:2,0:0:0:0:
406,85,236086,6,0,B|418:104|433:113|433:113|411:182,1,99,2|0,2:2|0:0,0:0:0:0:
383,203,236421,2,0,B|313:185|343:161|273:152,1,111.374996601105,2|0,2:2|0:0,0:0:0:0:
223,103,236756,2,0,P|238:154|182:198,1,123.75,2|0,2:2|0:0,0:0:0:0:
152,196,237091,6,0,P|85:188|3:183,1,136.125004154205,6|0,1:2|0:0,0:0:0:0:
16,183,237426,1,10,2:2:0:0:
0,317,237594,2,0,P|58:308|94:304,1,90.7500027694703,2|0,1:2|0:0,0:0:0:0:
244,183,237929,2,0,P|191:191|150:196,1,90.7500027694703,2|8,1:2|2:2,0:0:0:0:
228,339,238264,1,2,2:2:0:0:
336,141,238432,6,0,P|328:192|324:245,1,90.7500027694703,0|2,1:1|2:2,0:0:0:0:
239,78,238767,1,10,2:2:0:0:
444,237,238935,1,0,1:1:0:0:
440,28,239102,2,0,P|429:74|422:133,1,90.7500027694703,2|0,2:2|1:1,0:0:0:0:
325,321,239437,2,0,P|325:265|322:202,1,90.7500027694703,10|0,2:2|0:0,0:0:0:0:
239,78,239773,6,0,P|174:65|111:119,1,136.125004154205,2|0,1:2|0:0,0:0:0:0:
127,118,240108,1,10,2:2:0:0:
20,233,240275,2,0,B|120:203|92:279|218:223,1,181.500005538941,2|2,1:2|1:2,0:0:0:0:
44,325,240778,1,8,2:2:0:0:
127,118,240946,1,2,2:2:0:0:
230,333,241113,6,0,P|306:314|422:305,1,181.500005538941,0|8,1:1|2:2,0:0:0:0:
334,205,241616,1,0,1:1:0:0:
423,134,241784,2,0,P|442:182|426:232,1,90.7500027694703,2|2,2:2|1:2,0:0:0:0:
247,241,242119,2,0,P|228:196|244:143,1,90.7500027694703,10|0,2:2|0:0,0:0:0:0:
313,320,242454,6,0,P|241:353|172:324,1,136.125004154205,6|0,1:2|0:0,0:0:0:0:
162,309,242789,1,10,2:2:0:0:
421,176,242957,2,0,P|414:271|408:361,1,181.500005538941,2|0,1:2|1:1,0:0:0:0:
262,217,243460,1,8,2:2:0:0:
496,119,243627,5,2,2:2:0:0:
496,119,243711,1,0,0:0:0:0:
496,119,243795,2,0,P|432:106|374:110,1,90.7500027694703,2|0,1:2|0:0,0:0:0:0:
262,217,244130,1,10,2:2:0:0:
430,341,244298,2,0,B|453:281|453:281|425:203,1,136.125004154205,2|0,1:2|0:0,0:0:0:0:
405,179,244633,1,2,1:2:0:0:
230,310,244801,2,0,P|293:308|327:309,1,90.7500027694703,8|2,2:2|2:2,0:0:0:0:
265,128,245052,5,0,0:0:0:0:
265,128,245136,2,0,B|184:112|212:159|133:141,1,136.125004154205,0|0,1:1|0:0,0:0:0:0:
165,62,245471,1,10,2:2:0:0:
10,221,245639,2,0,P|71:215|119:212,1,90.7500027694703,2|0,1:2|0:0,0:0:0:0:
212,336,245974,1,2,1:2:0:0:
329,213,246141,2,0,P|294:210|225:204,1,90.7500027694703,10|0,2:2|0:0,0:0:0:0:
71,85,246477,5,0,1:1:0:0:
274,36,246644,1,0,3:3:0:0:
274,36,246728,1,0,3:3:0:0:
274,36,246812,2,0,L|362:32,1,45.3750013847352,10|0,2:2|0:0,0:0:0:0:
470,142,246979,2,0,P|402:133|334:127,1,136.125004154205,0|0,1:1|0:0,0:0:0:0:
334,127,247315,1,0,3:3:0:0:
427,220,247482,2,0,P|455:280|421:347,1,136.125004154205,10|0,2:2|0:0,0:0:0:0:
223,299,247817,6,0,P|290:291|358:284,1,136.125004154205,6|0,1:2|0:0,0:0:0:0:
358,284,248152,1,10,2:2:0:0:
253,109,248320,2,0,P|255:154|264:198,1,90.7500027694703,2|0,1:2|0:0,0:0:0:0:
124,356,248655,2,0,P|132:311|135:266,1,90.7500027694703,2|8,1:2|2:2,0:0:0:0:
173,74,248990,1,2,2:2:0:0:
26,152,249158,6,0,B|97:146|97:146|150:170|150:170|229:164,1,181.500005538941,0|10,1:1|2:2,0:0:0:0:
360,281,249661,1,0,1:1:0:0:
282,42,249828,2,0,P|289:92|295:145,1,90.7500027694703,2|0,2:2|1:1,0:0:0:0:
416,198,250164,2,0,P|423:148|429:95,1,90.7500027694703,10|0,2:2|0:0,0:0:0:0:
360,281,250499,6,0,B|295:298|250:313|250:313|295:298|305:261,1,181.500005538941,2|10,1:2|2:2,0:0:0:0:
427,108,251002,2,0,P|384:98|338:115,1,90.7500027694703,2|0,1:2|0:0,0:0:0:0:
212,280,251337,2,0,P|279:280|318:262,1,90.7500027694703,2|8,1:2|2:2,0:0:0:0:
204,104,251672,1,2,2:2:0:0:
106,254,251840,6,0,L|120:343,1,90.7500027694703,0|0,1:1|1:1,0:0:0:0:
254,175,252175,1,8,2:2:0:0:
56,79,252342,1,0,1:1:0:0:
212,280,252510,5,2,2:2:0:0:
309,65,252678,1,0,1:1:0:0:
118,166,252845,5,10,2:2:0:0:
349,224,253013,1,0,0:0:0:0:
60,314,253180,6,0,B|165:304|124:376|231:370,1,181.500005538941,6|10,1:2|2:2,0:0:0:0:
221,147,253683,2,0,P|168:74|93:74,1,136.125004154205,2|0,1:2|0:0,0:0:0:0:
106,65,254018,1,2,1:2:0:0:
197,262,254186,1,8,2:2:0:0:
296,76,254354,1,2,2:2:0:0:
6,211,254521,6,0,P|85:200|161:210,1,136.125004154205,0|0,1:1|0:0,0:0:0:0:
197,262,254856,2,0,P|213:321|192:360,1,90.7500027694703,10|0,2:2|1:1,0:0:0:0:
79,364,255192,2,0,P|63:305|84:266,1,90.7500027694703,2|0,2:2|1:1,0:0:0:0:
228,181,255527,2,0,P|302:208|390:241,1,136.125004154205,10|0,2:2|0:0,0:0:0:0:
355,228,255862,5,2,1:2:0:0:
485,321,256030,1,0,0:0:0:0:
436,142,256197,1,10,2:2:0:0:
300,325,256365,2,0,B|198:303|221:362|115:331,1,181.500005538941,2|2,1:2|1:2,0:0:0:0:
180,158,256868,2,0,P|170:216|167:263,1,90.7500027694703,10|0,2:2|0:0,0:0:0:0:
50,206,257203,5,0,1:1:0:0:
290,61,257370,1,0,1:1:0:0:
22,83,257538,5,8,2:2:0:0:
288,159,257706,1,0,1:1:0:0:
132,13,257873,5,0,1:1:0:0:
252,260,258041,1,8,2:2:0:0:
272,275,258124,1,8,2:2:0:0:
296,285,258208,1,10,2:2:0:0:
321,288,258292,1,0,3:3:0:0:
346,284,258376,1,0,3:3:0:0:
368,272,258459,1,0,3:3:0:0:
394,254,258544,6,0,L|379:141,1,90.7500027694703,6|0,1:2|0:0,0:0:0:0:
177,329,258879,5,10,2:2:0:0:
295,100,259046,1,2,1:2:0:0:
73,94,259214,5,8,2:2:0:0:
318,200,259382,1,2,1:2:0:0:
318,200,259465,1,0,1:1:0:0:
318,200,259549,5,8,2:2:0:0:
55,262,259717,5,2,1:2:0:0:
55,262,259801,1,0,0:0:0:0:
55,262,259884,5,12,2:2:0:0:
207,53,260052,1,2,1:2:0:0:
340,315,260220,5,10,2:2:0:0:
148,157,260387,1,2,1:2:0:0:
148,157,260471,1,0,1:1:0:0:
148,157,260555,1,8,2:2:0:0:
409,74,260722,6,0,L|349:87,1,45.3750013847352,2|0,1:2|0:0,0:0:0:0:
195,295,260890,1,10,2:2:0:0:
207,53,261058,5,2,1:2:0:0:
207,53,261141,1,0,0:0:0:0:
207,53,261225,5,12,2:2:0:0:
419,190,261393,1,0,1:1:0:0:
92,238,261560,1,2,1:2:0:0:
320,40,261728,1,14,2:2:0:0:
110,341,261896,5,0,1:1:0:0:
207,53,262063,1,0,1:1:0:0:
287,341,262231,1,12,2:2:0:0:
44,156,262398,5,0,1:1:0:0:
44,156,262482,1,0,1:1:0:0:
44,156,262566,2,0,B|87:138|136:147|136:147|173:181|240:165,1,181.500005538941,12|0,2:2|0:0,0:0:0:0:
256,192,262985,12,2,263572,2:2:0:0:
442,255,263739,5,0,1:1:0:0:
442,255,263823,1,0,1:1:0:0:
442,255,263907,2,0,B|392:241|392:241|341:264|341:264|257:245,1,165,4|0,1:2|1:1,0:0:0:0:
337,95,264409,2,0,P|331:150|326:191,1,82.5,14|0,2:2|1:1,0:0:0:0:
197,300,264745,1,0,1:1:0:0:
197,300,264912,2,0,P|195:248|195:205,1,82.5,14|0,2:2|1:1,0:0:0:0:
84,66,265247,6,0,B|164:59|138:124|237:110,1,165,12|2,2:2|1:2,0:0:0:0:
365,21,265750,1,12,2:2:0:0:
236,110,265918,2,0,P|221:166|227:200,1,82.5,2|0,1:2|1:1,0:0:0:0:
375,100,266253,2,0,P|377:52|358:10,1,82.5,14|0,2:2|1:1,0:0:0:0:
367,233,266588,6,0,B|422:248|476:266|476:266|504:252|503:216,1,165,14|0,2:2|1:1,0:0:0:0:
286,177,267091,1,14,2:2:0:0:
286,177,267259,2,0,P|275:223|265:281,1,82.5,0|0,1:1|1:1,0:0:0:0:
78,347,267594,2,0,P|147:327|222:325,1,123.75,14|0,2:2|0:0,0:0:0:0:
344,343,267929,5,14,2:2:0:0:
145,216,268097,1,0,1:1:0:0:
364,201,268264,2,0,P|318:187|259:167,1,82.5,2|12,1:2|2:2,0:0:0:0:
153,32,268599,2,0,P|166:71|178:110,1,82.5,2|0,1:2|1:1,0:0:0:0:
60,306,268935,2,0,P|105:257|152:206,1,123.75,14|0,2:2|0:0,0:0:0:0:
276,78,269270,5,4,1:2:0:0:
290,60,269605,5,0,1:1:0:0:
288,240,269773,1,0,0:0:0:0:
396,94,269940,1,0,1:1:0:0:
394,321,270108,1,0,0:0:0:0:
245,150,270275,1,0,1:1:0:0:
478,223,270443,5,2,2:2:0:0:
478,223,270527,1,2,2:2:0:0:
478,223,270611,2,0,P|429:211|386:199,1,82.5,0|2,1:1|2:2,0:0:0:0:
192,299,270946,5,2,1:2:0:0:
316,155,271113,1,2,2:2:0:0:
130,153,271281,1,2,1:2:0:0:
276,238,271449,1,2,2:2:0:0:
191,78,271616,1,2,1:2:0:0:
204,195,271784,1,2,2:2:0:0:
26,66,271951,6,0,P|109:71|201:79,1,165,12|0,1:2|3:3,0:0:0:0:
316,155,272454,1,0,3:3:0:0:
298,54,272622,1,8,2:2:0:0:
204,195,272789,1,8,2:2:0:0:
431,102,272957,1,8,2:2:0:0:
181,22,273125,1,8,2:2:0:0:
236,338,273292,5,10,2:2:0:0:
189,105,273460,1,8,2:2:0:0:
371,331,273627,1,8,2:2:0:0:
340,98,273795,1,8,2:2:0:0:
340,98,273879,1,8,2:2:0:0:
340,98,273963,1,8,2:2:0:0:
236,338,274130,5,0,3:3:0:0:
236,338,274214,1,0,3:3:0:0:
236,338,274298,2,0,P|197:326|165:320,1,41.25,0|0,3:3|0:0,0:0:0:0:
101,285,274465,5,2,1:2:0:0:
101,285,274549,1,2,2:2:0:0:
101,285,274633,6,0,P|89:197|77:102,1,165,4|0,1:2|0:0,0:0:0:0:
256,192,275052,12,0,280164,0:0:0:0:
