osu file format v14

[General]
AudioFilename: audio.mp3
AudioLeadIn: 0
PreviewTime: 214600
Countdown: 0
SampleSet: Soft
StackLeniency: 0.5
Mode: 0
LetterboxInBreaks: 0
WidescreenStoryboard: 1

[Editor]
Bookmarks: 25215,46667,65438,92254,124432,143203,170019
DistanceSpacing: 1
BeatDivisor: 4
GridSize: 32
TimelineZoom: 2.4

[Metadata]
Title:Rinne
TitleUnicode:輪廻
Artist:Yamamoto Mineko
ArtistUnicode:山本美禰子
Creator:ScubDomino
Version:Shizuku's Expert
Source:さくら、もゆ。-as the Night's, Reincarnation-
Tags:山本 美禰子 Sakura Moyu 2nd opening op2 Takayuki Ishikura 石倉 誉之 maro Masato Yokoe 横江将人 Kotaro Odaka 小高 光太郎 FVS-SAKREC Japanese Vocal FAVORITE 15th ANNIVERSARY SPECIAL LIVE Denkigai Matsuri 2019 SUMMER FVS-SAKOST OST Original Soundtrack CD Cherry Blossom Dark Fantasy Mahou Shoujo Catgirl eroge ero video hentai game galgame nakige cute pop novelty xLolicore- HiImNoob 4525153 Shizuku- vahn10 1125647 Left jaehyeok 5062061 anime girl anime_girl jungkyuyoung 8972308
BeatmapID:2197384
BeatmapSetID:1018061

[Difficulty]
HPDrainRate:5
CircleSize:4
OverallDifficulty:8.5
ApproachRate:9
SliderMultiplier:1.52
SliderTickRate:1

[Events]
//Background and Video events
0,0,"kuro.png",0,0
//Break Periods
2,234534,235411
//Storyboard Layer 0 (Background)
//Storyboard Layer 1 (Fail)
//Storyboard Layer 2 (Pass)
//Storyboard Layer 3 (Foreground)
//Storyboard Layer 4 (Overlay)
//Storyboard Sound Samples

[TimingPoints]
1039,335.195530726257,4,2,1,50,1,0
1039,-166.666666666667,4,2,1,50,0,0
1373,-166.666666666667,4,2,2,50,0,0
1541,-166.666666666667,4,2,3,50,0,0
2044,-166.666666666667,4,2,4,50,0,0
2379,-166.666666666667,4,2,5,50,0,0
2714,-166.666666666667,4,2,6,50,0,0
2882,-166.666666666667,4,2,3,50,0,0
3385,-166.666666666667,4,2,4,50,0,0
3720,-166.666666666667,4,2,7,50,0,0
4055,-166.666666666667,4,2,8,50,0,0
4222,-166.666666666667,4,2,9,50,0,0
4558,-166.666666666667,4,2,1,50,0,0
4893,-166.666666666667,4,2,4,50,0,0
5060,-166.666666666667,4,2,10,50,0,0
5228,-166.666666666667,4,2,11,50,0,0
5396,-166.666666666667,4,2,12,50,0,0
5564,-166.666666666667,4,2,1,50,0,0
5731,-166.666666666667,4,2,13,50,0,0
5898,-166.666666666667,4,2,11,50,0,0
6066,-166.666666666667,4,2,14,50,0,0
6401,-166.666666666667,4,2,1,50,0,0
6736,-166.666666666667,4,2,2,50,0,0
6904,-166.666666666667,4,2,3,50,0,0
7407,-166.666666666667,4,2,4,50,0,0
7742,-166.666666666667,4,2,5,50,0,0
8077,-166.666666666667,4,2,15,50,0,0
8245,-166.666666666667,4,2,3,50,0,0
8748,-166.666666666667,4,2,4,50,0,0
9083,-166.666666666667,4,2,7,50,0,0
9418,-166.666666666667,4,2,8,50,0,0
9585,-166.666666666667,4,2,9,50,0,0
9921,-166.666666666667,4,2,1,50,0,0
10256,-166.666666666667,4,2,4,50,0,0
10423,-166.666666666667,4,2,10,50,0,0
10591,-166.666666666667,4,2,11,50,0,0
10759,-166.666666666667,4,2,2,50,0,0
10927,-166.666666666667,4,2,1,50,0,0
11094,-166.666666666667,4,2,16,50,0,0
11261,-166.666666666667,4,2,17,50,0,0
11429,-166.666666666667,4,2,14,50,0,0
11764,-166.666666666667,4,2,18,50,0,0
11932,-166.666666666667,4,2,19,50,0,0
12100,-166.666666666667,4,2,20,50,0,0
12268,-166.666666666667,4,2,6,50,0,0
12435,-166.666666666667,4,2,1,50,0,0
12603,-166.666666666667,4,2,4,50,0,0
12770,-166.666666666667,4,2,1,50,0,0
12938,-166.666666666667,4,2,4,50,0,0
13105,-166.666666666667,4,2,21,50,0,0
13273,-166.666666666667,4,2,22,50,0,0
13440,-166.666666666667,4,2,23,50,0,0
13608,-166.666666666667,4,2,24,50,0,0
13692,-166.666666666667,4,2,1,50,0,0
14111,-166.666666666667,4,2,4,50,0,0
14446,-166.666666666667,4,2,25,50,0,0
14613,-166.666666666667,4,2,26,50,0,0
14782,-166.666666666667,4,2,11,50,0,0
14949,-166.666666666667,4,2,27,50,0,0
15033,-166.666666666667,4,2,1,50,0,0
15284,-166.666666666667,4,2,4,50,0,0
15452,-166.666666666667,4,2,1,50,0,0
15620,-166.666666666667,4,2,4,50,0,0
15787,-166.666666666667,4,2,28,60,0,0
15954,-166.666666666667,4,2,29,60,0,0
16122,-166.666666666667,4,2,30,60,0,0
16206,-166.666666666667,4,2,4,60,0,0
16290,-166.666666666667,4,2,1,60,0,0
16457,-333.333333333333,4,2,31,60,0,0
16625,-333.333333333333,4,2,25,60,0,0
16793,-333.333333333333,4,2,32,60,0,0
16960,-333.333333333333,4,2,33,60,0,0
17044,-333.333333333333,4,2,1,60,0,0
17128,-76.9230769230769,4,2,34,70,0,0
17295,-76.9230769230769,4,2,35,70,0,0
17463,-76.9230769230769,4,2,36,70,0,0
17630,-76.9230769230769,4,2,37,70,0,0
17798,-76.9230769230769,4,2,1,70,0,0
17965,-76.9230769230769,4,2,35,70,0,0
18133,-76.9230769230769,4,2,38,70,0,0
18301,-76.9230769230769,4,2,35,70,0,0
18385,-76.9230769230769,4,2,1,70,0,0
18468,-76.9230769230769,4,2,39,70,0,0
18636,-76.9230769230769,4,2,40,70,0,0
18803,-76.9230769230769,4,2,41,70,0,0
18971,-76.9230769230769,4,2,42,70,0,0
19055,-76.9230769230769,4,2,4,70,0,0
19306,-76.9230769230769,4,2,40,70,0,0
19474,-76.9230769230769,4,2,43,70,0,0
19641,-76.9230769230769,4,2,40,70,0,0
19809,-76.9230769230769,4,2,44,70,0,0
19977,-76.9230769230769,4,2,45,70,0,0
20312,-76.9230769230769,4,2,46,70,0,0
20479,-76.9230769230769,4,2,47,70,0,0
20647,-76.9230769230769,4,2,45,70,0,0
20815,-76.9230769230769,4,2,48,70,0,0
20982,-76.9230769230769,4,2,45,70,0,0
21066,-76.9230769230769,4,2,1,70,0,0
21150,-76.9230769230769,4,2,49,70,0,0
21317,-76.9230769230769,4,2,50,70,0,0
21485,-76.9230769230769,4,2,45,70,0,0
21653,-76.9230769230769,4,2,51,70,0,0
21820,-76.9230769230769,4,2,52,70,0,0
21988,-76.9230769230769,4,2,45,70,0,0
22155,-76.9230769230769,4,2,46,70,0,0
22323,-76.9230769230769,4,2,1,70,0,0
22491,-333.333333333333,4,2,53,70,0,0
22575,-333.333333333333,4,2,53,70,0,0
23496,-333.333333333333,4,2,53,5,0,0
23664,-333.333333333333,4,2,11,50,0,0
23748,-333.333333333333,4,2,27,50,0,0
23832,-333.333333333333,4,2,54,50,0,0
24167,-333.333333333333,4,2,33,50,0,0
24250,-333.333333333333,4,2,22,50,0,0
24334,-333.333333333333,4,2,55,50,0,0
24418,-333.333333333333,4,2,11,50,0,0
24502,-333.333333333333,4,2,55,60,0,0
24586,-333.333333333333,4,2,11,60,0,0
24670,-333.333333333333,4,2,15,70,0,0
24753,-333.333333333333,4,2,56,70,0,0
24837,-333.333333333333,4,2,57,70,0,0
24921,-333.333333333333,4,2,58,70,0,0
25005,-333.333333333333,4,2,56,80,0,0
25088,-333.333333333333,4,2,59,80,0,0
25173,-166.666666666667,4,2,60,50,0,0
25340,-166.666666666667,4,2,7,50,0,0
25507,-166.666666666667,4,2,58,50,0,0
25675,-166.666666666667,4,2,61,50,0,0
25843,-166.666666666667,4,2,1,50,0,0
26010,-166.666666666667,4,2,8,50,0,0
26178,-166.666666666667,4,2,62,50,0,0
26345,-166.666666666667,4,2,63,50,0,0
26513,-166.666666666667,4,2,64,50,0,0
26680,-166.666666666667,4,2,65,50,0,0
26848,-166.666666666667,4,2,66,50,0,0
27016,-166.666666666667,4,2,6,50,0,0
27184,-166.666666666667,4,2,1,50,0,0
27351,-166.666666666667,4,2,65,50,0,0
27518,-166.666666666667,4,2,67,50,0,0
27686,-166.666666666667,4,2,68,50,0,0
27854,-166.666666666667,4,2,69,50,0,0
28021,-166.666666666667,4,2,5,50,0,0
28189,-166.666666666667,4,2,58,50,0,0
28356,-166.666666666667,4,2,70,50,0,0
28524,-166.666666666667,4,2,1,50,0,0
28692,-166.666666666667,4,2,5,50,0,0
28859,-166.666666666667,4,2,66,50,0,0
29027,-166.666666666667,4,2,5,50,0,0
29194,-166.666666666667,4,2,71,50,0,0
29362,-166.666666666667,4,2,70,50,0,0
29530,-166.666666666667,4,2,56,50,0,0
29697,-166.666666666667,4,2,72,50,0,0
29865,-166.666666666667,4,2,56,50,0,0
30032,-166.666666666667,4,2,5,50,0,0
30200,-166.666666666667,4,2,66,50,0,0
30368,-166.666666666667,4,2,73,50,0,0
30535,-166.666666666667,4,2,68,50,0,0
30703,-166.666666666667,4,2,7,50,0,0
30870,-166.666666666667,4,2,58,50,0,0
31038,-166.666666666667,4,2,61,50,0,0
31206,-166.666666666667,4,2,1,50,0,0
31373,-166.666666666667,4,2,8,50,0,0
31541,-166.666666666667,4,2,62,50,0,0
31708,-166.666666666667,4,2,15,50,0,0
31876,-166.666666666667,4,2,64,50,0,0
32044,-166.666666666667,4,2,65,50,0,0
32211,-166.666666666667,4,2,66,50,0,0
32379,-166.666666666667,4,2,6,50,0,0
32547,-166.666666666667,4,2,1,50,0,0
32714,-166.666666666667,4,2,65,50,0,0
32882,-166.666666666667,4,2,67,50,0,0
33049,-166.666666666667,4,2,68,50,0,0
33217,-166.666666666667,4,2,69,50,0,0
33384,-166.666666666667,4,2,26,50,0,0
33552,-166.666666666667,4,2,23,50,0,0
33720,-166.666666666667,4,2,70,50,0,0
33887,-166.666666666667,4,2,1,50,0,0
34055,-166.666666666667,4,2,5,50,0,0
34222,-166.666666666667,4,2,66,50,0,0
34390,-166.666666666667,4,2,5,50,0,0
34558,-166.666666666667,4,2,71,50,0,0
34725,-166.666666666667,4,2,74,50,0,0
34893,-166.666666666667,4,2,62,50,0,0
35060,-166.666666666667,4,2,75,50,0,0
35228,-166.666666666667,4,2,76,50,0,0
35396,-166.666666666667,4,2,74,50,0,0
35563,-166.666666666667,4,2,77,50,0,0
35731,-166.666666666667,4,2,66,50,0,0
35898,-166.666666666667,4,2,68,50,0,0
36066,-166.666666666667,4,2,7,50,0,0
36234,-166.666666666667,4,2,58,50,0,0
36401,-166.666666666667,4,2,61,50,0,0
36569,-166.666666666667,4,2,1,50,0,0
36736,-166.666666666667,4,2,8,50,0,0
36904,-166.666666666667,4,2,62,50,0,0
37072,-166.666666666667,4,2,63,50,0,0
37239,-166.666666666667,4,2,78,50,0,0
37407,-166.666666666667,4,2,65,50,0,0
37574,-166.666666666667,4,2,66,50,0,0
37742,-166.666666666667,4,2,6,50,0,0
37910,-166.666666666667,4,2,1,50,0,0
38077,-166.666666666667,4,2,65,50,0,0
38245,-166.666666666667,4,2,67,50,0,0
38412,-166.666666666667,4,2,68,50,0,0
38580,-166.666666666667,4,2,69,50,0,0
38748,-166.666666666667,4,2,5,50,0,0
38915,-166.666666666667,4,2,58,50,0,0
39083,-166.666666666667,4,2,70,50,0,0
39250,-166.666666666667,4,2,1,50,0,0
39418,-166.666666666667,4,2,5,50,0,0
39586,-166.666666666667,4,2,66,50,0,0
39753,-166.666666666667,4,2,79,50,0,0
39921,-166.666666666667,4,2,80,50,0,0
40088,-166.666666666667,4,2,7,50,0,0
40256,-166.666666666667,4,2,66,50,0,0
40424,-166.666666666667,4,2,72,50,0,0
40591,-166.666666666667,4,2,56,50,0,0
40759,-166.666666666667,4,2,70,50,0,0
40926,-166.666666666667,4,2,81,50,0,0
41094,-166.666666666667,4,2,82,50,0,0
41262,-166.666666666667,4,2,83,50,0,0
41429,-166.666666666667,4,2,84,50,0,0
41597,-166.666666666667,4,2,64,50,0,0
41764,-166.666666666667,4,2,85,50,0,0
41932,-166.666666666667,4,2,22,50,0,0
42100,-166.666666666667,4,2,65,50,0,0
42267,-166.666666666667,4,2,67,50,0,0
42435,-166.666666666667,4,2,15,50,0,0
42602,-166.666666666667,4,2,86,50,0,0
42770,-166.666666666667,4,2,21,50,0,0
42938,-166.666666666667,4,2,87,50,0,0
43105,-166.666666666667,4,2,88,50,0,0
43273,-166.666666666667,4,2,55,50,0,0
43440,-166.666666666667,4,2,65,50,0,0
43608,-166.666666666667,4,2,23,50,0,0
43775,-166.666666666667,4,2,75,50,0,0
43943,-166.666666666667,4,2,89,50,0,0
44111,-166.666666666667,4,2,25,50,0,0
44278,-166.666666666667,4,2,90,50,0,0
44446,-166.666666666667,4,2,26,50,0,0
44613,-166.666666666667,4,2,91,50,0,0
44781,-166.666666666667,4,2,10,50,0,0
44949,-166.666666666667,4,2,57,50,0,0
45117,-100,4,2,92,50,0,0
45284,-100,4,2,15,50,0,0
45451,-100,4,2,93,50,0,0
45619,-100,4,2,12,50,0,0
45787,-100,4,2,94,50,0,0
45954,-100,4,2,11,50,0,0
46122,-100,4,2,95,50,0,0
46289,-100,4,2,32,50,0,0
46457,-100,4,2,22,50,0,0
46625,-100,4,2,49,60,0,0
46792,-100,4,2,10,60,0,0
46960,-100,4,2,79,60,0,0
47127,-100,4,2,11,60,0,0
47295,-100,4,2,96,60,0,0
47463,-100,4,2,10,60,0,0
47630,-100,4,2,81,60,0,0
47798,-100,4,2,22,60,0,0
47882,-100,4,2,1,60,0,0
47965,-100,4,2,97,60,0,0
48133,-100,4,2,10,60,0,0
48301,-100,4,2,79,60,0,0
48468,-100,4,2,98,60,0,0
48636,-100,4,2,99,60,0,0
48803,-100,4,2,10,60,0,0
48971,-100,4,2,100,60,0,0
49139,-100,4,2,10,60,0,0
49306,-100,4,2,101,60,0,0
49474,-100,4,2,10,60,0,0
49641,-100,4,2,79,60,0,0
49809,-100,4,2,11,60,0,0
49977,-100,4,2,96,60,0,0
50144,-100,4,2,10,60,0,0
50312,-100,4,2,102,60,0,0
50479,-100,4,2,22,60,0,0
50564,-100,4,2,1,60,0,0
50647,-100,4,2,103,60,0,0
50815,-100,4,2,10,60,0,0
50982,-100,4,2,79,60,0,0
51150,-100,4,2,104,60,0,0
51317,-100,4,2,99,60,0,0
51485,-100,4,2,10,60,0,0
51653,-100,4,2,105,60,0,0
51820,-100,4,2,10,60,0,0
51988,-100,4,2,106,60,0,0
52155,-100,4,2,107,60,0,0
52323,-100,4,2,108,60,0,0
52491,-100,4,2,109,60,0,0
52658,-100,4,2,110,60,0,0
52826,-100,4,2,19,60,0,0
52993,-100,4,2,111,60,0,0
53161,-100,4,2,112,60,0,0
53245,-100,4,2,1,60,0,0
53329,-90.9090909090909,4,2,83,60,0,0
53496,-90.9090909090909,4,2,113,60,0,0
53664,-90.9090909090909,4,2,108,60,0,0
53831,-90.9090909090909,4,2,13,60,0,0
53999,-90.9090909090909,4,2,114,60,0,0
54167,-90.9090909090909,4,2,107,60,0,0
54334,-90.9090909090909,4,2,115,60,0,0
54502,-90.9090909090909,4,2,107,60,0,0
54670,-83.3333333333333,4,2,116,60,0,0
54837,-83.3333333333333,4,2,19,60,0,0
55005,-83.3333333333333,4,2,117,60,0,0
55172,-83.3333333333333,4,2,27,60,0,0
55340,-83.3333333333333,4,2,1,60,0,0
55507,-83.3333333333333,4,2,19,60,0,0
55675,-83.3333333333333,4,2,118,60,0,0
55843,-83.3333333333333,4,2,20,60,0,0
55927,-83.3333333333333,4,2,1,60,0,0
56010,-83.3333333333333,4,2,119,60,0,0
56178,-83.3333333333333,4,2,19,60,0,0
56345,-83.3333333333333,4,2,117,60,0,0
56513,-83.3333333333333,4,2,6,60,0,0
56681,-83.3333333333333,4,2,1,60,0,0
56848,-83.3333333333333,4,2,19,60,0,0
57016,-83.3333333333333,4,2,120,60,0,0
57183,-83.3333333333333,4,2,15,60,0,0
57351,-83.3333333333333,4,2,121,60,0,0
57519,-83.3333333333333,4,2,18,60,0,0
57686,-83.3333333333333,4,2,122,60,0,0
57854,-83.3333333333333,4,2,123,60,0,0
58189,-83.3333333333333,4,2,60,60,0,0
58357,-83.3333333333333,4,2,124,60,0,0
58524,-83.3333333333333,4,2,35,60,0,0
58692,-83.3333333333333,4,2,125,60,0,0
58859,-83.3333333333333,4,2,107,60,0,0
58944,-83.3333333333333,4,2,1,60,0,0
59027,-83.3333333333333,4,2,99,60,0,0
59195,-100,4,2,126,60,0,0
59530,-100,4,2,108,60,0,0
59697,-100,4,2,127,60,0,0
59865,-100,4,2,99,60,0,0
60033,-83.3333333333333,4,2,49,60,0,0
60200,-83.3333333333333,4,2,10,60,0,0
60368,-83.3333333333333,4,2,128,60,0,0
60535,-83.3333333333333,4,2,129,60,0,0
60870,-83.3333333333333,4,2,79,60,0,0
60955,-83.3333333333333,4,2,1,60,0,0
61038,-83.3333333333333,4,2,15,60,0,0
61206,-83.3333333333333,4,2,60,60,0,0
61373,-83.3333333333333,4,2,130,60,0,0
61457,-83.3333333333333,4,2,1,60,0,0
61541,-83.3333333333333,4,2,10,60,0,0
61624,-83.3333333333333,4,2,1,60,0,0
61708,-83.3333333333333,4,2,131,60,0,0
61876,-83.3333333333333,4,2,132,60,0,0
62211,-83.3333333333333,4,2,60,60,0,0
62379,-83.3333333333333,4,2,133,60,0,0
62546,-83.3333333333333,4,2,134,60,0,0
62631,-83.3333333333333,4,2,1,60,0,0
62714,-83.3333333333333,4,2,135,60,0,0
62882,-83.3333333333333,4,2,1,60,0,0
63049,-83.3333333333333,4,2,136,60,0,0
63384,-83.3333333333333,4,2,137,60,0,0
63552,-83.3333333333333,4,2,136,60,0,0
63887,-83.3333333333333,4,2,138,60,0,0
64222,-83.3333333333333,4,2,139,60,0,0
64390,-83.3333333333333,4,2,140,60,0,0
64809,-83.3333333333333,4,2,1,60,0,0
64893,-83.3333333333333,4,2,1,60,0,0
64976,-83.3333333333333,4,2,1,60,0,0
65061,-50,4,2,2,60,0,0
65145,-50,4,2,1,60,0,0
65228,-50,4,2,1,60,0,0
65312,-50,4,2,1,5,0,0
65396,-66.6666666666667,4,2,141,70,0,1
65480,-66.6666666666667,4,2,141,70,0,1
65563,-66.6666666666667,4,2,10,70,0,1
65731,-66.6666666666667,4,2,128,70,0,1
65899,-80,4,2,142,70,0,1
66234,-80,4,2,79,70,0,1
66401,-80,4,2,143,70,0,1
66569,-80,4,2,5,70,0,1
66736,-80,4,2,51,70,0,1
66904,-80,4,2,60,70,0,1
67072,-80,4,2,128,70,0,1
67239,-80,4,2,142,70,0,1
67574,-80,4,2,79,70,0,1
67742,-80,4,2,143,70,0,1
67910,-80,4,2,5,70,0,1
68077,-80,4,2,51,70,0,1
68245,-80,4,2,26,70,0,1
68412,-80,4,2,122,70,0,1
68580,-80,4,2,117,70,0,1
68915,-80,4,2,79,70,0,1
69083,-80,4,2,15,70,0,1
69250,-80,4,2,5,70,0,1
69418,-80,4,2,144,70,0,1
69586,-80,4,2,51,70,0,1
69753,-80,4,2,26,70,0,1
69921,-80,4,2,145,70,0,1
70088,-80,4,2,21,70,0,1
70256,-80,4,2,60,70,0,1
70424,-80,4,2,128,70,0,1
70591,-80,4,2,21,70,0,1
70759,-80,4,2,146,70,0,1
70926,-80,4,2,107,70,0,1
71094,-80,4,2,147,70,0,1
71262,-80,4,2,148,70,0,1
71597,-80,4,2,36,70,0,1
71764,-80,4,2,149,70,0,1
71932,-80,4,2,7,70,0,1
72100,-80,4,2,146,70,0,1
72267,-80,4,2,40,70,0,1
72435,-80,4,2,19,70,0,1
72602,-80,4,2,150,70,0,1
72938,-80,4,2,40,70,0,1
73105,-80,4,2,151,70,0,1
73273,-80,4,2,19,70,0,1
73440,-80,4,2,35,70,0,1
73608,-80,4,2,19,70,0,1
73776,-80,4,2,15,70,0,1
73943,-80,4,2,145,70,0,1
74278,-80,4,2,108,70,0,1
74446,-80,4,2,152,70,0,1
74614,-80,4,2,19,70,0,1
74781,-80,4,2,153,70,0,1
74949,-80,4,2,154,70,0,1
75116,-80,4,2,19,70,0,1
75284,-66.6666666666667,4,2,154,70,0,1
75368,-66.6666666666667,4,2,154,70,0,1
75452,-66.6666666666667,4,2,19,70,0,1
75535,-66.6666666666667,4,2,19,5,0,1
75620,-66.6666666666667,4,2,60,70,0,1
75703,-66.6666666666667,4,2,1,70,0,1
75787,-66.6666666666667,4,2,108,70,0,1
75954,-66.6666666666667,4,2,18,70,0,1
76122,-80,4,2,51,70,0,1
76290,-80,4,2,10,70,0,1
76457,-80,4,2,128,70,0,1
76625,-80,4,2,142,70,0,1
76960,-80,4,2,79,70,0,1
77127,-80,4,2,143,70,0,1
77295,-80,4,2,5,70,0,1
77463,-80,4,2,51,70,0,1
77630,-80,4,2,60,70,0,1
77798,-80,4,2,128,70,0,1
77965,-80,4,2,142,70,0,1
78301,-80,4,2,79,70,0,1
78468,-80,4,2,143,70,0,1
78636,-80,4,2,5,70,0,1
78803,-80,4,2,51,70,0,1
78971,-80,4,2,26,70,0,1
79139,-80,4,2,122,70,0,1
79306,-80,4,2,117,70,0,1
79641,-80,4,2,79,70,0,1
79809,-80,4,2,15,70,0,1
79977,-80,4,2,5,70,0,1
80144,-80,4,2,144,70,0,1
80312,-80,4,2,51,70,0,1
80479,-80,4,2,26,70,0,1
80647,-80,4,2,155,70,0,1
80815,-80,4,2,21,70,0,1
80982,-80,4,2,60,70,0,1
81150,-80,4,2,156,70,0,1
81317,-80,4,2,21,70,0,1
81485,-80,4,2,157,70,0,1
81653,-80,4,2,107,70,0,1
81820,-80,4,2,147,70,0,1
81988,-80,4,2,148,70,0,1
82323,-80,4,2,36,70,0,1
82491,-80,4,2,149,70,0,1
82658,-80,4,2,7,70,0,1
82826,-80,4,2,158,70,0,1
82993,-80,4,2,40,70,0,1
83161,-80,4,2,19,70,0,1
83329,-80,4,2,150,70,0,1
83664,-80,4,2,40,70,0,1
83831,-80,4,2,151,70,0,1
83999,-80,4,2,19,70,0,1
84167,-80,4,2,35,70,0,1
84334,-80,4,2,19,70,0,1
84502,-80,4,2,15,70,0,1
84669,-80,4,2,145,70,0,1
85005,-80,4,2,108,70,0,1
85172,-80,4,2,152,70,0,1
85340,-80,4,2,19,70,0,1
85507,-80,4,2,144,70,0,1
85675,-80,4,2,154,70,0,1
85843,-80,4,2,128,70,0,1
86010,-80,4,2,154,70,0,1
86178,-80,4,2,1,70,0,1
86345,-80,4,2,108,70,0,1
86430,-80,4,2,1,70,0,1
86513,-80,4,2,35,70,0,1
86681,-80,4,2,25,70,0,1
86848,-80,4,2,159,70,0,1
87016,-80,4,2,18,70,0,1
87183,-80,4,2,26,70,0,1
87351,-80,4,2,79,70,0,1
87519,-80,4,2,128,70,0,1
87686,-80,4,2,144,70,0,1
87854,-80,4,2,156,70,0,1
88021,-80,4,2,117,70,0,1
88189,-80,4,2,113,70,0,1
88357,-80,4,2,40,70,0,1
88524,-80,4,2,19,70,0,1
88692,-80,4,2,99,70,0,1
88859,-80,4,2,160,70,0,1
89027,-80,4,2,155,70,0,1
89195,-80,4,2,161,70,0,1
89362,-80,4,2,145,70,0,1
89530,-80,4,2,48,70,0,1
89697,-80,4,2,60,70,0,1
89865,-80,4,2,79,70,0,1
90033,-80,4,2,128,70,0,1
90200,-80,4,2,154,70,0,1
90368,-80,4,2,162,70,0,1
90535,-80,4,2,163,70,0,1
90703,-80,4,2,164,70,0,1
90787,-80,4,2,1,70,0,1
90871,-1000,4,2,165,70,0,1
92044,-1000,4,2,166,70,0,1
92128,-1000,4,2,1,70,0,1
92212,-76.9230769230769,4,2,167,70,0,0
92379,-76.9230769230769,4,2,108,70,0,0
92547,-76.9230769230769,4,2,154,70,0,0
92714,-76.9230769230769,4,2,168,70,0,0
92882,-76.9230769230769,4,2,35,70,0,0
93049,-76.9230769230769,4,2,108,70,0,0
93217,-76.9230769230769,4,2,4,70,0,0
93384,-76.9230769230769,4,2,35,70,0,0
93469,-76.9230769230769,4,2,1,70,0,0
93552,-76.9230769230769,4,2,44,70,0,0
93720,-76.9230769230769,4,2,60,70,0,0
93804,-76.9230769230769,4,2,1,70,0,0
93887,-76.9230769230769,4,2,100,70,0,0
94055,-76.9230769230769,4,2,48,70,0,0
94222,-76.9230769230769,4,2,68,70,0,0
94390,-76.9230769230769,4,2,108,70,0,0
94558,-76.9230769230769,4,2,169,70,0,0
94725,-76.9230769230769,4,2,60,70,0,0
94893,-76.9230769230769,4,2,170,70,0,0
95060,-76.9230769230769,4,2,36,70,0,0
95228,-76.9230769230769,4,2,145,70,0,0
95396,-76.9230769230769,4,2,171,70,0,0
95563,-76.9230769230769,4,2,166,70,0,0
95731,-76.9230769230769,4,2,36,70,0,0
95898,-76.9230769230769,4,2,29,70,0,0
96066,-76.9230769230769,4,2,99,70,0,0
96234,-76.9230769230769,4,2,172,70,0,0
96401,-76.9230769230769,4,2,99,70,0,0
96569,-76.9230769230769,4,2,4,70,0,0
96736,-76.9230769230769,4,2,88,70,0,0
96904,-76.9230769230769,4,2,173,70,0,0
97072,-76.9230769230769,4,2,154,70,0,0
97239,-76.9230769230769,4,2,88,70,0,0
97407,-76.9230769230769,4,2,99,70,0,0
97491,-76.9230769230769,4,2,1,70,0,0
97575,-100,4,2,159,70,0,0
97742,-100,4,2,18,70,0,0
97910,-100,4,2,36,70,0,0
98077,-100,4,2,5,70,0,0
98245,-100,4,2,117,70,0,0
98412,-100,4,2,8,70,0,0
98580,-100,4,2,162,70,0,0
98748,-100,4,2,1,70,0,0
98915,-100,4,2,146,70,0,0
99083,-100,4,2,16,70,0,0
99250,-100,4,2,91,70,0,0
99418,-100,4,2,11,70,0,0
99586,-100,4,2,145,70,0,0
99753,-100,4,2,12,70,0,0
99921,-100,4,2,174,70,0,0
100088,-100,4,2,27,70,0,0
100256,-83.3333333333333,4,2,51,70,0,0
100424,-83.3333333333333,4,2,10,70,0,0
100591,-83.3333333333333,4,2,23,70,0,0
100759,-83.3333333333333,4,2,20,70,0,0
100926,-83.3333333333333,4,2,58,70,0,0
101094,-83.3333333333333,4,2,76,70,0,0
101262,-83.3333333333333,4,2,175,70,0,0
101429,-83.3333333333333,4,2,176,70,0,0
101513,-83.3333333333333,4,2,1,70,0,0
101597,-83.3333333333333,4,2,29,70,0,0
101764,-83.3333333333333,4,2,55,70,0,0
101932,-83.3333333333333,4,2,56,70,0,0
102016,-83.3333333333333,4,2,59,70,0,0
102100,-83.3333333333333,4,2,175,70,0,0
102183,-83.3333333333333,4,2,177,70,0,0
102267,-83.3333333333333,4,2,59,70,0,0
102351,-83.3333333333333,4,2,177,70,0,0
102435,-83.3333333333333,4,2,176,70,0,0
102519,-83.3333333333333,4,2,178,70,0,0
102603,-100,4,2,179,70,0,0
102686,-100,4,2,180,70,0,0
102770,-100,4,2,181,70,0,0
102854,-100,4,2,182,70,0,0
102938,-100,4,2,183,60,0,0
103105,-100,4,2,11,60,0,0
103273,-100,4,2,154,60,0,0
103440,-100,4,2,62,60,0,0
103608,-100,4,2,1,60,0,0
103776,-100,4,2,56,60,0,0
103943,-100,4,2,184,60,0,0
104111,-100,4,2,185,60,0,0
104278,-100,4,2,186,60,0,0
104446,-100,4,2,71,60,0,0
104530,-100,4,2,1,60,0,0
104614,-100,4,2,187,60,0,0
104781,-100,4,2,58,60,0,0
104949,-100,4,2,1,60,0,0
105116,-100,4,2,71,60,0,0
105201,-100,4,2,1,60,0,0
105284,-100,4,2,150,60,0,0
105452,-100,4,2,88,60,0,0
105619,-100,4,2,188,60,0,0
105787,-100,4,2,23,60,0,0
105954,-100,4,2,154,60,0,0
106122,-100,4,2,66,60,0,0
106290,-100,4,2,1,60,0,0
106457,-100,4,2,23,60,0,0
106625,-100,4,2,187,60,0,0
106792,-100,4,2,95,60,0,0
106960,-100,4,2,189,60,0,0
107128,-100,4,2,74,60,0,0
107212,-100,4,2,1,60,0,0
107295,-100,4,2,144,60,0,0
107463,-100,4,2,62,60,0,0
107630,-100,4,2,144,60,0,0
107798,-100,4,2,23,60,0,0
107883,-100,4,2,1,60,0,0
107966,-100,4,2,187,60,0,0
108133,-100,4,2,73,60,0,0
108216,-100,4,2,73,5,0,0
108301,-100,4,2,60,60,0,0
108468,-100,4,2,11,60,0,0
108636,-100,4,2,154,60,0,0
108804,-100,4,2,62,60,0,0
108971,-100,4,2,1,60,0,0
109139,-100,4,2,56,60,0,0
109306,-100,4,2,184,60,0,0
109474,-100,4,2,58,60,0,0
109642,-100,4,2,186,60,0,0
109809,-100,4,2,71,60,0,0
109893,-100,4,2,1,60,0,0
109977,-100,4,2,187,60,0,0
110144,-100,4,2,58,60,0,0
110312,-100,4,2,1,60,0,0
110479,-100,4,2,71,60,0,0
110564,-100,4,2,1,60,0,0
110647,-100,4,2,150,60,0,0
110815,-100,4,2,88,60,0,0
110982,-100,4,2,188,60,0,0
111150,-100,4,2,55,60,0,0
111317,-100,4,2,79,60,0,0
111485,-100,4,2,66,60,0,0
111653,-100,4,2,1,60,0,0
111820,-100,4,2,23,60,0,0
111988,-100,4,2,187,60,0,0
112155,-100,4,2,95,60,0,0
112323,-100,4,2,189,60,0,0
112491,-100,4,2,74,60,0,0
112575,-100,4,2,1,60,0,0
112658,-100,4,2,72,60,0,0
112826,-100,4,2,66,60,0,0
112993,-100,4,2,190,60,0,0
113161,-100,4,2,191,60,0,0
113246,-100,4,2,1,60,0,0
113329,-100,4,2,63,60,0,0
113496,-100,4,2,70,60,0,0
113664,-83.3333333333333,4,2,183,60,0,0
113831,-83.3333333333333,4,2,7,60,0,0
113999,-83.3333333333333,4,2,15,60,0,0
114167,-83.3333333333333,4,2,61,60,0,0
114335,-83.3333333333333,4,2,1,60,0,0
114502,-83.3333333333333,4,2,144,60,0,0
114669,-83.3333333333333,4,2,61,60,0,0
114837,-83.3333333333333,4,2,63,60,0,0
115005,-83.3333333333333,4,2,192,60,0,0
115172,-83.3333333333333,4,2,189,60,0,0
115340,-83.3333333333333,4,2,70,60,0,0
115507,-83.3333333333333,4,2,15,60,0,0
115675,-83.3333333333333,4,2,1,60,0,0
115843,-83.3333333333333,4,2,189,60,0,0
116010,-83.3333333333333,4,2,193,60,0,0
116178,-83.3333333333333,4,2,10,60,0,0
116345,-83.3333333333333,4,2,194,60,0,0
116513,-83.3333333333333,4,2,5,60,0,0
116681,-83.3333333333333,4,2,15,60,0,0
116848,-83.3333333333333,4,2,70,60,0,0
117017,-83.3333333333333,4,2,1,60,0,0
117183,-83.3333333333333,4,2,79,60,0,0
117351,-83.3333333333333,4,2,70,60,0,0
117519,-83.3333333333333,4,2,122,60,0,0
117686,-83.3333333333333,4,2,195,60,0,0
117854,-83.3333333333333,4,2,99,60,0,0
118021,-83.3333333333333,4,2,70,60,0,0
118189,-83.3333333333333,4,2,61,60,0,0
118357,-83.3333333333333,4,2,144,60,0,0
118524,-83.3333333333333,4,2,187,60,0,0
118692,-83.3333333333333,4,2,95,60,0,0
118859,-83.3333333333333,4,2,85,60,0,0
119027,-83.3333333333333,4,2,196,60,0,0
119195,-83.3333333333333,4,2,84,60,0,0
119362,-83.3333333333333,4,2,197,60,0,0
119530,-83.3333333333333,4,2,85,60,0,0
119697,-83.3333333333333,4,2,68,60,0,0
119865,-83.3333333333333,4,2,189,60,0,0
120033,-83.3333333333333,4,2,193,60,0,0
120200,-83.3333333333333,4,2,58,60,0,0
120368,-83.3333333333333,4,2,198,60,0,0
120535,-83.3333333333333,4,2,51,60,0,0
120703,-83.3333333333333,4,2,85,60,0,0
120871,-83.3333333333333,4,2,22,60,0,0
121038,-83.3333333333333,4,2,36,60,0,0
121206,-83.3333333333333,4,2,189,60,0,0
121373,-83.3333333333333,4,2,95,60,0,0
121541,-83.3333333333333,4,2,66,60,0,0
121709,-83.3333333333333,4,2,199,60,0,0
121876,-83.3333333333333,4,2,25,60,0,0
122044,-83.3333333333333,4,2,92,60,0,0
122211,-83.3333333333333,4,2,36,60,0,0
122379,-83.3333333333333,4,2,19,60,0,0
122547,-83.3333333333333,4,2,60,60,0,0
122631,-83.3333333333333,4,2,1,60,0,0
122714,-83.3333333333333,4,2,147,60,0,0
122882,-83.3333333333333,4,2,60,60,0,0
123049,-83.3333333333333,4,2,15,60,0,0
123217,-83.3333333333333,4,2,162,60,0,0
123385,-83.3333333333333,4,2,2,60,0,0
123469,-83.3333333333333,4,2,2,60,0,0
123552,-83.3333333333333,4,2,15,60,0,0
123636,-83.3333333333333,4,2,15,60,0,0
123720,-83.3333333333333,4,2,147,60,0,0
123804,-83.3333333333333,4,2,147,60,0,0
123887,-83.3333333333333,4,2,200,60,0,0
124055,-83.3333333333333,4,2,19,60,0,0
124138,-83.3333333333333,4,2,19,60,0,0
124223,-83.3333333333333,4,2,60,60,0,0
124390,-100,4,2,49,60,0,0
124558,-100,4,2,10,60,0,0
124725,-100,4,2,79,60,0,0
124893,-100,4,2,11,60,0,0
125061,-100,4,2,96,60,0,0
125228,-100,4,2,10,60,0,0
125396,-100,4,2,81,60,0,0
125563,-100,4,2,22,60,0,0
125647,-100,4,2,1,60,0,0
125731,-100,4,2,97,60,0,0
125899,-100,4,2,10,60,0,0
126066,-100,4,2,79,60,0,0
126234,-100,4,2,98,60,0,0
126401,-100,4,2,99,60,0,0
126569,-100,4,2,10,60,0,0
126737,-100,4,2,100,60,0,0
126904,-100,4,2,10,60,0,0
127072,-100,4,2,101,60,0,0
127239,-100,4,2,10,60,0,0
127407,-100,4,2,79,60,0,0
127574,-100,4,2,11,60,0,0
127742,-100,4,2,96,60,0,0
127910,-100,4,2,10,60,0,0
128077,-100,4,2,102,60,0,0
128245,-100,4,2,22,60,0,0
128329,-100,4,2,1,60,0,0
128412,-100,4,2,103,60,0,0
128580,-100,4,2,10,60,0,0
128748,-100,4,2,79,60,0,0
128915,-100,4,2,104,60,0,0
129083,-100,4,2,99,60,0,0
129250,-100,4,2,10,60,0,0
129418,-100,4,2,105,60,0,0
129586,-100,4,2,10,60,0,0
129753,-100,4,2,106,60,0,0
129921,-100,4,2,107,60,0,0
130088,-100,4,2,108,60,0,0
130256,-100,4,2,109,60,0,0
130424,-100,4,2,110,60,0,0
130591,-100,4,2,19,60,0,0
130759,-100,4,2,111,60,0,0
130926,-100,4,2,112,60,0,0
131010,-100,4,2,1,60,0,0
131094,-90.9090909090909,4,2,83,60,0,0
131262,-90.9090909090909,4,2,113,60,0,0
131429,-90.9090909090909,4,2,108,60,0,0
131597,-90.9090909090909,4,2,13,60,0,0
131764,-90.9090909090909,4,2,114,60,0,0
131932,-90.9090909090909,4,2,107,60,0,0
132100,-90.9090909090909,4,2,115,60,0,0
132267,-90.9090909090909,4,2,107,60,0,0
132435,-83.3333333333333,4,2,116,60,0,0
132602,-83.3333333333333,4,2,19,60,0,0
132770,-83.3333333333333,4,2,117,60,0,0
132938,-83.3333333333333,4,2,27,60,0,0
133105,-83.3333333333333,4,2,1,60,0,0
133273,-83.3333333333333,4,2,19,60,0,0
133440,-83.3333333333333,4,2,118,60,0,0
133608,-83.3333333333333,4,2,20,60,0,0
133692,-83.3333333333333,4,2,1,60,0,0
133776,-83.3333333333333,4,2,119,60,0,0
133943,-83.3333333333333,4,2,19,60,0,0
134111,-83.3333333333333,4,2,117,60,0,0
134278,-83.3333333333333,4,2,6,60,0,0
134446,-83.3333333333333,4,2,1,60,0,0
134614,-83.3333333333333,4,2,19,60,0,0
134781,-83.3333333333333,4,2,120,60,0,0
134949,-83.3333333333333,4,2,15,60,0,0
135117,-83.3333333333333,4,2,121,60,0,0
135284,-83.3333333333333,4,2,18,60,0,0
135452,-83.3333333333333,4,2,122,60,0,0
135619,-83.3333333333333,4,2,123,60,0,0
135954,-83.3333333333333,4,2,60,60,0,0
136122,-83.3333333333333,4,2,124,60,0,0
136290,-83.3333333333333,4,2,35,60,0,0
136457,-83.3333333333333,4,2,138,60,0,0
136625,-83.3333333333333,4,2,107,60,0,0
136709,-83.3333333333333,4,2,1,60,0,0
136792,-83.3333333333333,4,2,99,60,0,0
136960,-83.3333333333333,4,2,126,60,0,0
137295,-83.3333333333333,4,2,108,60,0,0
137463,-83.3333333333333,4,2,127,60,0,0
137630,-83.3333333333333,4,2,99,60,0,0
137798,-83.3333333333333,4,2,49,60,0,0
137966,-83.3333333333333,4,2,10,60,0,0
138133,-83.3333333333333,4,2,128,60,0,0
138301,-83.3333333333333,4,2,129,60,0,0
138636,-83.3333333333333,4,2,79,60,0,0
138720,-83.3333333333333,4,2,1,60,0,0
138804,-83.3333333333333,4,2,15,60,0,0
138971,-83.3333333333333,4,2,60,60,0,0
139139,-83.3333333333333,4,2,130,60,0,0
139222,-83.3333333333333,4,2,1,60,0,0
139306,-83.3333333333333,4,2,10,60,0,0
139389,-83.3333333333333,4,2,1,60,0,0
139474,-83.3333333333333,4,2,131,60,0,0
139642,-83.3333333333333,4,2,132,60,0,0
139977,-83.3333333333333,4,2,60,60,0,0
140144,-83.3333333333333,4,2,133,60,0,0
140312,-83.3333333333333,4,2,134,60,0,0
140396,-83.3333333333333,4,2,1,60,0,0
140480,-83.3333333333333,4,2,135,60,0,0
140647,-83.3333333333333,4,2,1,60,0,0
140815,-83.3333333333333,4,2,136,60,0,0
141150,-83.3333333333333,4,2,137,60,0,0
141318,-83.3333333333333,4,2,136,60,0,0
141653,-83.3333333333333,4,2,138,60,0,0
141988,-83.3333333333333,4,2,139,60,0,0
142156,-83.3333333333333,4,2,201,60,0,0
142323,-83.3333333333333,4,2,107,60,0,0
142491,-83.3333333333333,4,2,2,60,0,0
142575,-83.3333333333333,4,2,202,60,0,0
142658,-83.3333333333333,4,2,203,70,0,0
142741,-83.3333333333333,4,2,108,70,0,0
142826,-83.3333333333333,4,2,204,70,0,0
142910,-83.3333333333333,4,2,205,70,0,0
142994,-83.3333333333333,4,2,113,70,0,0
143077,-83.3333333333333,4,2,107,70,0,0
143161,-80,4,2,141,70,0,1
143329,-80,4,2,10,70,0,1
143496,-80,4,2,128,70,0,1
143664,-80,4,2,142,70,0,1
143999,-80,4,2,79,70,0,1
144167,-80,4,2,143,70,0,1
144334,-80,4,2,5,70,0,1
144502,-80,4,2,51,70,0,1
144669,-80,4,2,60,70,0,1
144837,-80,4,2,128,70,0,1
145005,-80,4,2,142,70,0,1
145340,-80,4,2,79,70,0,1
145507,-80,4,2,143,70,0,1
145675,-80,4,2,5,70,0,1
145843,-80,4,2,206,70,0,1
146010,-80,4,2,26,70,0,1
146178,-80,4,2,122,70,0,1
146345,-80,4,2,117,70,0,1
146681,-80,4,2,79,70,0,1
146848,-80,4,2,15,70,0,1
147016,-80,4,2,5,70,0,1
147183,-80,4,2,144,70,0,1
147351,-80,4,2,51,70,0,1
147519,-80,4,2,26,70,0,1
147686,-80,4,2,145,70,0,1
147854,-80,4,2,21,70,0,1
148021,-80,4,2,60,70,0,1
148189,-80,4,2,128,70,0,1
148357,-80,4,2,21,70,0,1
148524,-80,4,2,138,70,0,1
148692,-80,4,2,107,70,0,1
148859,-80,4,2,147,70,0,1
149027,-80,4,2,148,70,0,1
149362,-80,4,2,36,70,0,1
149530,-80,4,2,149,70,0,1
149697,-80,4,2,7,70,0,1
149865,-80,4,2,138,70,0,1
150033,-80,4,2,40,70,0,1
150200,-80,4,2,19,70,0,1
150368,-80,4,2,150,70,0,1
150703,-80,4,2,40,70,0,1
150871,-80,4,2,151,70,0,1
151038,-80,4,2,19,70,0,1
151206,-80,4,2,116,70,0,1
151373,-80,4,2,19,70,0,1
151541,-80,4,2,15,70,0,1
151709,-80,4,2,145,70,0,1
152044,-80,4,2,108,70,0,1
152211,-80,4,2,152,70,0,1
152379,-80,4,2,19,70,0,1
152547,-80,4,2,153,70,0,1
152714,-80,4,2,154,70,0,1
152882,-80,4,2,19,70,0,1
153050,-66.6666666666667,4,2,154,70,0,1
153133,-66.6666666666667,4,2,154,70,0,1
153217,-66.6666666666667,4,2,19,70,0,1
153385,-66.6666666666667,4,2,60,70,0,1
153469,-66.6666666666667,4,2,1,70,0,1
153552,-80,4,2,108,70,0,1
153720,-80,4,2,18,70,0,1
153887,-80,4,2,49,70,0,1
154055,-80,4,2,10,70,0,1
154223,-80,4,2,128,70,0,1
154390,-80,4,2,142,70,0,1
154725,-80,4,2,79,70,0,1
154893,-80,4,2,143,70,0,1
155061,-80,4,2,5,70,0,1
155228,-80,4,2,51,70,0,1
155396,-80,4,2,60,70,0,1
155563,-80,4,2,128,70,0,1
155731,-80,4,2,142,70,0,1
156066,-80,4,2,79,70,0,1
156234,-80,4,2,143,70,0,1
156401,-80,4,2,5,70,0,1
156569,-80,4,2,206,70,0,1
156737,-80,4,2,26,70,0,1
156904,-80,4,2,122,70,0,1
157072,-80,4,2,117,70,0,1
157407,-80,4,2,79,70,0,1
157575,-80,4,2,15,70,0,1
157742,-80,4,2,5,70,0,1
157910,-80,4,2,144,70,0,1
158077,-80,4,2,51,70,0,1
158245,-80,4,2,26,70,0,1
158413,-80,4,2,155,70,0,1
158580,-80,4,2,21,70,0,1
158748,-80,4,2,60,70,0,1
158915,-80,4,2,156,70,0,1
159083,-80,4,2,21,70,0,1
159251,-80,4,2,207,70,0,1
159418,-80,4,2,107,70,0,1
159586,-80,4,2,147,70,0,1
159753,-80,4,2,148,70,0,1
160089,-80,4,2,36,70,0,1
160256,-80,4,2,149,70,0,1
160424,-80,4,2,7,70,0,1
160591,-80,4,2,106,70,0,1
160759,-80,4,2,40,70,0,1
160926,-80,4,2,19,70,0,1
161094,-80,4,2,150,70,0,1
161429,-80,4,2,40,70,0,1
161597,-80,4,2,151,70,0,1
161764,-80,4,2,19,70,0,1
161932,-80,4,2,116,70,0,1
162100,-80,4,2,19,70,0,1
162267,-80,4,2,15,70,0,1
162435,-80,4,2,145,70,0,1
162770,-80,4,2,108,70,0,1
162938,-80,4,2,152,70,0,1
163105,-80,4,2,19,70,0,1
163273,-80,4,2,144,70,0,1
163440,-80,4,2,154,70,0,1
163608,-80,4,2,128,70,0,1
163776,-80,4,2,154,70,0,1
163943,-80,4,2,1,70,0,1
164111,-80,4,2,108,70,0,1
164195,-80,4,2,1,70,0,1
164278,-80,4,2,35,70,0,1
164446,-80,4,2,25,70,0,1
164614,-80,4,2,121,70,0,1
164781,-80,4,2,18,70,0,1
164949,-80,4,2,26,70,0,1
165116,-80,4,2,79,70,0,1
165284,-80,4,2,128,70,0,1
165452,-80,4,2,144,70,0,1
165619,-80,4,2,156,70,0,1
165787,-80,4,2,117,70,0,1
165954,-80,4,2,208,70,0,1
166122,-80,4,2,40,70,0,1
166290,-80,4,2,19,70,0,1
166457,-80,4,2,99,70,0,1
166625,-80,4,2,160,70,0,1
166792,-80,4,2,155,70,0,1
166960,-80,4,2,161,70,0,1
167128,-80,4,2,145,70,0,1
167295,-80,4,2,44,70,0,1
167463,-80,4,2,60,70,0,1
167630,-80,4,2,79,70,0,1
167798,-80,4,2,128,70,0,1
167966,-80,4,2,154,70,0,1
168133,-80,4,2,162,70,0,1
168301,-80,4,2,163,70,0,1
168468,-80,4,2,164,70,0,1
168552,-80,4,2,1,70,0,1
168636,-80,4,2,209,70,0,1
168804,-66.6666666666667,4,2,210,70,0,1
168971,-66.6666666666667,4,2,153,70,0,1
169055,-66.6666666666667,4,2,153,5,0,1
169139,-80,4,2,144,70,0,1
169306,-80,4,2,160,70,0,1
169390,-80,4,2,1,70,0,1
169474,-80,4,2,7,70,0,1
169558,-80,4,2,1,70,0,1
169642,-55.5555555555556,4,2,26,70,0,1
169809,-55.5555555555556,4,2,25,70,0,1
169893,-55.5555555555556,4,2,25,5,0,1
169977,-100,4,2,211,70,0,0
170061,-100,4,2,1,70,0,0
170312,-100,4,2,35,70,0,0
170396,-100,4,2,10,70,0,0
170480,-100,4,2,30,70,0,0
170563,-100,4,2,20,70,0,0
170647,-100,4,2,108,70,0,0
170731,-100,4,2,1,70,0,0
170815,-100,4,2,12,70,0,0
170899,-100,4,2,175,70,0,0
170982,-100,4,2,117,70,0,0
171066,-100,4,2,2,70,0,0
171150,-100,4,2,175,70,0,0
171234,-100,4,2,212,70,0,0
171318,-100,4,2,164,70,0,0
171401,-100,4,2,210,70,0,0
171485,-100,4,2,175,70,0,0
171569,-100,4,2,12,70,0,0
171653,-100,4,2,154,70,0,0
171737,-100,4,2,160,70,0,0
171820,-100,4,2,20,70,0,0
171904,-100,4,2,30,70,0,0
171988,-100,4,2,60,70,0,0
172072,-100,4,2,107,70,0,0
172156,-100,4,2,213,70,0,0
172239,-100,4,2,112,70,0,0
172323,-100,4,2,214,70,0,0
172407,-100,4,2,1,70,0,0
172658,-100,4,2,215,70,0,0
172742,-100,4,2,1,70,0,0
172994,-100,4,2,186,70,0,0
173077,-100,4,2,19,70,0,0
173161,-100,4,2,67,70,0,0
173245,-100,4,2,27,70,0,0
173329,-100,4,2,150,70,0,0
173413,-100,4,2,160,70,0,0
173496,-100,4,2,12,70,0,0
173580,-100,4,2,216,70,0,0
173664,-100,4,2,145,70,0,0
173748,-100,4,2,2,70,0,0
173832,-100,4,2,217,70,0,0
173915,-100,4,2,218,70,0,0
173999,-100,4,2,219,70,0,0
174083,-100,4,2,163,70,0,0
174167,-100,4,2,217,70,0,0
174251,-100,4,2,12,70,0,0
174334,-100,4,2,145,70,0,0
174418,-100,4,2,203,70,0,0
174502,-100,4,2,109,70,0,0
174586,-100,4,2,30,70,0,0
174670,-100,4,2,40,70,0,0
174753,-100,4,2,205,70,0,0
174837,-100,4,2,220,70,0,0
174921,-100,4,2,112,70,0,0
175005,-100,4,2,221,70,0,0
175089,-100,4,2,1,70,0,0
175340,-100,4,2,222,70,0,0
175424,-100,4,2,1,70,0,0
175675,-100,4,2,166,70,0,0
175759,-100,4,2,10,70,0,0
175843,-100,4,2,55,70,0,0
175927,-100,4,2,30,70,0,0
176010,-100,4,2,99,70,0,0
176094,-100,4,2,15,70,0,0
176178,-100,4,2,56,70,0,0
176262,-100,4,2,12,70,0,0
176346,-100,4,2,99,70,0,0
176429,-100,4,2,15,70,0,0
176513,-100,4,2,12,70,0,0
176597,-100,4,2,174,70,0,0
176681,-100,4,2,164,70,0,0
176765,-100,4,2,161,70,0,0
176848,-100,4,2,12,70,0,0
176932,-100,4,2,58,70,0,0
177016,-100,4,2,99,70,0,0
177100,-100,4,2,19,70,0,0
177183,-100,4,2,55,70,0,0
177267,-100,4,2,30,70,0,0
177351,-100,4,2,60,70,0,0
177435,-100,4,2,19,70,0,0
177519,-100,4,2,55,70,0,0
177602,-100,4,2,22,70,0,0
177686,-100,4,2,166,70,0,0
177770,-100,4,2,1,70,0,0
178021,-100,4,2,223,70,0,0
178106,-100,4,2,1,70,0,0
178357,-100,4,2,224,70,0,0
178440,-100,4,2,18,70,0,0
178524,-100,4,2,55,70,0,0
178608,-100,4,2,30,70,0,0
178692,-100,4,2,114,70,0,0
178776,-100,4,2,1,70,0,0
178859,-100,4,2,56,70,0,0
178943,-100,4,2,20,70,0,0
179027,-100,4,2,144,70,0,0
179111,-100,4,2,2,70,0,0
179195,-100,4,2,216,70,0,0
179278,-100,4,2,174,70,0,0
179362,-100,4,2,225,70,0,0
179446,-100,4,2,226,70,0,0
179530,-100,4,2,56,70,0,0
179614,-100,4,2,20,70,0,0
179697,-100,4,2,114,70,0,0
179781,-100,4,2,19,70,0,0
179865,-100,4,2,55,70,0,0
179949,-100,4,2,213,70,0,0
180033,-100,4,2,166,70,0,0
180116,-100,4,2,227,70,0,0
180200,-100,4,2,228,70,0,0
180284,-100,4,2,229,70,0,0
180368,-100,4,2,230,70,0,0
180452,-100,4,2,1,70,0,0
180703,-100,4,2,231,70,0,0
180787,-100,4,2,1,70,0,0
181038,-100,4,2,159,70,0,0
181122,-100,4,2,18,70,0,0
181206,-100,4,2,55,70,0,0
181290,-100,4,2,23,70,0,0
181373,-100,4,2,36,70,0,0
181457,-100,4,2,5,70,0,0
181541,-100,4,2,20,70,0,0
181625,-100,4,2,58,70,0,0
181709,-100,4,2,117,70,0,0
181792,-100,4,2,15,70,0,0
181876,-100,4,2,76,70,0,0
181960,-100,4,2,218,70,0,0
182044,-100,4,2,164,70,0,0
182128,-100,4,2,163,70,0,0
182211,-100,4,2,76,70,0,0
182295,-100,4,2,56,70,0,0
182379,-100,4,2,117,70,0,0
182463,-100,4,2,8,70,0,0
182547,-100,4,2,20,70,0,0
182630,-100,4,2,23,70,0,0
182714,-100,4,2,36,70,0,0
182798,-100,4,2,10,70,0,0
182882,-100,4,2,213,70,0,0
182966,-100,4,2,232,70,0,0
183049,-100,4,2,159,70,0,0
183133,-100,4,2,1,70,0,0
183385,-100,4,2,233,70,0,0
183469,-100,4,2,1,70,0,0
183720,-100,4,2,146,70,0,0
183804,-100,4,2,25,70,0,0
183887,-100,4,2,16,70,0,0
183971,-100,4,2,30,70,0,0
184055,-100,4,2,99,70,0,0
184139,-100,4,2,160,70,0,0
184223,-100,4,2,56,70,0,0
184306,-100,4,2,12,70,0,0
184390,-100,4,2,145,70,0,0
184474,-100,4,2,2,70,0,0
184558,-100,4,2,59,70,0,0
184642,-100,4,2,212,70,0,0
184725,-100,4,2,155,70,0,0
184809,-100,4,2,161,70,0,0
184893,-100,4,2,12,70,0,0
184977,-100,4,2,27,70,0,0
185061,-100,4,2,117,70,0,0
185144,-100,4,2,7,70,0,0
185228,-100,4,2,30,70,0,0
185312,-100,4,2,16,70,0,0
185396,-100,4,2,35,70,0,0
185480,-100,4,2,25,70,0,0
185563,-100,4,2,112,70,0,0
185647,-100,4,2,234,70,0,0
185731,-100,4,2,221,70,0,0
185815,-100,4,2,1,70,0,0
186066,-100,4,2,235,70,0,0
186150,-100,4,2,1,70,0,0
186401,-100,4,2,51,70,0,0
186485,-100,4,2,18,70,0,0
186569,-100,4,2,22,70,0,0
186653,-100,4,2,23,70,0,0
186737,-100,4,2,60,70,0,0
186820,-100,4,2,5,70,0,0
186904,-100,4,2,11,70,0,0
186988,-100,4,2,20,70,0,0
187072,-100,4,2,79,70,0,0
187156,-100,4,2,1,70,0,0
187239,-100,4,2,58,70,0,0
187323,-100,4,2,236,70,0,0
187407,-100,4,2,154,70,0,0
187491,-100,4,2,1,70,0,0
187575,-100,4,2,23,70,0,0
187658,-100,4,2,20,70,0,0
187742,-100,4,2,79,70,0,0
187826,-100,4,2,10,70,0,0
187910,-100,4,2,213,70,0,0
187994,-100,4,2,33,70,0,0
188077,-100,4,2,51,70,0,0
188161,-100,4,2,18,70,0,0
188245,-100,4,2,232,70,0,0
188329,-100,4,2,237,70,0,0
188413,-100,4,2,238,70,0,0
188497,-100,4,2,1,70,0,0
188748,-100,4,2,239,70,0,0
188832,-100,4,2,1,70,0,0
189083,-100,4,2,166,70,0,0
189167,-100,4,2,107,70,0,0
189251,-100,4,2,10,70,0,0
189334,-100,4,2,26,70,0,0
189418,-100,4,2,40,70,0,0
189502,-100,4,2,26,70,0,0
189586,-100,4,2,7,70,0,0
189670,-100,4,2,160,70,0,0
189753,-100,4,2,99,70,0,0
189837,-100,4,2,160,70,0,0
189921,-100,4,2,15,70,0,0
190005,-100,4,2,8,70,0,0
190089,-100,4,2,240,70,0,0
190172,-100,4,2,8,70,0,0
190256,-100,4,2,27,70,0,0
190340,-100,4,2,7,70,0,0
190424,-100,4,2,241,70,0,0
190508,-100,4,2,160,70,0,0
190591,-100,4,2,11,70,0,0
190675,-100,4,2,26,70,0,0
190759,-100,4,2,111,70,0,0
190843,-100,4,2,26,70,0,0
190927,-100,4,2,16,70,0,0
191011,-100,4,2,25,70,0,0
191052,-100,4,2,1,70,0,0
191094,-100,4,2,242,70,0,0
191178,-100,4,2,25,70,0,0
191262,-100,4,2,36,70,0,0
191346,-100,4,2,7,70,0,0
191430,-86.9565217391304,4,2,243,70,0,0
191597,-86.9565217391304,4,2,65,70,0,0
191765,-86.9565217391304,4,2,15,70,0,0
191932,-86.9565217391304,4,2,244,70,0,0
192267,-86.9565217391304,4,2,189,70,0,0
192435,-86.9565217391304,4,2,15,70,0,0
192603,-86.9565217391304,4,2,203,70,0,0
192770,-86.9565217391304,4,2,243,70,0,0
192938,-86.9565217391304,4,2,150,70,0,0
193105,-86.9565217391304,4,2,61,70,0,0
193273,-86.9565217391304,4,2,245,70,0,0
193608,-86.9565217391304,4,2,150,70,0,0
193776,-86.9565217391304,4,2,246,70,0,0
193943,-86.9565217391304,4,2,65,70,0,0
194111,-86.9565217391304,4,2,243,70,0,0
194278,-86.9565217391304,4,2,5,70,0,0
194446,-86.9565217391304,4,2,15,70,0,0
194614,-86.9565217391304,4,2,162,70,0,0
194949,-86.9565217391304,4,2,186,70,0,0
195116,-86.9565217391304,4,2,247,70,0,0
195284,-86.9565217391304,4,2,205,70,0,0
195452,-86.9565217391304,4,2,248,70,0,0
195620,-86.9565217391304,4,2,1,70,0,0
195787,-86.9565217391304,4,2,92,70,0,0
195954,-86.9565217391304,4,2,249,70,0,0
196122,-86.9565217391304,4,2,205,70,0,0
196290,-86.9565217391304,4,2,150,70,0,0
196457,-86.9565217391304,4,2,250,70,0,0
196625,-86.9565217391304,4,2,10,70,0,0
196792,-86.9565217391304,4,2,136,70,0,0
196960,-86.9565217391304,4,2,26,70,0,0
197128,-86.9565217391304,4,2,70,70,0,0
197295,-86.9565217391304,4,2,251,70,0,0
197630,-86.9565217391304,4,2,166,70,0,0
197798,-86.9565217391304,4,2,70,70,0,0
197966,-86.9565217391304,4,2,7,70,0,0
198133,-86.9565217391304,4,2,252,70,0,0
198301,-86.9565217391304,4,2,36,70,0,0
198385,-86.9565217391304,4,2,4,70,0,0
198468,-86.9565217391304,4,2,147,70,0,0
198636,-86.9565217391304,4,2,253,70,0,0
198971,-86.9565217391304,4,2,36,70,0,0
199139,-86.9565217391304,4,2,254,70,0,0
199306,-86.9565217391304,4,2,25,70,0,0
199474,-86.9565217391304,4,2,183,70,0,0
199642,-86.9565217391304,4,2,7,70,0,0
199809,-86.9565217391304,4,2,61,70,0,0
199977,-86.9565217391304,4,2,255,70,0,0
200312,-86.9565217391304,4,2,99,70,0,0
200480,-86.9565217391304,4,2,133,70,0,0
200647,-86.9565217391304,4,2,7,70,0,0
200815,-86.9565217391304,4,2,256,70,0,0
200982,-86.9565217391304,4,2,154,70,0,0
201066,-86.9565217391304,4,2,1,70,0,0
201150,-86.9565217391304,4,2,147,70,0,0
201234,-86.9565217391304,4,2,1,70,0,0
201318,-66.6666666666667,4,2,184,70,0,0
201485,-66.6666666666667,4,2,15,70,0,0
201653,-66.6666666666667,4,2,99,70,0,0
201737,-66.6666666666667,4,2,1,70,0,0
201820,-66.6666666666667,4,2,154,70,0,0
201988,-66.6666666666667,4,2,10,70,0,0
202156,-66.6666666666667,4,2,49,70,0,0
202323,-66.6666666666667,4,2,10,70,0,0
202491,-66.6666666666667,4,2,65,70,0,0
202658,-66.6666666666667,4,2,257,70,0,0
202994,-66.6666666666667,4,2,51,70,0,0
203161,-86.9565217391304,4,2,258,70,0,0
203329,-86.9565217391304,4,2,205,70,0,0
203496,-86.9565217391304,4,2,51,70,0,0
203664,-86.9565217391304,4,2,60,70,0,0
203832,-86.9565217391304,4,2,203,70,0,0
203999,-86.9565217391304,4,2,259,70,0,0
204334,-86.9565217391304,4,2,60,70,0,0
204502,-86.9565217391304,4,2,260,70,0,0
204670,-86.9565217391304,4,2,65,70,0,0
204837,-86.9565217391304,4,2,136,70,0,0
205005,-86.9565217391304,4,2,26,70,0,0
205172,-86.9565217391304,4,2,70,70,0,0
205340,-86.9565217391304,4,2,261,70,0,0
205675,-86.9565217391304,4,2,36,70,0,0
205843,-86.9565217391304,4,2,70,70,0,0
206010,-86.9565217391304,4,2,85,70,0,0
206178,-86.9565217391304,4,2,166,70,0,0
206346,-86.9565217391304,4,2,36,70,0,0
206513,-86.9565217391304,4,2,70,70,0,0
206681,-66.6666666666667,4,2,134,70,0,0
207016,-66.6666666666667,4,2,188,70,0,0
207184,-86.9565217391304,4,2,262,70,0,0
207351,-86.9565217391304,4,2,25,70,0,0
207519,-86.9565217391304,4,2,263,70,0,0
207686,-86.9565217391304,4,2,65,70,0,0
207854,-86.9565217391304,4,2,203,70,0,0
208022,-86.9565217391304,4,2,187,70,0,0
208189,-86.9565217391304,4,2,15,70,0,0
208357,-86.9565217391304,4,2,184,70,0,0
208524,-86.9565217391304,4,2,264,70,0,0
208692,-86.9565217391304,4,2,164,70,0,0
208860,-86.9565217391304,4,2,167,70,0,0
209027,-86.9565217391304,4,2,79,70,0,0
209195,-86.9565217391304,4,2,128,70,0,0
209362,-86.9565217391304,4,2,187,70,0,0
209530,-86.9565217391304,4,2,15,70,0,0
209698,-86.9565217391304,4,2,162,70,0,0
209865,-86.9565217391304,4,2,163,70,0,0
210033,-86.9565217391304,4,2,265,70,0,0
210201,-86.9565217391304,4,2,266,70,0,0
210368,-86.9565217391304,4,2,267,70,0,0
210703,-86.9565217391304,4,2,85,70,0,0
210871,-86.9565217391304,4,2,267,70,0,0
211206,-86.9565217391304,4,2,268,70,0,0
211373,-86.9565217391304,4,2,267,70,0,0
211457,-86.9565217391304,4,2,1,70,0,0
211541,-86.9565217391304,4,2,194,70,0,0
211709,-86.9565217391304,4,2,269,70,0,0
211876,-86.9565217391304,4,2,188,70,0,0
212044,-86.9565217391304,4,2,270,70,0,0
212212,-86.9565217391304,4,2,70,70,0,0
212379,-86.9565217391304,4,2,271,70,0,0
212547,-86.9565217391304,4,2,272,70,0,0
212714,-86.9565217391304,4,2,1,70,0,0
212882,-86.9565217391304,4,2,273,70,0,0
214055,-200,4,2,274,50,0,0
214139,-86.9565217391304,4,2,275,50,0,0
214223,-86.9565217391304,4,2,276,50,0,0
214558,-200,4,2,9,50,0,0
214893,-86.9565217391304,4,2,277,50,0,0
215228,-86.9565217391304,4,2,278,50,0,0
215564,-166.666666666667,4,2,279,50,0,0
215731,-166.666666666667,4,2,15,50,0,0
215899,-166.666666666667,4,2,280,50,0,0
216066,-166.666666666667,4,2,281,50,0,0
216401,-166.666666666667,4,2,282,50,0,0
216569,-166.666666666667,4,2,58,50,0,0
216737,-166.666666666667,4,2,282,50,0,0
216904,-166.666666666667,4,2,5,50,0,0
217072,-166.666666666667,4,2,15,50,0,0
217239,-166.666666666667,4,2,161,50,0,0
217407,-166.666666666667,4,2,58,50,0,0
217575,-166.666666666667,4,2,282,50,0,0
217742,-166.666666666667,4,2,5,50,0,0
217910,-166.666666666667,4,2,283,50,0,0
218245,-166.666666666667,4,2,279,50,0,0
218413,-166.666666666667,4,2,160,50,0,0
218580,-166.666666666667,4,2,284,50,0,0
218748,-166.666666666667,4,2,285,50,0,0
219083,-166.666666666667,4,2,286,50,0,0
219251,-166.666666666667,4,2,56,50,0,0
219418,-166.666666666667,4,2,287,50,0,0
219586,-166.666666666667,4,2,5,50,0,0
219753,-166.666666666667,4,2,160,50,0,0
219921,-166.666666666667,4,2,8,50,0,0
220089,-166.666666666667,4,2,76,50,0,0
220256,-166.666666666667,4,2,287,50,0,0
220424,-166.666666666667,4,2,15,50,0,0
220591,-166.666666666667,4,2,288,50,0,0
220759,-166.666666666667,4,2,15,50,0,0
220927,-166.666666666667,4,2,289,50,0,0
221094,-166.666666666667,4,2,160,50,0,0
221262,-166.666666666667,4,2,284,50,0,0
221429,-166.666666666667,4,2,290,50,0,0
221765,-166.666666666667,4,2,19,50,0,0
221932,-166.666666666667,4,2,27,50,0,0
222100,-166.666666666667,4,2,161,50,0,0
222267,-166.666666666667,4,2,291,50,0,0
222435,-166.666666666667,4,2,2,50,0,0
222603,-166.666666666667,4,2,292,50,0,0
222770,-166.666666666667,4,2,293,50,0,0
223105,-166.666666666667,4,2,294,50,0,0
223273,-166.666666666667,4,2,67,50,0,0
223441,-166.666666666667,4,2,295,50,0,0
223608,-166.666666666667,4,2,1,50,0,0
223776,-166.666666666667,4,2,2,50,0,0
223943,-166.666666666667,4,2,296,50,0,0
224111,-166.666666666667,4,2,297,50,0,0
224446,-166.666666666667,4,2,298,50,0,0
224614,-166.666666666667,4,2,299,50,0,0
224781,-166.666666666667,4,2,12,50,0,0
224949,-125,4,2,1,50,0,0
225284,-125,4,2,7,50,0,0
225452,-125,4,2,1,50,0,0
225619,-125,4,2,58,50,0,0
225955,-125,4,2,59,50,0,0
226290,-125,4,2,300,50,0,0
226457,-125,4,2,10,50,0,0
226625,-125,4,2,301,50,0,0
226793,-100,4,2,302,50,0,0
226960,-100,4,2,1,50,0,0
227128,-100,4,2,58,50,0,0
227463,-100,4,2,6,50,0,0
227630,-100,4,2,303,50,0,0
227798,-100,4,2,10,50,0,0
227966,-100,4,2,17,50,0,0
228133,-100,4,2,20,50,0,0
228301,-100,4,2,304,50,0,0
228636,-100,4,2,9,50,0,0
228971,-100,4,2,305,50,0,0
229139,-100,4,2,107,50,0,0
229306,-100,4,2,306,50,0,0
229474,-100,4,2,307,50,0,0
229641,-100,4,2,1,50,0,0
229809,-100,4,2,12,50,0,0
230144,-100,4,2,14,50,0,0
230312,-100,4,2,303,50,0,0
230480,-100,4,2,107,50,0,0
230647,-100,4,2,26,50,0,0
230815,-100,4,2,23,50,0,0
230982,-100,4,2,308,50,0,0
231318,-100,4,2,76,50,0,0
231653,-100,4,2,309,50,0,0
231820,-100,4,2,107,50,0,0
231988,-100,4,2,310,50,0,0
232156,-100,4,2,311,50,0,0
232323,-100,4,2,1,50,0,0
232491,-100,4,2,59,50,0,0
232826,-100,4,2,312,50,0,0
232994,-100,4,2,313,50,0,0
233161,-100,4,2,19,50,0,0
233329,-100,4,2,314,50,0,0
233496,-100,4,2,27,50,0,0
233664,-100,4,2,315,50,0,0
233999,-100,4,2,58,50,0,0
234334,-100,4,2,1,50,0,0
234837,-100,4,2,1,20,0,0
236011,-100,4,2,316,50,0,0
236346,-100,4,2,317,50,0,0
236681,-100,4,2,318,60,0,0
237016,-80,4,2,319,70,0,1
237184,-80,4,2,21,70,0,1
237351,-80,4,2,320,70,0,1
237519,-80,4,2,321,70,0,1
237854,-80,4,2,322,70,0,1
238022,-80,4,2,323,70,0,1
238189,-80,4,2,324,70,0,1
238357,-80,4,2,238,70,0,1
238524,-80,4,2,51,70,0,1
238692,-80,4,2,325,70,0,1
238860,-80,4,2,326,70,0,1
239027,-80,4,2,327,70,0,1
239195,-80,4,2,51,70,0,1
239362,-80,4,2,328,70,0,1
239698,-80,4,2,329,70,0,1
239865,-80,4,2,26,70,0,1
240033,-80,4,2,330,70,0,1
240200,-80,4,2,331,70,0,1
240536,-80,4,2,332,70,0,1
240703,-80,4,2,15,70,0,1
240871,-80,4,2,333,70,0,1
241038,-80,4,2,334,70,0,1
241206,-80,4,2,36,70,0,1
241374,-80,4,2,128,70,0,1
241541,-80,4,2,335,70,0,1
241709,-80,4,2,294,70,0,1
241876,-80,4,2,36,70,0,1
242044,-80,4,2,336,70,0,1
242212,-80,4,2,26,70,0,1
242379,-80,4,2,337,70,0,1
242547,-80,4,2,107,70,0,1
242714,-80,4,2,338,70,0,1
242882,-80,4,2,339,70,0,1
243217,-80,4,2,40,70,0,1
243385,-80,4,2,19,70,0,1
243552,-80,4,2,340,70,0,1
243720,-80,4,2,341,70,0,1
243888,-80,4,2,40,70,0,1
244055,-80,4,2,342,70,0,1
244223,-80,4,2,343,70,0,1
244558,-80,4,2,344,70,0,1
244726,-80,4,2,2,70,0,1
244893,-80,4,2,345,70,0,1
245061,-80,4,2,116,70,0,1
245228,-80,4,2,19,70,0,1
245396,-80,4,2,346,70,0,1
245563,-80,4,2,347,70,0,1
245899,-80,4,2,348,70,0,1
246066,-80,4,2,349,70,0,1
246401,-80,4,2,350,70,0,1
246569,-80,4,2,35,70,0,1
246737,-80,4,2,351,70,0,1
246904,-66.6666666666667,4,2,335,70,0,1
247072,-66.6666666666667,4,2,327,5,0,1
247239,-66.6666666666667,4,2,108,70,0,1
247323,-66.6666666666667,4,2,1,70,0,1
247407,-80,4,2,352,70,0,1
247742,-80,4,2,353,70,0,1
247910,-80,4,2,21,70,0,1
248077,-80,4,2,320,70,0,1
248245,-80,4,2,354,70,0,1
248580,-80,4,2,355,70,0,1
248748,-80,4,2,323,70,0,1
248915,-80,4,2,356,70,0,1
249083,-80,4,2,238,70,0,1
249251,-80,4,2,51,70,0,1
249418,-80,4,2,325,70,0,1
249586,-80,4,2,79,70,0,1
249753,-80,4,2,330,70,0,1
249921,-80,4,2,51,70,0,1
250089,-80,4,2,357,70,0,1
250424,-80,4,2,358,70,0,1
250591,-80,4,2,26,70,0,1
250759,-80,4,2,330,70,0,1
250927,-80,4,2,359,70,0,1
251094,-80,4,2,21,70,0,1
251262,-80,4,2,360,70,0,1
251429,-80,4,2,128,70,0,1
251597,-80,4,2,361,70,0,1
251765,-80,4,2,51,70,0,1
251932,-80,4,2,36,70,0,1
252100,-80,4,2,128,70,0,1
252267,-80,4,2,154,70,0,1
252435,-80,4,2,294,70,0,1
252603,-80,4,2,36,70,0,1
252770,-80,4,2,362,70,0,1
252938,-80,4,2,26,70,0,1
253105,-80,4,2,363,70,0,1
253273,-80,4,2,107,70,0,1
253441,-80,4,2,364,70,0,1
253608,-80,4,2,365,70,0,1
253943,-80,4,2,366,70,0,1
254111,-80,4,2,19,70,0,1
254279,-80,4,2,367,70,0,1
254446,-80,4,2,368,70,0,1
254614,-80,4,2,40,70,0,1
254781,-80,4,2,369,70,0,1
254949,-80,4,2,370,70,0,1
255117,-80,4,2,371,70,0,1
255284,-80,4,2,108,70,0,1
255452,-80,4,2,372,70,0,1
255619,-80,4,2,107,70,0,1
255787,-80,4,2,373,70,0,1
255955,-80,4,2,19,70,0,1
256122,-80,4,2,374,70,0,1
256290,-80,4,2,375,70,0,1
256625,-80,4,2,376,70,0,1
256793,-80,4,2,296,70,0,1
257128,-80,4,2,377,70,0,1
257295,-80,4,2,378,70,0,1
257463,-80,4,2,379,70,0,1
257631,-80,4,2,380,70,0,1
257798,-80,4,2,15,70,0,1
257966,-80,4,2,381,70,0,1
258050,-80,4,2,1,70,0,1
258133,-80,4,2,382,70,0,1
258469,-80,4,2,383,70,0,1
258636,-80,4,2,18,70,0,1
258804,-80,4,2,384,70,0,1
258971,-80,4,2,385,70,0,1
259139,-80,4,2,262,70,0,1
259307,-80,4,2,386,70,0,1
259474,-80,4,2,262,70,0,1
259642,-80,4,2,385,70,0,1
259809,-80,4,2,208,70,0,1
259977,-80,4,2,387,70,0,1
260145,-80,4,2,388,70,0,1
260312,-80,4,2,387,70,0,1
260480,-80,4,2,389,70,0,1
260647,-80,4,2,390,70,0,1
260815,-80,4,2,391,70,0,1
260982,-80,4,2,392,70,0,1
261150,-80,4,2,393,70,0,1
261318,-80,4,2,394,70,0,1
261485,-80,4,2,395,70,0,1
261653,-80,4,2,356,70,0,1
261820,-80,4,2,394,70,0,1
261988,-80,4,2,326,70,0,1
262156,-80,4,2,396,70,0,1
262323,-80,4,2,1,70,0,1
262491,-1000,4,2,397,70,0,1
263664,-1000,4,2,166,70,0,1
263748,-1000,4,2,1,70,0,1
263832,-76.9230769230769,4,2,167,70,0,0
263999,-76.9230769230769,4,2,108,70,0,0
264167,-76.9230769230769,4,2,154,70,0,0
264334,-76.9230769230769,4,2,168,70,0,0
264502,-76.9230769230769,4,2,35,70,0,0
264670,-76.9230769230769,4,2,108,70,0,0
264837,-76.9230769230769,4,2,4,70,0,0
265005,-76.9230769230769,4,2,35,70,0,0
265089,-76.9230769230769,4,2,1,70,0,0
265172,-76.9230769230769,4,2,44,70,0,0
265340,-76.9230769230769,4,2,60,70,0,0
265424,-76.9230769230769,4,2,1,70,0,0
265508,-76.9230769230769,4,2,100,70,0,0
265675,-76.9230769230769,4,2,48,70,0,0
265843,-76.9230769230769,4,2,68,70,0,0
266010,-76.9230769230769,4,2,108,70,0,0
266178,-76.9230769230769,4,2,169,70,0,0
266346,-76.9230769230769,4,2,60,70,0,0
266513,-76.9230769230769,4,2,170,70,0,0
266681,-76.9230769230769,4,2,36,70,0,0
266848,-76.9230769230769,4,2,145,70,0,0
267016,-76.9230769230769,4,2,171,70,0,0
267184,-76.9230769230769,4,2,166,70,0,0
267351,-76.9230769230769,4,2,36,70,0,0
267519,-76.9230769230769,4,2,29,70,0,0
267686,-76.9230769230769,4,2,99,70,0,0
267854,-76.9230769230769,4,2,172,70,0,0
268022,-76.9230769230769,4,2,99,70,0,0
268189,-76.9230769230769,4,2,4,70,0,0
268357,-76.9230769230769,4,2,88,70,0,0
268524,-76.9230769230769,4,2,173,70,0,0
268692,-76.9230769230769,4,2,154,70,0,0
268860,-76.9230769230769,4,2,88,70,0,0
269027,-76.9230769230769,4,2,99,70,0,0
269111,-76.9230769230769,4,2,1,70,0,0
269195,-100,4,2,398,70,0,0
269362,-100,4,2,399,70,0,0
269530,-100,4,2,400,70,0,0
269698,-100,4,2,247,70,0,0
269865,-100,4,2,117,70,0,0
270033,-100,4,2,8,70,0,0
270200,-100,4,2,162,70,0,0
270368,-100,4,2,401,70,0,0
270452,-100,4,2,1,70,0,0
270536,-100,4,2,402,70,0,0
270703,-100,4,2,403,70,0,0
270871,-100,4,2,404,70,0,0
271038,-100,4,2,405,70,0,0
271206,-100,4,2,145,70,0,0
271374,-100,4,2,12,70,0,0
271541,-100,4,2,174,70,0,0
271709,-100,4,2,27,70,0,0
271876,-83.3333333333333,4,2,406,70,0,0
272044,-83.3333333333333,4,2,407,70,0,0
272212,-83.3333333333333,4,2,408,70,0,0
272379,-83.3333333333333,4,2,409,70,0,0
272547,-83.3333333333333,4,2,58,70,0,0
272714,-83.3333333333333,4,2,76,70,0,0
272882,-83.3333333333333,4,2,175,70,0,0
273050,-83.3333333333333,4,2,176,70,0,0
273217,-83.3333333333333,4,2,410,70,0,0
273385,-83.3333333333333,4,2,73,70,0,0
273552,-83.3333333333333,4,2,173,70,0,0
273720,-83.3333333333333,4,2,411,70,0,0
273888,-83.3333333333333,4,2,144,70,0,0
274055,-83.3333333333333,4,2,153,70,0,0
274223,-83.3333333333333,4,2,412,70,0,0
274390,-83.3333333333333,4,2,1,70,0,0
274558,-166.666666666667,4,2,413,70,0,0
274642,-166.666666666667,4,2,413,70,0,0
275207,-188.679245283019,4,2,1,65,0,0
275878,-188.679245283019,4,2,1,60,0,0
276548,-188.679245283019,4,2,1,55,0,0
277219,-188.679245283019,4,2,1,50,0,0
277931,-188.679245283019,4,2,1,40,0,0
278559,-188.679245283019,4,2,1,30,0,0
279230,-188.679245283019,4,2,1,15,0,0
279921,-166.666666666667,4,2,1,5,0,0

[Colours]
Combo1 : 114,114,114
Combo2 : 242,87,172
Combo3 : 247,149,200
Combo4 : 255,204,230
Combo5 : 219,248,118
Combo6 : 117,164,234
Combo7 : 232,198,255
Combo8 : 126,228,157

[HitObjects]
481,74,1039,86,0,P|442:51|397:57,1,91.199997216797,10|0,0:0|0:0,0:0:0:0:
382,141,1541,2,0,P|420:163|465:157,1,91.199997216797,2|0,0:0|0:0,0:0:0:0:
465,157,2212,1,2,0:0:0:0:
313,90,2379,70,0,L|223:108,1,91.199997216797,10|2,0:0|0:0,0:0:0:0:
204,32,2882,2,0,L|293:13,1,91.199997216797,2|0,0:0|0:0,0:0:0:0:
293,13,3385,1,2,0:0:0:0:
223,108,3720,38,0,P|198:146|197:191,1,91.199997216797,10|2,0:0|0:0,0:0:0:0:
279,225,4223,2,0,P|303:186|304:141,1,91.199997216797,2|2,0:2|0:3,0:0:0:0:
81,295,4893,69,2,0:0:0:0:
81,295,5061,2,0,L|89:341,1,45.5999986083985,10|2,0:0|0:0,0:0:0:0:
169,322,5396,2,0,L|161:277,1,45.5999986083985,2|2,0:0|0:3,0:0:0:0:
271,269,5731,38,0,L|279:223,1,45.5999986083985,2|2,0:0|0:0,0:0:0:0:
359,242,6066,2,0,L|351:286,1,45.5999986083985,2|0,0:0|0:0,0:0:0:0:
507,162,6402,70,0,P|469:187|424:186,1,91.199997216797,10|2,0:0|0:0,0:0:0:0:
400,108,6904,2,0,P|437:82|482:83,1,91.199997216797,2|2,0:0|0:0,0:0:0:0:
482,83,7407,1,2,0:0:0:0:
329,12,7742,38,0,L|316:102,1,91.199997216797,10|2,0:0|0:0,0:0:0:0:
238,91,8245,2,0,L|251:1,1,91.199997216797,2|0,0:0|0:0,0:0:0:0:
251,0,8748,1,2,0:0:0:0:
48,158,9083,69,10,0:0:0:0:
137,140,9418,1,2,0:0:0:0:
137,140,9586,1,2,0:0:0:0:
161,277,9921,37,0,0:0:0:0:
250,295,10256,1,2,0:0:0:0:
294,215,10592,1,2,0:0:0:0:
231,148,10927,1,2,0:0:0:0:
147,187,11262,1,2,0:0:0:0:
147,187,11430,1,2,0:0:0:0:
394,220,11765,101,6,2:2:0:0:
392,210,12100,1,2,2:2:0:0:
476,182,12268,2,0,P|484:225|462:266,2,91.253197216797,2|2|2,2:2|2:2|2:2,0:0:0:0:
392,210,13106,70,0,P|357:190|347:142,1,91.253197216797,10|2,2:2|2:2,0:0:0:0:
274,54,13608,2,0,P|266:97|228:121,1,91.253197216797,2|2,2:2|2:3,0:0:0:0:
146,205,14111,2,0,L|141:160,1,45.7626386083985,2|0,2:2|0:0,0:0:0:0:
140,159,14363,1,0,0:0:0:0:
140,159,14446,1,10,2:2:0:0:
53,331,14782,37,2,2:2:0:0:
56,230,14949,2,0,P|35:276|46:320,2,91.253197216797,2|2|2,2:2|2:2|2:2,0:0:0:0:
146,205,15787,1,10,2:2:0:0:
150,211,16457,70,0,P|173:180|166:142,1,79.8805575646973,2|2,2:2|3:3,0:0:0:0:
245,65,17128,70,0,P|153:84|104:6,1,197.715257621257,14|2,2:2|2:2,0:0:0:0:
25,201,17631,2,0,P|74:122|165:141,1,197.715257621257,10|2,2:2|2:2,0:0:0:0:
308,351,18133,69,10,2:2:0:0:
219,212,18301,1,2,2:2:0:0:
219,212,18385,1,0,1:0:0:0:
219,212,18469,2,0,P|194:258|197:304,1,99.1523821439618,14|2,2:2|2:2,0:0:0:0:
430,235,18804,37,2,2:2:0:0:
277,273,18971,2,0,B|331:257|369:293|369:293|406:330|460:313,1,197.715257621257,10|2,2:2|2:2,0:0:0:0:
511,92,19474,70,0,P|483:137|493:180,1,98.7999954772951,10|2,2:2|2:2,0:0:0:0:
493,180,19726,1,0,0:0:0:0:
493,180,19809,2,0,P|429:111|341:143,1,197.715257621257,14|2,2:2|2:2,0:0:0:0:
308,351,20312,2,0,P|399:382|459:312,1,197.715257621257,10|2,2:2|2:2,0:0:0:0:
277,273,20815,2,0,L|180:293,1,99.1523821439618,10|2,2:2|2:2,0:0:0:0:
73,311,21150,37,2,2:2:0:0:
110,136,21318,2,0,B|145:127|161:96|161:96|134:233,1,197.715257621257,10|2,2:2|2:2,0:0:0:0:
0,90,21821,70,0,P|29:57|107:72,1,99.1523821439618,10|2,2:2|2:2,0:0:0:0:
323,159,22156,2,0,P|274:157|241:122,1,99.1523821439618,10|0,2:2|1:0,0:0:0:0:
245,118,22407,1,0,0:0:0:0:
249,113,22491,6,0,L|385:93,1,136.879795825195,10|0,2:2|0:0,0:0:0:0:
413,248,23664,1,2,2:2:0:0:
416,239,23748,1,2,2:2:0:0:
419,230,23832,2,0,P|385:232|355:217,1,68.5079179125977,2|10,2:2|2:2,0:0:0:0:
366,30,24502,53,2,2:2:0:0:
369,53,24586,1,2,2:2:0:0:
365,76,24670,1,6,2:2:0:0:
353,97,24754,1,2,2:2:0:0:
336,113,24837,1,2,2:2:0:0:
315,124,24921,1,2,2:2:0:0:
292,127,25005,1,2,2:2:0:0:
268,123,25089,1,2,2:2:0:0:
249,113,25173,70,0,P|223:84|174:84,2,91.253197216797,10|2|2,2:2|2:2|2:3,0:0:0:0:
117,138,26011,1,2,2:2:0:0:
117,138,26178,2,0,P|99:120|95:101,1,45.7626386083985,2|2,2:2|2:2,0:0:0:0:
0,228,26513,70,0,P|42:204|93:214,1,91.253197216797,2|2,2:2|2:2,0:0:0:0:
144,315,27016,1,2,2:2:0:0:
144,315,27184,2,0,L|151:265,1,45.7626386083985,2|2,2:3|2:2,0:0:0:0:
221,219,27519,1,2,2:2:0:0:
295,258,27687,1,2,2:2:0:0:
414,201,27854,38,0,P|376:176|332:183,1,91.253197216797,2|2,2:2|2:2,0:0:0:0:
413,293,28357,2,0,L|458:284,1,45.7626386083985,2|2,2:2|2:3,0:0:0:0:
361,357,28692,1,2,2:2:0:0:
361,357,28860,2,0,L|316:348,1,45.7626386083985,2|2,2:2|2:2,0:0:0:0:
224,300,29195,70,0,P|267:293|295:257,1,91.253197216797,2|2,2:2|2:2,0:0:0:0:
221,136,29698,1,2,2:2:0:0:
221,219,29865,38,0,P|178:212|150:176,1,91.253197216797,2|2,2:2|2:2,0:0:0:0:
221,53,30368,1,2,2:2:0:0:
324,146,30536,70,0,L|234:137,2,91.253197216797,2|2|2,2:2|2:2|2:3,0:0:0:0:
365,76,31374,1,2,2:2:0:0:
364,76,31541,2,0,P|374:55|372:30,1,45.7626386083985,2|2,2:2|2:2,0:0:0:0:
481,176,31876,38,0,P|452:148|404:154,1,91.253197216797,2|2,2:2|2:2,0:0:0:0:
294,257,32379,2,0,P|337:264|370:234,1,91.253197216797,2|2,2:2|2:2,0:0:0:0:
463,262,32882,2,0,L|455:306,1,45.7626386083985,2|2,2:2|2:2,0:0:0:0:
393,384,33217,70,0,P|360:354|316:360,1,91.253197216797,2|2,2:2|2:2,0:0:0:0:
294,257,33720,1,2,2:2:0:0:
294,257,33888,2,0,L|247:266,1,45.7626386083985,2|2,2:3|2:2,0:0:0:0:
209,335,34223,2,0,L|162:326,1,45.7626386083985,2|2,2:2|2:2,0:0:0:0:
21,231,34558,102,0,L|25:276,1,45.7626386083985,2|2,2:2|2:2,0:0:0:0:
102,222,34893,2,0,L|106:267,1,45.7626386083985,2|2,2:2|2:2,0:0:0:0:
157,151,35228,1,2,2:2:0:0:
157,151,35396,1,2,2:2:0:0:
169,21,35564,2,0,L|165:66,1,45.7626386083985,2|2,2:2|2:2,0:0:0:0:
236,116,35899,6,0,P|262:87|311:87,2,91.253197216797,2|2|2,2:2|2:2|2:3,0:0:0:0:
294,218,36737,1,2,2:2:0:0:
294,218,36904,2,0,L|301:171,1,45.7626386083985,2|2,2:2|2:2,0:0:0:0:
454,165,37240,38,0,P|428:136|379:136,1,91.253197216797,2|2,2:2|2:2,0:0:0:0:
367,277,37742,1,2,2:2:0:0:
367,277,37910,2,0,L|416:272,1,45.7626386083985,2|2,2:3|2:2,0:0:0:0:
294,218,38245,1,2,2:2:0:0:
266,355,38413,1,2,2:2:0:0:
170,276,38580,70,0,P|146:282|129:294,1,45.7626386083985,2|2,2:2|2:2,0:0:0:0:
65,238,38916,1,2,2:2:0:0:
138,154,39083,2,0,P|89:155|55:115,1,91.253197216797,2|2,2:2|2:2,0:0:0:0:
102,35,39586,2,0,P|116:52|120:74,1,45.7626386083985,2|2,2:2|2:2,0:0:0:0:
138,154,39921,38,0,L|232:142,1,91.253197216797,2|2,2:2|2:2,0:0:0:0:
299,77,40424,1,2,2:2:0:0:
390,89,40592,2,0,L|296:77,1,91.253197216797,2|2,2:2|2:2,0:0:0:0:
274,241,41262,70,0,P|318:241|350:204,1,91.253197216797,2|2,2:2|2:2,0:0:0:0:
390,89,41765,2,0,P|420:121|464:121,1,91.253197216797,2|2,2:2|2:2,0:0:0:0:
475,222,42268,2,0,L|428:217,1,45.7626386083985,2|2,2:2|2:2,0:0:0:0:
348,208,42603,38,0,P|315:238|315:282,1,91.253197216797,2|2,2:2|2:2,0:0:0:0:
390,312,43106,2,0,L|385:359,1,45.7626386083985,2|2,2:2|2:2,0:0:0:0:
315,282,43441,1,2,2:2:0:0:
315,282,43608,2,0,L|305:376,1,91.253197216797,2|2,2:2|2:2,0:0:0:0:
220,291,44279,53,2,2:2:0:0:
197,294,44614,1,2,2:2:0:0:
174,296,44949,1,2,2:2:0:0:
27,196,45117,102,0,B|112:178|112:178|144:201|127:234,1,152.088666666667,10|2,2:2|2:2,0:0:0:0:
87,97,45620,2,0,P|79:55|105:23,1,76.2710666666667,2|2,2:2|2:2,0:0:0:0:
239,51,45955,2,0,P|247:93|221:125,1,76.2710666666667,2|2,2:2|2:2,0:0:0:0:
163,74,46290,1,2,2:2:0:0:
162,80,46457,1,2,2:2:0:0:
239,51,46625,54,0,B|280:38|309:66|309:66|338:94|379:81,1,152.088666666667,10|2,2:2|2:2,0:0:0:0:
414,0,47128,1,2,2:2:0:0:
425,151,47295,2,0,L|413:-3,1,152.088666666667,2|2,2:2|2:2,0:0:0:0:
486,208,47798,21,2,2:2:0:0:
425,151,47966,2,0,P|378:151|342:175,1,76.2710666666667,2|2,2:2|2:2,0:0:0:0:
359,36,48301,85,2,2:2:0:0:
254,128,48469,2,0,P|258:91|279:60,1,76.2710666666667,2|2,2:2|2:2,0:0:0:0:
146,59,48804,21,2,2:2:0:0:
126,140,48971,2,0,P|143:174|174:196,1,76.7245333333333,2|2,2:2|2:2,0:0:0:0:
269,283,49307,86,0,P|211:242|135:271,1,152.088666666667,6|2,2:2|2:2,0:0:0:0:
269,283,49809,2,0,L|346:266,1,76.2710666666667,2|2,2:2|2:2,0:0:0:0:
371,196,50145,1,2,2:2:0:0:
445,353,50312,2,0,L|368:336,1,76.2710666666667,2|2,2:2|2:2,0:0:0:0:
259,220,50647,22,0,P|216:273|139:266,1,152.088666666667,2|2,2:2|2:2,0:0:0:0:
157,66,51150,2,0,P|169:101|160:137,1,76.2710666666667,2|2,2:2|2:2,0:0:0:0:
75,230,51485,1,2,2:2:0:0:
259,220,51653,2,0,P|234:247|199:258,1,76.2710666666667,2|2,2:2|2:2,0:0:0:0:
159,137,51988,86,0,B|217:143|217:143|246:128|246:128|306:134,1,152.088666666667,10|2,2:2|2:2,0:0:0:0:
462,71,52491,1,2,2:2:0:0:
391,29,52659,2,0,B|377:66|377:66|386:100,1,76.2710666666667,2|2,2:2|2:2,0:0:0:0:
445,222,52994,2,0,B|458:184|458:184|449:150,1,76.2710666666667,2|2,2:2|2:2,0:0:0:0:
354,231,53329,22,0,B|290:237|290:237|258:221|258:221|192:227,1,167.297538435872,2|2,2:2|2:2,0:0:0:0:
20,158,53832,1,2,2:2:0:0:
98,112,53999,2,0,B|113:153|113:153|103:191,1,84.3969892179363,2|2,2:2|2:2,0:0:0:0:
39,324,54335,2,0,B|23:282|23:282|33:244,1,83.8981758846029,2|2,2:2|2:2,0:0:0:0:
98,112,54670,86,0,P|179:124|222:44,1,182.506394433594,6|2,2:2|2:2,0:0:0:0:
279,221,55173,2,0,P|318:297|403:287,1,182.506394433594,2|2,2:2|2:2,0:0:0:0:
495,169,55675,2,0,L|406:189,1,91.525277216797,2|2,2:2|2:2,0:0:0:0:
300,300,56011,22,0,P|250:300|212:267,1,91.525277216797,2|2,2:2|2:2,0:0:0:0:
279,221,56346,1,2,2:2:0:0:
231,27,56513,2,0,P|181:27|143:60,1,91.525277216797,2|0,2:2|1:0,0:0:0:0:
279,221,56849,85,2,2:2:0:0:
300,92,57016,2,0,L|210:105,1,91.525277216797,10|2,2:2|2:2,0:0:0:0:
71,300,57351,102,0,B|106:329|106:329|195:316|195:316|218:276,1,182.506394433594,6|10,2:2|2:2,0:0:0:0:
300,92,57854,2,0,P|296:180|366:233,1,182.506394433594,2|2,2:2|2:2,0:0:0:0:
434,11,58357,2,0,P|389:3|347:19,1,91.525277216797,10|2,2:2|2:2,0:0:0:0:
300,92,58608,1,0,0:0:0:0:
300,92,58692,37,2,2:2:0:0:
364,230,58860,1,10,2:2:0:0:
388,204,58944,1,4,2:3:0:0:
394,168,59027,1,2,2:2:0:0:
226,184,59195,2,0,B|283:193|283:193|306:219|306:219|368:231,1,152.088666666667,2|2,2:2|2:2,0:0:0:0:
254,354,59698,2,0,L|246:346|237:269,1,76.2710666666667,10|2,2:2|2:2,0:0:0:0:
245,278,59949,1,0,0:0:0:0:
245,278,60033,70,0,P|208:302|160:293,1,91.525277216797,6|2,2:2|2:2,0:0:0:0:
29,211,60368,1,10,2:2:0:0:
96,339,60536,2,0,B|70:293|96:253|96:253|121:212|96:166,1,182.506394433594,2|2,2:2|2:2,0:0:0:0:
96,166,60955,1,0,1:0:0:0:
96,166,61039,1,10,2:2:0:0:
222,56,61206,1,2,2:2:0:0:
218,60,61290,1,0,0:0:0:0:
215,65,61374,6,0,L|262:60,1,46.0347186083985,10|8,2:2|1:3,0:0:0:0:
378,154,61541,2,0,L|331:149,1,46.0347186083985,6|0,2:2|1:0,0:0:0:0:
326,12,61709,1,2,2:2:0:0:
267,207,61876,1,10,2:2:0:0:
267,207,62212,5,2,2:2:0:0:
128,92,62379,2,0,P|80:92|43:118,1,91.525277216797,10|2,2:2|2:2,0:0:0:0:
109,174,62631,1,0,1:0:0:0:
109,174,62714,69,10,2:2:0:0:
378,154,62882,1,0,1:0:0:0:
216,56,63050,1,2,2:2:0:0:
195,334,63217,101,10,2:2:0:0:
303,19,63385,1,2,2:2:0:0:
377,285,63552,1,2,2:2:0:0:
109,174,63720,101,10,2:2:0:0:
491,221,63888,1,6,2:2:0:0:
491,221,64223,101,10,2:2:0:0:
303,19,64390,2,0,P|277:64|279:109,1,91.525277216797,10|0,2:2|0:0,0:0:0:0:
383,318,64726,69,8,2:2:0:0:
381,307,64809,1,8,2:3:0:0:
379,296,64893,1,4,2:3:0:0:
377,285,64977,1,0,1:0:0:0:
377,285,65061,6,0,B|252:256|288:343|159:317,1,228.359733333333,8|0,2:2|0:0,0:0:0:0:
96,363,65396,54,0,P|63:317|82:249,1,114.406604348755,14|2,2:2|2:2,0:0:0:0:
182,139,65731,1,10,2:2:0:0:
38,180,65899,2,0,B|107:185|107:185|145:217|145:217|215:222,1,190.110833333333,2|2,2:2|2:2,0:0:0:0:
292,188,66402,1,10,2:2:0:0:
191,49,66569,1,2,3:2:0:0:
191,49,66653,1,0,3:0:0:0:
191,49,66737,5,2,3:2:0:0:
215,222,66904,2,0,B|198:315,1,95.3388333333333,2|10,2:2|2:2,0:0:0:0:
268,110,67240,2,0,B|374:93|341:169|447:153,1,190.110833333333,2|2,2:2|2:2,0:0:0:0:
479,236,67742,1,10,2:2:0:0:
391,20,67910,1,2,3:2:0:0:
391,20,67994,1,0,3:0:0:0:
391,20,68078,102,0,P|366:63|367:110,1,95.3388333333333,6|2,2:2|2:2,0:0:0:0:
445,153,68413,1,10,2:2:0:0:
302,194,68580,2,0,B|372:199|372:199|410:231|410:231|479:236,1,190.110833333333,2|2,2:2|2:2,0:0:0:0:
335,277,69083,1,10,2:2:0:0:
269,111,69251,1,2,2:2:0:0:
174,120,69418,6,0,L|269:110,1,95.3388333333333,2|2,2:2|2:2,0:0:0:0:
302,194,69754,1,10,2:2:0:0:
396,36,69921,2,0,L|301:26,1,95.3388333333333,2|2,2:2|2:2,0:0:0:0:
183,214,70256,101,2,2:2:0:0:
163,25,70424,1,10,2:2:0:0:
90,204,70592,1,2,3:2:0:0:
90,204,70675,1,0,3:0:0:0:
90,204,70759,6,0,P|126:227|177:220,1,95.3388333333333,6|2,2:2|2:2,0:0:0:0:
269,126,71094,1,10,2:2:0:0:
236,298,71262,2,0,P|282:226|268:124,1,190.110833333333,2|2,2:2|2:2,0:0:0:0:
183,214,71765,1,10,2:2:0:0:
243,41,71932,1,2,3:2:0:0:
243,41,72016,1,0,3:0:0:0:
243,41,72100,102,0,P|296:40|332:59,1,95.3388333333333,2|2,2:2|2:2,0:0:0:0:
269,126,72435,1,10,2:2:0:0:
163,25,72603,2,0,P|73:25|4:97,1,190.110833333333,2|2,2:2|2:2,0:0:0:0:
32,237,73106,1,10,2:2:0:0:
165,130,73273,1,2,3:2:0:0:
165,130,73357,1,0,3:0:0:0:
165,130,73441,6,0,L|68:151,1,95.3388333333333,2|2,2:2|2:2,0:0:0:0:
174,317,73776,1,10,2:2:0:0:
183,214,73944,2,0,P|162:257|167:302,1,95.3388333333333,2|0,2:2|0:0,0:0:0:0:
32,239,74279,101,2,2:2:0:0:
277,227,74446,2,0,L|183:214,1,95.3388333333333,10|2,2:2|2:2,0:0:0:0:
357,147,74782,5,2,2:2:0:0:
344,361,74949,1,2,2:2:0:0:
344,361,75033,1,0,0:0:0:0:
344,361,75117,1,10,2:2:0:0:
172,90,75284,102,0,P|112:63|63:151,1,171.269806523133,2|0,2:2|0:0,0:0:0:0:
72,150,75620,1,2,2:2:0:0:
191,308,75787,1,10,2:2:0:0:
269,126,75955,1,2,3:2:0:0:
269,126,76039,1,0,3:0:0:0:
269,126,76122,6,0,P|318:126|358:148,1,95.3388333333333,10|2,2:2|2:2,0:0:0:0:
471,287,76457,1,10,2:2:0:0:
502,196,76625,2,0,B|432:201|432:201|394:233|394:233|325:238,1,190.110833333333,2|2,2:2|2:2,0:0:0:0:
269,126,77128,1,10,2:2:0:0:
264,318,77295,1,2,3:2:0:0:
264,318,77379,1,0,3:0:0:0:
264,318,77463,2,0,P|219:330|173:316,1,95.3388333333333,2|2,2:2|2:2,0:0:0:0:
35,250,77798,101,10,2:2:0:0:
106,374,77966,2,0,B|92:310|92:310|116:256|116:256|102:192,1,190.110833333333,2|2,2:2|2:2,0:0:0:0:
79,109,78469,1,10,2:2:0:0:
251,99,78636,1,2,3:2:0:0:
251,99,78720,1,0,3:0:0:0:
251,99,78804,6,0,B|208:125|208:125|154:118,1,95.3388333333333,6|2,2:2|2:2,0:0:0:0:
130,42,79139,1,10,2:2:0:0:
102,192,79307,2,0,B|124:237|124:237|112:290,1,95.3388333333333,2|0,2:2|0:0,0:0:0:0:
35,250,79642,101,2,2:2:0:0:
163,119,79809,1,10,2:2:0:0:
209,287,79977,1,2,3:2:0:0:
209,287,80061,1,0,3:0:0:0:
209,287,80145,6,0,L|114:280,1,95.3388333333333,2|2,2:2|2:2,0:0:0:0:
283,168,80480,1,10,2:2:0:0:
300,368,80647,2,0,P|389:377|465:294,1,190.110833333333,2|2,2:2|2:2,0:0:0:0:
324,238,81150,1,10,2:2:0:0:
453,187,81318,1,2,3:2:0:0:
453,187,81402,1,0,3:0:0:0:
453,187,81485,102,0,P|411:166|365:168,1,95.3388333333333,6|2,2:2|2:2,0:0:0:0:
324,238,81821,1,10,2:2:0:0:
303,75,81988,2,0,L|283:167,1,95.3388333333333,2|0,2:2|0:0,0:0:0:0:
133,35,82323,5,2,2:2:0:0:
108,299,82491,2,0,L|200:279,1,95.3388333333333,10|2,2:2|2:2,0:0:0:0:
201,279,82742,1,0,3:0:0:0:
201,279,82826,1,2,2:2:0:0:
211,0,83161,102,0,P|221:46|203:88,1,95.3388333333333,10|2,2:2|2:2,0:0:0:0:
50,52,83497,2,0,P|68:95|107:120,1,95.3388333333333,0|2,0:0|2:2,0:0:0:0:
283,168,83832,1,10,2:2:0:0:
108,299,83999,1,2,3:2:0:0:
108,299,84083,1,0,3:0:0:0:
108,299,84167,6,0,L|13:292,1,95.3388333333333,2|2,2:2|2:2,0:0:0:0:
107,120,84502,1,10,2:2:0:0:
201,279,84670,2,0,L|194:374,1,95.3388333333333,2|0,2:2|0:0,0:0:0:0:
138,209,85005,1,2,2:2:0:0:
294,259,85173,2,0,L|389:266,1,95.3388333333333,10|2,2:2|2:2,0:0:0:0:
283,168,85508,101,2,2:2:0:0:
305,350,85675,1,2,2:2:0:0:
305,350,85759,1,0,0:0:0:0:
305,350,85843,1,10,2:2:0:0:
505,234,86011,2,0,P|434:220|385:276,1,142.724833333333,2|0,2:2|0:0,0:0:0:0:
387,265,86346,2,0,L|389:214,1,47.9528333333333,2|0,2:2|1:0,0:0:0:0:
283,168,86513,1,10,2:2:0:0:
247,178,86597,1,0,0:0:0:0:
210,188,86681,1,2,3:2:0:0:
174,198,86765,1,0,3:0:0:0:
138,209,86849,1,10,2:2:0:0:
138,209,87184,101,10,2:2:0:0:
292,51,87351,1,2,2:2:0:0:
260,269,87519,1,10,2:2:0:0:
157,74,87687,1,2,2:2:0:0:
355,171,87854,1,10,2:2:0:0:
241,156,88022,1,2,2:2:0:0:
241,156,88106,1,0,0:0:0:0:
241,156,88189,1,10,2:2:0:0:
326,15,88525,5,10,2:2:0:0:
86,217,88692,1,2,2:2:0:0:
401,197,88860,1,10,2:2:0:0:
133,29,89027,1,2,2:2:0:0:
252,321,89195,1,10,2:2:0:0:
326,15,89363,1,2,2:2:0:0:
330,19,89446,1,0,0:0:0:0:
334,23,89530,102,0,P|296:54|248:68,1,95.3388333333333,10|2,2:2|2:2,0:0:0:0:
133,29,89865,1,2,2:2:0:0:
252,321,90033,6,0,P|283:283|297:235,1,95.3388333333333,10|2,2:2|2:2,0:0:0:0:
133,29,90368,1,2,2:2:0:0:
86,217,90536,5,10,2:2:0:0:
342,152,90703,1,2,2:2:0:0:
342,152,90787,1,0,1:0:0:0:
342,152,90871,2,0,L|388:160,1,45.6266,6|0,2:2|0:0,0:0:0:0:
482,71,92044,1,2,2:2:0:0:
482,71,92128,1,0,1:0:0:0:
482,71,92212,6,0,P|393:69|387:160,1,197.715257621257,14|2,2:2|2:2,0:0:0:0:
389,347,92714,2,0,P|382:257|293:258,1,197.715257621257,10|2,2:2|2:2,0:0:0:0:
86,217,93217,2,0,P|136:217|166:179,1,99.1523821439618,10|2,2:2|2:2,0:0:0:0:
245,125,93469,1,0,1:0:0:0:
245,125,93552,38,0,P|155:144|86:66,1,197.715257621257,14|2,2:2|2:2,0:0:0:0:
183,46,94055,1,10,2:2:0:0:
358,62,94223,2,0,P|358:112|330:154,1,99.1523821439618,2|2,2:2|2:2,0:0:0:0:
270,35,94558,2,0,P|243:76|244:124,1,99.1523821439618,10|2,2:2|2:2,0:0:0:0:
464,197,94893,70,0,B|397:202|397:202|359:253|359:253|292:258,1,197.715257621257,14|2,2:2|2:2,0:0:0:0:
41,103,95396,2,0,P|134:104|181:191,1,197.715257621257,10|2,2:2|2:2,0:0:0:0:
99,380,95899,2,0,L|83:283,1,99.1523821439618,10|2,2:2|2:2,0:0:0:0:
82,282,96150,1,0,0:0:0:0:
82,282,96234,37,14,2:2:0:0:
290,253,96402,1,2,2:2:0:0:
87,184,96569,1,2,1:2:0:0:
238,337,96737,1,10,2:2:0:0:
296,130,96904,86,0,P|247:134|205:160,1,99.1523821439618,2|2,2:2|2:2,0:0:0:0:
337,341,97240,2,0,L|435:325,1,99.1523821439618,10|2,2:2|2:2,0:0:0:0:
486,130,97575,38,0,P|437:186|364:188,1,152.088666666667,10|2,2:2|2:2,0:0:0:0:
295,129,98078,1,2,2:2:0:0:
385,30,98245,2,0,P|395:66|398:104,2,76.0443333333333,2|2|2,2:2|2:2|2:2,0:0:0:0:
205,29,98748,1,2,2:2:0:0:
205,29,98832,1,0,3:0:0:0:
205,29,98916,102,0,P|194:65|191:103,1,76.2710666666667,10|2,2:2|2:2,0:0:0:0:
295,129,99251,2,0,P|305:165|308:203,1,76.2710666666667,2|2,2:2|2:2,0:0:0:0:
163,228,99586,2,0,P|152:264|149:302,1,76.2710666666667,2|2,2:2|2:2,0:0:0:0:
312,360,99921,85,2,2:2:0:0:
230,331,100089,1,2,2:2:0:0:
392,213,100256,2,0,L|379:303,1,91.525277216797,10|2,2:2|2:2,0:0:0:0:
285,179,100592,5,2,2:2:0:0:
312,360,100759,1,2,2:2:0:0:
182,85,100927,69,2,2:2:0:0:
149,302,101094,1,2,2:2:0:0:
339,43,101262,101,2,2:2:0:0:
378,303,101430,1,2,2:2:0:0:
133,206,101597,102,0,L|41:225,1,91.525277216797,10|2,2:2|2:2,0:0:0:0:
43,224,101849,1,0,0:0:0:0:
43,224,101932,1,2,2:2:0:0:
106,363,102100,5,2,0:0:0:0:
110,337,102184,1,2,2:2:0:0:
96,316,102268,5,2,0:2:0:0:
134,321,102351,1,2,2:2:0:0:
163,303,102435,1,2,2:2:0:0:
182,262,102519,1,2,2:2:0:0:
219,228,102603,1,2,0:0:0:0:
275,220,102687,1,2,0:0:0:0:
332,244,102770,1,2,0:0:0:0:
353,305,102854,1,2,0:0:0:0:
336,378,102938,38,0,P|370:379|405:359,1,76,10|2,2:2|2:2,0:0:0:0:
405,195,103273,1,2,2:2:0:0:
512,271,103441,2,0,L|433:263,1,76.2710666666667,2|0,2:2|1:0,0:0:0:0:
436,126,103776,1,2,2:2:0:0:
329,202,103944,2,0,L|408:194,1,76.2710666666667,2|2,2:2|2:2,0:0:0:0:
481,36,104279,86,0,P|426:84|355:68,1,152.088666666667,2|2,2:2|2:2,0:0:0:0:
291,123,104782,1,2,2:2:0:0:
235,14,104949,2,0,L|221:89,1,76.2710666666667,0|2,1:0|2:2,0:0:0:0:
165,197,105284,1,2,2:2:0:0:
165,197,105452,1,2,2:2:0:0:
125,106,105620,22,0,P|52:106|0:159,1,152.088666666667,2|2,2:2|2:2,0:0:0:0:
165,197,106122,2,0,P|191:223|199:259,1,76.2710666666667,2|0,2:2|1:0,0:0:0:0:
166,333,106457,1,2,2:2:0:0:
80,229,106625,2,0,P|76:266|93:299,1,76.2710666666667,2|2,2:2|2:2,0:0:0:0:
198,260,106960,86,0,P|277:260|326:317,1,152.088666666667,2|2,2:2|2:2,0:0:0:0:
512,267,107463,1,2,2:2:0:0:
512,267,107631,2,0,P|475:265|440:280,1,76.2710666666667,2|2,2:2|2:2,0:0:0:0:
373,233,107966,21,2,2:2:0:0:
403,384,108133,2,0,L|395:342,1,38.3622666666667,2|0,2:2|0:0,0:0:0:0:
373,233,108301,86,0,P|393:201|397:164,1,76.2710666666667,2|2,2:2|2:2,0:0:0:0:
311,132,108636,2,0,P|290:163|286:200,1,76.2710666666667,2|2,2:2|2:2,0:0:0:0:
366,55,108971,2,0,P|303:95|228:104,1,152.088666666667,0|2,1:0|2:2,0:0:0:0:
50,86,109474,1,2,2:2:0:0:
108,34,109642,22,0,P|125:67|124:105,1,76.2710666666667,2|2,2:2|2:2,0:0:0:0:
50,86,109977,1,2,2:2:0:0:
87,232,110145,2,0,P|69:198|70:160,1,76.2710666666667,2|0,2:2|1:0,0:0:0:0:
124,105,110480,1,2,2:2:0:0:
198,260,110647,2,0,L|183:337,1,76.2710666666667,2|2,2:2|2:2,0:0:0:0:
180,349,110899,1,0,0:0:0:0:
176,363,110983,86,0,B|215:347|248:369|248:369|281:391|320:376,1,152.088666666667,2|2,2:2|2:2,0:0:0:0:
372,232,111485,2,0,L|386:306,1,76.2710666666667,2|0,2:2|1:0,0:0:0:0:
446,198,111821,21,2,2:2:0:0:
372,232,111988,1,2,2:2:0:0:
305,184,112156,1,2,2:2:0:0:
320,25,112323,54,0,L|312:105,1,76.2710666666667,2|2,2:2|2:2,0:0:0:0:
305,184,112659,2,0,L|225:176,1,76.2710666666667,2|2,2:2|2:2,0:0:0:0:
12,141,112994,101,2,2:2:0:0:
125,129,113161,1,2,2:2:0:0:
133,238,113329,2,0,L|141:318,1,76,10|2,2:2|2:2,0:0:0:0:
148,321,113580,1,0,0:0:0:0:
148,321,113664,86,0,P|195:326|231:349,1,91.525277216797,6|2,2:2|2:2,0:0:0:0:
403,309,113999,2,0,B|332:316|332:316|303:342|303:342|232:349,1,182.506394433594,10|0,2:2|1:0,0:0:0:0:
75,364,114502,2,0,B|25:352|25:352|58:372,1,91.199997216797,2|2,0:0|0:0,0:0:0:0:
75,364,114837,38,0,L|56:183,1,182.506394433594,10|2,2:2|2:2,0:0:0:0:
106,42,115340,2,0,P|126:82|120:126,1,91.525277216797,10|2,2:2|2:2,0:0:0:0:
55,182,115675,1,0,1:0:0:0:
106,42,115843,1,2,2:2:0:0:
201,156,116011,1,10,2:2:0:0:
120,126,116178,1,2,2:2:0:0:
187,72,116346,70,0,L|278:55,1,91.525277216797,6|2,2:2|2:2,0:0:0:0:
362,26,116681,1,10,2:2:0:0:
475,125,116849,2,0,P|427:131|387:107,1,91.525277216797,2|0,2:2|1:0,0:0:0:0:
201,156,117184,2,0,B|225:158|249:174|249:174|243:153|224:144,1,91.199997216797,2|2,0:0|0:0,0:0:0:0:
201,156,117519,38,0,B|260:144|260:144|285:266,1,182.506394433594,10|2,2:2|2:2,0:0:0:0:
423,368,118022,2,0,L|440:277,1,91.199997216797,10|2,2:2|2:2,0:0:0:0:
447,286,118273,1,0,0:0:0:0:
447,286,118357,2,0,P|411:308|358:308,1,91.525277216797,2|2,2:2|2:2,0:0:0:0:
284,263,118692,1,10,2:2:0:0:
401,136,118860,1,2,2:2:0:0:
401,136,118944,1,0,0:0:0:0:
401,136,119027,70,0,L|384:227,1,91.525277216797,10|2,2:2|2:2,0:0:0:0:
215,120,119363,2,0,L|199:210,1,91.525277216797,10|2,2:2|2:2,0:0:0:0:
316,82,119698,1,2,2:2:0:0:
284,263,119865,1,2,2:2:0:0:
109,225,120033,2,0,L|199:209,1,91.525277216797,10|2,2:2|2:2,0:0:0:0:
433,321,120368,38,0,P|345:326|284:263,1,182.506394433594,2|10,2:2|2:2,0:0:0:0:
401,136,120871,2,0,L|384:225,1,91.525277216797,2|2,2:2|2:2,0:0:0:0:
300,172,121206,1,2,2:2:0:0:
502,100,121374,1,10,2:2:0:0:
319,66,121541,1,2,2:2:0:0:
319,66,121625,1,0,0:0:0:0:
319,66,121709,53,6,2:2:0:0:
281,278,121876,1,2,2:2:0:0:
88,134,122044,69,10,2:2:0:0:
300,172,122212,1,2,2:2:0:0:
156,365,122379,101,10,2:2:0:0:
194,153,122547,1,2,2:2:0:0:
387,297,122714,101,10,2:2:0:0:
175,259,122882,2,0,B|104:267|104:267|77:297|77:297|6:305,1,182.506394433594,2|2,2:2|2:2,0:0:0:0:
261,356,123385,2,0,P|282:315|282:271,1,91.199997216797,14|2,2:2|2:2,0:0:0:0:
282,271,123636,1,0,0:0:0:0:
282,271,123720,2,0,P|323:292|367:292,1,91.525277216797,10|10,2:2|2:2,0:0:0:0:
385,192,124055,2,0,P|344:171|300:171,1,91.525277216797,6|2,2:2|2:2,0:0:0:0:
175,259,124390,54,0,P|205:191|183:120,1,152.088666666667,10|2,2:2|2:2,0:0:0:0:
88,134,124893,1,2,2:2:0:0:
12,125,125061,2,0,L|87:133,1,76.2710666666667,2|2,2:2|2:2,0:0:0:0:
276,55,125396,1,2,2:2:0:0:
221,188,125564,1,2,2:2:0:0:
87,133,125731,22,0,L|79:58,1,76.2710666666667,2|2,2:2|2:2,0:0:0:0:
170,123,126066,1,2,2:2:0:0:
176,262,126234,2,0,L|168:337,1,76.2710666666667,2|2,2:2|2:2,0:0:0:0:
259,272,126569,1,2,2:2:0:0:
265,133,126737,2,0,L|257:58,1,76.2710666666667,2|2,2:2|2:2,0:0:0:0:
340,48,127072,86,0,L|348:123,1,76.2710666666667,6|2,2:2|2:2,0:0:0:0:
443,133,127407,1,2,2:2:0:0:
426,283,127575,2,0,L|434:208,1,76.2710666666667,2|2,2:2|2:2,0:0:0:0:
358,199,127910,2,0,L|350:274,1,76.2710666666667,2|2,2:2|2:2,0:0:0:0:
379,345,128245,1,2,2:2:0:0:
272,265,128413,22,0,P|193:265|130:328,1,152.088666666667,2|2,2:2|2:2,0:0:0:0:
123,175,128916,1,2,2:2:0:0:
123,175,129083,2,0,P|136:140|169:122,1,76.2710666666667,2|2,2:2|2:2,0:0:0:0:
272,265,129418,2,0,P|232:265|201:296,1,76.2710666666667,2|2,2:2|2:2,0:0:0:0:
169,122,129754,86,0,P|227:168|301:166,1,152.088666666667,10|2,2:2|2:2,0:0:0:0:
370,96,130256,1,2,2:2:0:0:
376,20,130424,2,0,L|370:96,1,76.2710666666667,2|2,2:2|2:2,0:0:0:0:
459,29,130759,2,0,L|453:105,1,76.2710666666667,2|2,2:2|2:2,0:0:0:0:
301,166,131094,22,0,P|219:164|154:215,1,167.297538435872,2|2,2:2|2:2,0:0:0:0:
214,373,131597,1,2,2:2:0:0:
207,290,131765,2,0,L|214:373,1,83.8981758846029,2|2,2:2|2:2,0:0:0:0:
115,299,132100,2,0,L|123:383,1,83.8981758846029,2|2,2:2|2:2,0:0:0:0:
154,215,132435,86,0,P|243:213|313:268,1,182.506394433594,6|2,2:2|2:2,0:0:0:0:
303,359,132938,1,2,2:2:0:0:
303,359,133106,2,0,L|312:269,1,91.525277216797,2|2,1:3|2:2,0:0:0:0:
393,367,133441,2,0,L|402:277,1,91.525277216797,2|2,2:2|2:2,0:0:0:0:
493,159,133776,22,0,P|412:171|369:91,1,182.506394433594,2|2,2:2|2:2,0:0:0:0:
312,268,134279,2,0,P|273:344|188:334,1,182.506394433594,2|2,2:2|2:2,0:0:0:0:
86,210,134782,2,0,L|175:225,1,91.199997216797,10|2,2:2|2:2,0:0:0:0:
180,230,135033,1,0,0:0:0:0:
184,235,135117,70,0,P|190:190|215:149,1,91.525277216797,6|2,2:2|2:2,0:0:0:0:
134,117,135452,1,10,2:2:0:0:
272,95,135620,2,0,P|352:145|455:129,1,182.506394433594,2|2,2:2|2:2,0:0:0:0:
464,65,136122,1,10,2:2:0:0:
497,230,136290,1,2,2:2:0:0:
497,230,136374,1,0,0:0:0:0:
497,230,136457,38,0,P|452:231|414:260,1,91.525277216797,6|10,2:2|2:2,0:0:0:0:
381,343,136709,1,4,2:3:0:0:
381,343,136793,1,2,2:2:0:0:
476,305,136960,2,0,L|283:275,1,182.506394433594,2|2,2:2|2:2,0:0:0:0:
204,261,137463,1,10,2:2:0:0:
90,374,137631,1,2,2:2:0:0:
90,374,137714,1,0,0:0:0:0:
90,374,137798,70,0,P|111:331|112:289,1,91.525277216797,10|2,2:2|2:2,0:0:0:0:
213,151,138133,1,10,2:2:0:0:
38,157,138301,2,0,B|100:143|100:143|150:165|150:165|212:151,1,182.506394433594,2|2,2:2|2:2,0:0:0:0:
91,226,138804,1,10,2:2:0:0:
159,81,138971,1,2,2:2:0:0:
159,81,139055,1,0,0:0:0:0:
159,81,139139,6,0,B|203:70,1,46.0347186083985,10|8,2:2|1:3,0:0:0:0:
339,146,139307,2,0,B|295:135,1,46.0347186083985,6|0,2:2|1:0,0:0:0:0:
259,9,139474,1,2,2:2:0:0:
239,218,139642,1,10,2:2:0:0:
239,218,139977,5,2,2:2:0:0:
423,124,140145,2,0,P|375:124|339:145,1,91.525277216797,10|2,2:2|2:2,0:0:0:0:
338,145,140396,1,0,1:0:0:0:
338,145,140480,69,10,2:2:0:0:
91,226,140647,1,0,1:0:0:0:
295,276,140815,1,2,2:2:0:0:
159,81,140983,101,10,2:2:0:0:
216,295,141150,1,2,2:2:0:0:
259,9,141318,1,2,2:2:0:0:
91,226,141485,101,10,2:2:0:0:
415,257,141653,1,6,2:2:0:0:
415,257,141988,101,10,2:2:0:0:
164,358,142156,2,0,P|139:320|140:275,1,91.525277216797,10|2,2:2|2:2,0:0:0:0:
216,295,142407,1,0,0:0:0:0:
216,295,142491,1,10,2:2:0:0:
400,156,142659,1,6,2:2:0:0:
371,146,142742,1,2,2:2:0:0:
341,146,142826,1,10,2:2:0:0:
312,156,142910,1,2,2:2:0:0:
288,175,142994,1,2,2:2:0:0:
272,200,143078,1,2,2:2:0:0:
267,231,143161,22,0,B|214:243|181:203,1,95.3388333333333,14|2,2:2|2:2,0:0:0:0:
65,94,143497,1,10,2:2:0:0:
208,118,143664,2,0,B|143:127|143:127|103:171|103:171|38:180,1,190.110833333333,2|2,2:2|2:2,0:0:0:0:
181,203,144167,1,10,2:2:0:0:
235,33,144335,1,2,3:2:0:0:
235,33,144418,1,0,3:0:0:0:
235,33,144502,6,0,P|278:56|324:55,1,95.3388333333333,2|2,2:2|2:2,0:0:0:0:
394,4,144837,1,10,2:2:0:0:
354,128,145005,2,0,P|355:176|379:216,1,95.3388333333333,2|0,2:2|0:0,0:0:0:0:
458,251,145340,1,2,2:2:0:0:
323,270,145508,2,0,P|281:295|259:336,1,95,10|2,2:2|2:2,0:0:0:0:
267,343,145759,1,0,3:0:0:0:
267,343,145843,102,0,P|241:301|200:279,1,95.3388333333333,6|2,2:2|2:2,0:0:0:0:
176,198,146178,1,10,2:2:0:0:
34,224,146346,2,0,B|102:230|102:230|133:273|133:273|201:279,1,190.110833333333,2|2,2:2|2:2,0:0:0:0:
59,305,146849,1,10,2:2:0:0:
176,198,147016,1,2,3:2:0:0:
180,194,147100,1,0,3:0:0:0:
184,190,147184,6,0,B|201:144|201:144|187:98,1,95.3388333333333,2|2,2:2|2:2,0:0:0:0:
110,84,147519,1,10,2:2:0:0:
15,97,147687,2,0,L|114:83,1,95.3388333333333,2|2,2:2|2:2,0:0:0:0:
211,20,148022,1,2,2:2:0:0:
290,113,148189,2,0,L|191:99,1,95,10|2,2:2|2:2,0:0:0:0:
203,107,148441,1,0,3:0:0:0:
203,107,148525,102,0,P|203:159|174:198,1,95.3388333333333,6|2,2:2|2:2,0:0:0:0:
111,330,148860,1,10,2:2:0:0:
54,263,149027,2,0,B|123:251|123:251|167:273|167:273|236:261,1,190.110833333333,2|2,2:2|2:2,0:0:0:0:
179,193,149530,1,10,2:2:0:0:
267,343,149698,1,2,3:2:0:0:
267,343,149782,1,0,3:0:0:0:
267,343,149865,6,0,B|360:359,1,95.3388333333333,2|2,2:2|2:2,0:0:0:0:
512,294,150201,1,10,2:2:0:0:
462,362,150368,2,0,B|428:317|428:317|451:186,1,190.110833333333,2|2,2:2|2:2,0:0:0:0:
471,110,150871,1,10,2:2:0:0:
337,34,151039,1,2,3:2:0:0:
337,34,151122,1,0,3:0:0:0:
337,34,151206,102,0,B|353:127,1,95.3388333333333,2|2,2:2|2:2,0:0:0:0:
165,158,151541,1,10,2:2:0:0:
243,50,151709,2,0,B|259:143,1,95.3388333333333,2|0,2:2|0:0,0:0:0:0:
70,173,152044,5,2,2:2:0:0:
181,251,152212,2,0,B|165:158,1,94.772,10|2,2:2|2:2,0:0:0:0:
86,266,152547,101,2,2:2:0:0:
291,330,152714,1,2,2:2:0:0:
291,330,152798,1,0,0:0:0:0:
291,330,152882,1,10,2:2:0:0:
355,125,153050,2,0,P|451:115|479:178,1,171.269806523133,2|0,2:2|0:0,0:0:0:0:
470,184,153385,1,2,2:2:0:0:
251,135,153552,2,0,B|158:151,1,95,10|2,2:2|2:2,0:0:0:0:
165,159,153804,1,0,3:0:0:0:
165,159,153888,6,0,P|192:199|198:246,1,95.3388333333333,10|2,2:2|2:2,0:0:0:0:
317,353,154223,1,10,2:2:0:0:
174,329,154390,2,0,B|239:320|239:320|279:276|279:276|344:267,1,190.110833333333,2|2,2:2|2:2,0:0:0:0:
198,244,154893,1,10,2:2:0:0:
317,353,155061,1,2,3:2:0:0:
317,353,155145,1,0,3:0:0:0:
317,353,155228,101,2,2:2:0:0:
398,197,155396,2,0,P|425:237|431:284,1,95.3388333333333,2|10,2:2|2:2,0:0:0:0:
427,102,155731,2,0,P|351:155|259:143,1,190.110833333333,2|2,2:2|2:2,0:0:0:0:
243,50,156234,1,10,2:2:0:0:
165,158,156402,1,2,3:2:0:0:
165,158,156485,1,0,3:0:0:0:
165,158,156569,6,0,B|181:251,1,95.3388333333333,6|2,2:2|2:2,0:0:0:0:
61,356,156904,1,10,2:2:0:0:
3,308,157072,2,0,P|102:292|134:376,1,190.110833333333,2|2,2:2|2:2,0:0:0:0:
181,251,157575,1,10,2:2:0:0:
317,353,157742,1,2,3:2:0:0:
317,353,157826,1,0,3:0:0:0:
317,353,157910,102,0,B|333:260,1,95.3388333333333,2|2,2:2|2:2,0:0:0:0:
479,276,158245,1,10,2:2:0:0:
502,205,158413,2,0,B|447:192|418:232|418:232|388:272|333:259,1,190.110833333333,2|2,2:2|2:2,0:0:0:0:
355,187,158916,1,10,2:2:0:0:
317,353,159083,1,2,3:2:0:0:
317,353,159167,1,0,3:0:0:0:
317,353,159251,6,0,P|266:353|223:311,1,95.3388333333333,6|2,2:2|2:2,0:0:0:0:
104,242,159586,1,10,2:2:0:0:
169,374,159754,2,0,B|140:326|169:286|169:286|197:245|168:197,1,190.110833333333,2|2,2:2|2:2,0:0:0:0:
232,327,160256,1,10,2:2:0:0:
104,242,160424,1,2,2:2:0:0:
104,242,160508,1,0,0:0:0:0:
104,242,160592,1,2,2:2:0:0:
226,3,160927,102,0,P|234:51|219:94,1,95.3388333333333,10|2,2:2|2:2,0:0:0:0:
46,34,161262,2,0,P|54:82|83:117,1,95.3388333333333,0|2,0:0|2:2,0:0:0:0:
140,42,161597,1,10,2:2:0:0:
167,195,161765,1,2,3:2:0:0:
167,195,161849,1,0,3:0:0:0:
167,195,161932,2,0,L|183:290,1,95.3388333333333,2|2,2:2|2:2,0:0:0:0:
366,180,162268,5,10,2:2:0:0:
335,368,162435,2,0,L|367:178,1,190.110833333333,2|2,2:2|2:2,0:0:0:0:
226,3,162938,2,0,L|241:96,1,95.3388333333333,10|2,2:2|2:2,0:0:0:0:
461,166,163273,102,0,L|367:181,1,95.3388333333333,2|2,2:2|2:2,0:0:0:0:
368,183,163525,1,0,0:0:0:0:
368,183,163608,1,10,2:2:0:0:
335,368,163776,2,0,P|268:389|205:358,1,142.724833333333,2|0,2:2|0:0,0:0:0:0:
205,358,164111,2,0,L|210:311,1,47.9528333333333,2|0,2:2|1:0,0:0:0:0:
172,219,164279,1,10,2:2:0:0:
147,231,164363,1,0,0:0:0:0:
122,244,164446,1,2,3:2:0:0:
97,257,164530,1,0,3:0:0:0:
72,269,164614,1,10,2:2:0:0:
72,269,164949,101,10,2:2:0:0:
182,108,165117,1,2,2:2:0:0:
266,282,165284,1,10,2:2:0:0:
79,156,165452,1,2,2:2:0:0:
163,330,165620,1,10,2:2:0:0:
274,170,165787,1,2,2:2:0:0:
274,170,165871,1,0,0:0:0:0:
274,170,165955,1,10,2:2:0:0:
401,108,166290,5,10,2:2:0:0:
264,308,166457,1,2,2:2:0:0:
157,91,166625,1,10,2:2:0:0:
391,248,166793,1,2,2:2:0:0:
286,31,166960,1,10,2:2:0:0:
146,231,167128,1,2,2:2:0:0:
151,236,167212,1,0,0:0:0:0:
156,241,167295,102,0,L|136:357,1,95,10|2,2:2|2:2,0:0:0:0:
401,108,167631,1,2,2:2:0:0:
157,91,167798,2,0,L|40:71,1,95,10|2,2:2|2:2,0:0:0:0:
391,248,168133,5,2,2:2:0:0:
286,31,168301,1,10,2:2:0:0:
264,310,168469,1,2,2:2:0:0:
269,315,168552,1,0,1:0:0:0:
275,321,168636,1,6,2:2:0:0:
157,91,168804,102,0,B|111:80|78:111|78:111|46:144|0:133,1,171.269806523133,10|0,2:2|0:0,0:0:0:0:
0,132,169139,2,0,P|14:150|20:173,1,47.9528333333333,2|0,2:2|0:0,0:0:0:0:
15,292,169307,5,10,2:2:0:0:
38,288,169390,1,4,3:3:0:0:
60,295,169474,1,6,2:2:0:0:
77,312,169558,1,4,3:3:0:0:
77,312,169642,6,0,B|140:343|185:296|152:302|200:248|264:280,1,205.523753737793,14|0,2:2|0:0,0:0:0:0:
272,287,169977,22,0,L|265:325,3,38.0599555555556,14|0|2|2,2:2|2:0|2:3|2:3,0:0:0:0:
345,299,170312,2,0,L|338:337,3,38.0599555555556,2|2|2|2,2:2|2:2|2:2|2:2,0:0:0:0:
418,311,170647,2,0,L|411:349,3,38.0599555555556,2|2|2|2,2:2|2:2|2:2|2:2,0:0:0:0:
484,361,170983,2,0,L|491:323,1,38.3622666666667,2|2,2:2|2:2,0:0:0:0:
503,232,171150,1,2,2:2:0:0:
503,232,171234,1,2,2:2:0:0:
503,232,171318,38,0,P|470:204|420:195,1,76.2710666666667,14|2,2:2|2:2,0:0:0:0:
364,225,171653,1,2,2:2:0:0:
309,105,171821,2,0,P|337:80|373:69,1,76.2710666666667,2|2,2:2|2:2,0:0:0:0:
297,185,172156,1,2,2:2:0:0:
166,100,172323,2,0,P|158:142|175:190,1,76.2710666666667,2|2,2:2|2:3,0:0:0:0:
229,223,172575,1,2,2:3:0:0:
229,223,172659,1,6,2:2:0:0:
158,316,172994,70,0,L|122:328,3,38.0599555555556,2|2|2|2,2:2|2:2|2:2|2:2,0:0:0:0:
221,260,173329,2,0,L|228:222,3,38.0599555555556,2|2|2|2,2:2|2:2|2:2|2:2,0:0:0:0:
237,342,173664,2,0,L|265:367,1,38.3622666666667,2|2,2:2|2:2,0:0:0:0:
340,327,173832,1,2,2:2:0:0:
340,327,173916,1,2,2:2:0:0:
340,327,173999,38,0,B|432:313|386:371|486:353,1,152.088666666667,14|2,2:2|2:2,0:0:0:0:
493,217,174502,2,0,P|463:238|457:279,1,76.2710666666667,2|2,2:2|2:2,0:0:0:0:
382,218,174837,1,2,2:2:0:0:
297,214,175005,2,0,P|300:250|332:276,1,76,2|2,2:2|2:3,0:0:0:0:
343,289,175256,1,2,2:3:0:0:
343,289,175340,70,0,L|339:326,3,38.0599555555556,6|0|2|2,2:2|2:0|2:3|2:3,0:0:0:0:
263,301,175675,2,0,L|259:338,3,38.0599555555556,2|2|2|2,2:2|2:2|2:2|2:2,0:0:0:0:
183,313,176011,2,0,L|179:350,3,38.0599555555556,2|2|2|2,2:2|2:2|2:2|2:2,0:0:0:0:
99,362,176346,2,0,L|103:325,1,38.3622666666667,2|2,2:2|2:2,0:0:0:0:
78,228,176513,1,2,2:2:0:0:
80,238,176597,1,2,2:2:0:0:
83,249,176681,38,0,B|176:235|129:293|225:276,1,152.088666666667,14|2,2:2|2:2,0:0:0:0:
285,213,177184,1,2,2:2:0:0:
285,213,177268,1,2,2:2:0:0:
285,213,177351,1,2,2:2:0:0:
190,121,177519,2,0,L|200:197,1,76.2710666666667,2|2,2:2|2:2,0:0:0:0:
304,62,177854,1,2,2:3:0:0:
304,62,177938,1,2,2:3:0:0:
304,62,178022,1,6,2:2:0:0:
304,62,178357,70,0,L|341:56,3,38.0599555555556,2|2|2|2,2:2|2:2|2:2|2:2,0:0:0:0:
218,31,178692,2,0,L|194:1,3,38.0599555555556,2|2|2|2,2:2|2:2|2:2|2:2,0:0:0:0:
235,121,179027,2,0,L|221:156,1,38.3622666666667,2|2,2:2|2:2,0:0:0:0:
184,240,179195,1,2,2:2:0:0:
184,240,179279,1,2,2:2:0:0:
184,240,179363,38,0,P|141:241|102:258,1,76.2710666666667,14|2,2:2|2:2,0:0:0:0:
46,204,179698,1,2,2:2:0:0:
18,361,179865,2,0,P|61:362|100:379,1,76.2710666666667,2|2,2:2|2:2,0:0:0:0:
156,325,180201,1,2,2:2:0:0:
301,368,180368,2,0,P|263:367|227:380,1,76,2|2,2:2|2:3,0:0:0:0:
228,380,180620,1,2,2:3:0:0:
228,380,180703,70,0,P|269:314|276:234,1,152.088666666667,10|2,2:2|2:2,0:0:0:0:
361,126,181206,1,2,2:2:0:0:
422,180,181374,2,0,P|390:201|353:207,1,76.2710666666667,2|2,2:2|2:2,0:0:0:0:
209,102,181709,37,2,2:2:0:0:
298,13,181876,1,2,2:2:0:0:
298,13,181960,1,2,2:2:0:0:
298,13,182044,2,0,L|287:88,1,76.2710666666667,14|2,2:2|2:2,0:0:0:0:
209,102,182379,69,2,2:2:0:0:
65,72,182547,2,0,P|102:55|136:59,1,76.2710666666667,2|2,2:2|2:2,0:0:0:0:
153,163,182882,2,0,P|118:178|81:174,1,76.2710666666667,2|2,2:2|2:2,0:0:0:0:
97,276,183217,1,2,2:3:0:0:
93,280,183301,1,2,2:3:0:0:
89,284,183385,1,6,2:2:0:0:
89,284,183720,38,0,L|127:279,3,38.0599555555556,2|2|2|2,2:2|2:2|2:2|2:2,0:0:0:0:
167,346,184055,2,0,L|205:351,3,38.0599555555556,2|2|2|2,2:2|2:2|2:2|2:2,0:0:0:0:
245,259,184390,2,0,L|283:254,1,38.3622666666667,2|2,2:2|2:2,0:0:0:0:
333,330,184558,1,2,2:2:0:0:
332,334,184642,1,2,2:2:0:0:
332,339,184726,69,14,2:2:0:0:
408,379,184893,2,0,L|418:303,1,76.2710666666667,2|2,2:2|2:2,0:0:0:0:
408,228,185228,2,0,L|418:304,1,76.2710666666667,2|2,2:2|2:2,0:0:0:0:
417,152,185564,2,0,L|407:228,1,76.2710666666667,2|2,2:2|2:2,0:0:0:0:
502,75,185899,1,2,2:3:0:0:
502,75,185983,1,2,2:3:0:0:
502,75,186066,1,6,2:2:0:0:
502,74,186402,38,0,L|459:89,3,38.0599555555556,2|2|2|2,2:2|2:2|2:2|2:2,0:0:0:0:
355,53,186737,2,0,L|388:80,3,38.0599555555556,2|2|2|2,2:2|2:2|2:2|2:2,0:0:0:0:
412,190,187072,2,0,L|417:152,1,38.3622666666667,2|2,2:2|2:2,0:0:0:0:
272,178,187240,1,2,2:2:0:0:
272,178,187323,1,2,2:2:0:0:
272,178,187407,70,0,L|282:254,1,76.2710666666667,14|2,2:2|2:2,0:0:0:0:
181,165,187742,1,2,2:2:0:0:
90,302,187910,2,0,L|100:226,1,76.2710666666667,2|2,2:2|2:2,0:0:0:0:
0,315,188245,1,2,2:2:0:0:
0,315,188329,1,2,2:2:0:0:
0,315,188413,1,2,2:2:0:0:
180,289,188580,2,0,L|217:296,1,38.3622666666667,2|2,2:3|1:3,0:0:0:0:
296,276,188748,38,0,L|289:239,3,38.0599555555556,6|0|0|0,2:2|2:0|3:0|2:0,0:0:0:0:
373,258,189083,2,0,L|366:221,3,38.0599555555556,2|2|2|2,2:2|2:2|2:2|2:2,0:0:0:0:
450,240,189418,2,0,L|443:203,3,38.0599555555556,2|2|2|2,2:2|2:2|2:2|2:2,0:0:0:0:
504,149,189754,5,2,2:2:0:0:
384,77,189921,1,2,2:2:0:0:
384,77,190005,1,2,2:2:0:0:
384,77,190089,5,14,2:2:0:0:
352,107,190173,1,2,2:2:0:0:
308,109,190256,1,2,2:2:0:0:
272,82,190340,1,2,2:2:0:0:
263,39,190424,1,2,2:2:0:0:
222,11,190508,1,2,2:2:0:0:
183,14,190592,1,2,2:2:0:0:
151,44,190675,1,2,2:2:0:0:
145,87,190759,5,10,2:2:0:0:
172,122,190843,1,2,2:2:0:0:
170,169,190927,1,2,2:2:0:0:
139,204,191011,1,2,2:2:0:0:
92,209,191094,1,2,2:2:0:0:
54,184,191178,1,2,2:2:0:0:
39,141,191262,1,6,2:2:0:0:
57,97,191346,1,2,2:2:0:0:
42,51,191430,54,0,B|140:31|112:101|210:73,1,174.901970000712,14|10,2:2|2:2,0:0:0:0:
311,29,191932,1,2,2:2:0:0:
297,140,192100,2,0,L|286:227,1,87.7117283336894,0|2,0:0|2:2,0:0:0:0:
208,73,192435,1,10,2:2:0:0:
297,140,192603,1,2,3:2:0:0:
297,140,192687,1,0,3:0:0:0:
297,140,192770,6,0,P|343:140|376:116,1,87.7117283336894,2|2,2:2|2:2,0:0:0:0:
409,337,193106,1,10,2:2:0:0:
424,253,193273,2,0,B|365:260|365:260|330:304|330:304|271:311,1,174.901970000712,2|2,2:2|2:2,0:0:0:0:
184,321,193776,1,10,2:2:0:0:
286,226,193944,1,2,3:2:0:0:
286,226,194027,1,0,3:0:0:0:
286,227,194111,102,0,L|297:140,1,87.7117283336894,2|2,2:2|2:2,0:0:0:0:
189,26,194446,1,10,2:2:0:0:
324,65,194614,2,0,B|277:51|242:83|242:83|207:115|160:101,1,174.901970000712,2|2,2:2|2:2,0:0:0:0:
297,140,195117,2,0,L|286:227,1,87.7117283336894,10|2,2:2|2:2,0:0:0:0:
184,321,195452,5,2,2:2:0:0:
130,252,195620,1,0,1:0:0:0:
97,332,195787,1,10,2:2:0:0:
271,310,195955,1,2,3:2:0:0:
271,310,196039,1,0,3:0:0:0:
271,310,196122,102,0,L|358:321,1,87.7117283336894,2|2,2:2|2:2,0:0:0:0:
512,150,196457,2,0,P|463:134|448:195,1,131.306849167201,10|0,2:2|0:0,0:0:0:0:
459,204,196793,6,0,L|285:226,1,174.901970000712,6|10,2:2|2:2,0:0:0:0:
57,97,197295,2,0,P|141:97|195:163,1,174.901970000712,2|2,2:2|2:2,0:0:0:0:
130,252,197798,2,0,L|119:339,1,87.7117283336894,10|2,2:2|2:2,0:0:0:0:
195,163,198133,102,0,P|242:158|280:182,1,87.4000016670227,2|2,2:2|2:2,0:0:0:0:
283,185,198385,1,2,3:2:0:0:
283,185,198469,2,0,L|294:274,1,87.7117283336894,10|2,2:2|2:2,0:0:0:0:
418,326,198804,6,0,P|471:286|471:210,1,131.306849167201
459,204,199139,2,0,L|369:215,1,87.7117283336894,10|2,2:2|2:2,0:0:0:0:
306,89,199474,102,0,L|284:267,1,174.901970000712,2|10,2:2|2:2,0:0:0:0:
119,338,199977,2,0,P|54:297|55:206,1,174.901970000712,2|2,2:2|2:2,0:0:0:0:
216,241,200480,6,0,L|208:233|119:244,1,87.7117283336894,10|2,2:2|2:2,0:0:0:0:
129,251,200731,1,0,3:0:0:0:
129,251,200815,2,0,P|143:214|134:162,1,87.7117283336894,2|2,2:2|2:2,0:0:0:0:
41,128,201150,1,10,2:2:0:0:
230,83,201318,102,0,B|347:58|347:58|305:89,1,171.269806523133,2|0,2:2|0:0,0:0:0:0:
305,89,201653,1,2,2:2:0:0:
155,77,201821,1,10,2:2:0:0:
220,213,201988,1,2,3:2:0:0:
220,213,202072,1,0,3:3:0:0:
220,213,202156,69,10,2:2:0:0:
331,187,202323,1,2,2:2:0:0:
443,162,202491,1,10,2:2:0:0:
357,286,202659,53,2,2:2:0:0:
331,187,202826,1,0,0:0:0:0:
305,89,202994,1,2,2:2:0:0:
220,213,203161,2,0,P|176:221|136:207,1,87.7117283336894,10|2,2:2|2:2,0:0:0:0:
83,133,203497,53,2,2:2:0:0:
61,281,203664,2,0,L|46:368,1,87.7117283336894,2|10,2:2|2:2,0:0:0:0:
220,213,203999,2,0,P|289:213|336:260,1,131.306849167201,2|0,2:2|0:0,0:0:0:0:
328,266,204335,1,2,2:2:0:0:
166,287,204502,2,0,B|158:279|135:246|134:200,1,87.7117283336894,10|2,2:2|2:2,0:0:0:0:
141,208,204754,1,0,3:0:0:0:
141,208,204837,54,0,L|51:221,1,87.7117283336894,6|2,2:2|2:2,0:0:0:0:
83,133,205173,1,10,2:2:0:0:
241,253,205340,2,0,L|331:266,1,87.7117283336894,2|0,2:2|0:0,0:0:0:0:
299,178,205675,1,2,2:2:0:0:
141,298,205843,2,0,L|51:311,1,87.7117283336894,10|2,2:2|2:2,0:0:0:0:
54,310,206094,1,0,3:0:0:0:
54,310,206178,53,2,2:2:0:0:
221,334,206346,2,0,P|241:295|240:251,1,87.7117283336894,2|10,2:2|2:2,0:0:0:0:
58,43,206681,54,0,B|125:46|125:46|146:76|146:76|214:80,1,171.269806523133,2|0,2:2|0:0,0:0:0:0:
302,65,207016,2,0,P|296:37|280:15,1,57.5434021743775,2|0,2:2|0:0,0:0:0:0:
213,79,207184,2,0,L|227:167,1,87.7117283336894,10|2,2:2|2:2,0:0:0:0:
240,252,207519,53,6,2:2:0:0:
443,162,207687,1,2,2:2:0:0:
296,105,207854,1,10,2:2:0:0:
386,308,208022,1,2,2:2:0:0:
443,162,208189,53,10,2:2:0:0:
240,252,208357,1,2,2:2:0:0:
240,252,208441,1,0,0:0:0:0:
240,252,208525,2,0,L|227:338,1,87.7117283336894,10|2,2:2|2:2,0:0:0:0:
34,90,208860,53,14,2:2:0:0:
56,274,209027,1,2,2:2:0:0:
218,68,209195,1,10,2:2:0:0:
240,252,209363,1,2,2:2:0:0:
54,106,209530,53,10,2:2:0:0:
201,88,209698,1,2,2:2:0:0:
72,253,209865,1,10,2:2:0:0:
219,235,210033,1,2,2:2:0:0:
229,243,210117,1,0,0:0:0:0:
240,252,210201,53,14,2:2:0:0:
443,162,210368,1,2,2:2:0:0:
264,32,210536,1,2,2:2:0:0:
367,265,210703,37,10,2:2:0:0:
390,45,210871,1,2,2:2:0:0:
188,135,211039,1,2,2:2:0:0:
316,149,211206,69,10,3:2:0:0:
316,149,211290,1,0,3:0:0:0:
316,149,211374,1,2,3:2:0:0:
316,149,211457,1,0,3:0:0:0:
316,149,211541,2,0,L|375:138,2,58.3875711113485,2|0|0,2:2|0:0|0:0,0:0:0:0:
240,252,211876,2,0,L|181:241,2,58.3875711113485,2|0|0,2:2|0:0|0:0,0:0:0:0:
316,149,212212,38,0,L|332:64,1,87.7117283336894,10|2,2:2|2:2,0:0:0:0:
332,63,212463,1,0,0:0:0:0:
332,63,212547,1,10,2:2:0:0:
240,252,212714,1,0,1:0:0:0:
122,77,212882,1,6,2:2:0:0:
256,192,212966,12,0,213888,2:2:0:0:
248,42,214055,22,0,L|252:24,2,19,2|2|2,0:0|0:0|0:0,0:0:0:0:
248,42,214558,6,0,P|212:53|174:49,2,76,2|2|2,0:0|0:0|0:0,0:0:0:0:
248,42,215564,6,0,L|232:131,1,91.199997216797,10|2,0:0|0:0,0:0:0:0:
322,146,216066,2,0,L|337:56,2,91.199997216797,2|2|2,0:0|0:0|0:0,0:0:0:0:
252,218,216904,38,0,P|290:242|335:246,1,91.199997216797,10|2,0:0|0:0,0:0:0:0:
416,109,217575,2,0,P|423:154|408:197,1,91.199997216797,2|2,0:0|0:2,0:0:0:0:
252,217,218245,70,0,L|163:237,1,91.199997216797,10|2,0:0|0:0,0:0:0:0:
267,307,218748,2,0,L|178:327,2,91.199997216797,2|2|0,0:0|0:0|0:0,0:0:0:0:
367,237,219586,38,0,L|411:227,2,45.5999986083985,10|2|2,0:0|0:0|0:0,0:0:0:0:
301,174,220089,2,0,L|270:140,2,45.5999986083985,2|2|0,0:0|0:0|0:0,0:0:0:0:
280,263,220592,2,0,L|266:306,1,45.5999986083985,2|2,0:0|0:0,0:0:0:0:
163,236,220927,70,0,P|125:261|80:259,1,91.199997216797,10|2,0:0|0:0,0:0:0:0:
43,134,221430,2,0,P|80:109|125:111,1,91.199997216797,2|2,0:0|0:0,0:0:0:0:
105,187,221932,1,2,0:0:0:0:
105,187,222100,1,2,0:0:0:0:
125,111,222268,38,0,L|214:130,1,91.199997216797,10|2,0:0|0:0,0:0:0:0:
227,52,222770,2,0,L|137:32,2,91.199997216797,2|2|2,0:0|0:0|0:0,0:0:0:0:
227,52,223608,1,10,0:2:0:0:
413,42,223944,69,2,0:0:0:0:
413,42,224111,2,0,P|434:81|431:126,1,91.199997216797,2|2,0:0|0:0,0:0:0:0:
357,154,224614,2,0,L|289:164,1,68.3999979125977,2|0,0:0|0:0,0:0:0:0:
289,164,224949,38,0,P|326:209|319:268,1,121.6,8|2,2:1|2:2,0:0:0:0:
249,232,225452,1,0,0:0:0:0:
249,232,225620,70,0,L|189:240,1,60.8,2|0,2:2|2:2,0:0:0:0:
32,258,225955,2,0,P|15:216|28:173,1,91.2,2|0,2:2|0:0,0:0:0:0:
33,170,226290,22,0,L|152:153,1,121.670933333333,6|2,2:2|2:2,0:0:0:0:
157,156,226793,2,0,P|169:120|169:82,1,76.2710666666667,2|2,2:2|3:1,0:0:0:0:
241,53,227128,1,2,2:2:0:0:
373,75,227295,2,0,P|335:81|302:100,1,76.2710666666667,0|2,0:0|2:2,0:0:0:0:
306,103,227631,70,0,P|371:119|435:174,1,152.088666666667,10|2,2:2|2:2,0:0:0:0:
362,228,228133,1,0,0:0:0:0:
362,228,228301,2,0,P|329:220|297:192,1,76,2|0,2:2|2:2,0:0:0:0:
190,144,228636,1,2,0:0:0:0:
190,144,228971,38,0,L|39:166,1,152.088666666667,10|2,2:2|2:2,0:0:0:0:
39,165,229474,1,2,2:2:0:0:
126,207,229642,2,0,P|132:243|126:281,1,76.2710666666667,2|2,3:1|2:2,0:0:0:0:
0,376,229977,2,0,P|28:352|64:339,1,76.2710666666667,0|2,0:0|2:2,0:0:0:0:
125,281,230312,70,0,P|195:307|254:355,1,152.088666666667,10|2,2:2|2:2,0:0:0:0:
254,355,230815,2,0,P|283:331|319:318,1,76.2710666666667,2|2,2:2|0:0,0:0:0:0:
408,152,231150,1,0,0:0:0:0:
408,152,231318,2,0,P|414:189|407:226,1,76.2710666666667,2|2,2:2|0:0,0:0:0:0:
472,269,231653,38,0,P|396:261|327:230,1,152.088666666667,10|2,2:2|2:2,0:0:0:0:
244,188,232156,2,0,P|238:150|221:118,1,76.2710666666667,2|2,2:2|3:1,0:0:0:0:
356,33,232491,2,0,P|326:57|306:87,1,76.2710666666667,2|0,2:2|0:0,0:0:0:0:
166,14,232826,1,2,2:2:0:0:
150,86,232994,1,10,2:2:0:0:
150,86,233329,70,0,P|151:49|166:14,1,76.2710666666667,2|2,2:2|2:2,0:0:0:0:
164,236,233664,2,0,P|132:215|109:186,1,76.2710666666667,2|0,2:2|0:0,0:0:0:0:
371,276,233999,2,0,P|303:310|229:321,1,152.088666666667,2|4,2:2|2:2,0:0:0:0:
70,263,236011,85,2,0:0:0:0:
70,263,236346,5,2,0:0:0:0:
70,263,236681,5,2,0:0:0:0:
70,263,237016,118,0,P|94:221|144:202,1,95.3388333333333,14|2,2:2|2:2,0:0:0:0:
287,247,237351,1,10,2:2:0:0:
144,279,237519,2,0,B|212:284|212:284|247:325|247:325|315:330,1,190.110833333333,2|2,2:2|2:2,0:0:0:0:
171,361,238022,1,10,2:2:0:0:
287,247,238189,1,2,3:2:0:0:
291,243,238273,1,0,3:0:0:0:
295,239,238357,5,2,2:2:0:0:
308,144,238525,2,0,L|295:238,1,95.3388333333333,2|10,2:2|2:2,0:0:0:0:
388,251,238860,2,0,L|401:157,1,95.3388333333333,2|2,2:2|2:2,0:0:0:0:
321,49,239195,1,2,2:2:0:0:
294,238,239363,2,0,P|229:251|195:191,1,142.724833333333,10|0,2:2|0:0,0:0:0:0:
194,192,239698,102,0,P|158:229|111:233,1,95.3388333333333,6|2,2:2|2:2,0:0:0:0:
161,27,240033,1,10,2:2:0:0:
14,42,240201,2,0,B|81:53|81:53|110:98|110:98|177:109,1,190.110833333333,2|2,2:2|2:2,0:0:0:0:
30,124,240703,1,10,2:2:0:0:
161,27,240871,1,2,3:2:0:0:
161,27,240955,1,0,3:0:0:0:
161,27,241039,6,0,L|254:46,1,95.3388333333333,2|2,2:2|2:2,0:0:0:0:
347,65,241374,1,10,2:2:0:0:
440,46,241541,2,0,L|347:65,1,95.3388333333333,2|2,2:2|2:2,0:0:0:0:
294,238,241876,1,2,2:2:0:0:
243,172,242044,2,0,P|321:160|369:201,1,142.724833333333,10|0,2:2|0:0,0:0:0:0:
461,184,242379,102,0,L|366:197,1,95.3388333333333,6|2,2:2|2:2,0:0:0:0:
282,330,242714,1,10,2:2:0:0:
445,262,242882,2,0,B|378:273|378:273|349:318|349:318|282:329,1,190.110833333333,2|2,2:2|2:2,0:0:0:0:
432,353,243385,1,10,2:2:0:0:
294,238,243552,1,2,3:2:0:0:
294,238,243636,1,0,3:0:0:0:
294,238,243720,6,0,L|199:251,1,95.3388333333333,2|2,2:2|2:2,0:0:0:0:
62,157,244055,1,10,2:2:0:0:
130,294,244223,2,0,B|104:248|131:203|131:203|157:158|131:112,1,190.110833333333,2|2,2:2|2:2,0:0:0:0:
199,250,244726,1,8,2:2:0:0:
229,83,244893,1,2,3:2:0:0:
225,87,244977,1,0,3:0:0:0:
221,90,245061,102,0,P|177:91|130:114,1,95.3388333333333,2|2,2:2|2:2,0:0:0:0:
232,10,245396,1,10,2:2:0:0:
210,170,245564,2,0,L|305:157,1,95.3388333333333,2|0,2:2|0:0,0:0:0:0:
346,59,245899,1,2,2:2:0:0:
440,71,246066,2,0,L|345:58,1,95.3388333333333,10|0,2:2|0:0,0:0:0:0:
199,250,246402,5,2,2:2:0:0:
232,10,246569,1,2,2:2:0:0:
232,10,246653,1,0,0:0:0:0:
232,10,246737,1,10,2:2:0:0:
199,250,246904,102,0,P|146:275|48:208,1,171.269806523133,2|0,2:2|0:0,0:0:0:0:
50,200,247240,1,2,2:2:0:0:
277,238,247407,2,0,L|371:257,1,95,10|0,2:2|0:0,0:0:0:0:
378,264,247659,1,0,3:0:0:0:
378,264,247742,6,0,P|395:220|390:171,1,95.3388333333333,10|2,2:2|2:2,0:0:0:0:
269,78,248078,1,10,2:2:0:0:
416,100,248245,2,0,B|365:87|329:126|329:126|293:164|242:151,1,190.110833333333,2|2,2:2|2:2,0:0:0:0:
390,173,248748,1,10,2:2:0:0:
269,78,248916,1,2,3:2:0:0:
269,78,248999,1,0,3:0:0:0:
269,78,249083,102,0,P|220:80|179:62,1,95.3388333333333,2|2,2:2|2:2,0:0:0:0:
155,178,249418,1,10,2:2:0:0:
12,130,249586,2,0,P|38:171|43:215,1,95.3388333333333,2|2,2:2|2:2,0:0:0:0:
155,178,249921,1,2,2:2:0:0:
185,325,250089,2,0,P|199:273|235:247,1,95,10|0,2:2|0:0,0:0:0:0:
244,254,250340,1,0,3:0:0:0:
244,254,250424,6,0,P|287:272|334:270,1,95.3388333333333,6|2,2:2|2:2,0:0:0:0:
169,307,250759,1,10,2:2:0:0:
169,124,250927,2,0,B|182:183|182:183|156:247|156:247|169:306,1,190.110833333333,2|2,2:2|2:2,0:0:0:0:
102,178,251430,1,10,2:2:0:0:
244,254,251597,1,2,3:2:0:0:
244,254,251681,1,0,3:0:0:0:
244,254,251765,102,0,P|287:272|334:270,1,95.3388333333333,2|2,2:2|2:2,0:0:0:0:
394,211,252100,1,10,2:2:0:0:
432,60,252268,2,0,P|394:88|373:129,1,95.3388333333333,2|2,2:2|2:2,0:0:0:0:
394,211,252603,1,2,2:2:0:0:
506,320,252770,2,0,P|500:273|474:234,1,95.3388333333333,10|2,2:2|2:2,0:0:0:0:
394,211,253106,6,0,L|295:224,1,95.3388333333333,6|2,2:2|2:2,0:0:0:0:
216,173,253441,1,10,2:2:0:0:
160,0,253608,2,0,L|220:79,1,95.3388333333333,2|0,2:2|0:0,0:0:0:0:
95,309,253944,2,0,L|133:216,1,95.3388333333333,2|10,2:2|2:2,0:0:0:0:
216,173,254279,1,2,3:2:0:0:
216,173,254363,1,0,3:0:0:0:
216,173,254446,1,2,2:2:0:0:
364,47,254782,102,0,P|381:94|381:139,1,95.3388333333333,10|2,2:2|2:2,0:0:0:0:
198,81,255117,2,0,P|198:128|215:172,1,95.3388333333333,2|2,2:2|2:2,0:0:0:0:
290,110,255452,1,10,2:2:0:0:
106,52,255620,1,2,3:2:0:0:
106,52,255703,1,0,3:0:0:0:
106,52,255787,6,0,P|59:52|15:69,1,95.3388333333333,2|2,2:2|2:2,0:0:0:0:
77,144,256122,1,10,2:2:0:0:
48,235,256290,2,0,P|95:234|140:218,1,95.3388333333333,2|0,2:2|0:0,0:0:0:0:
77,144,256625,1,2,2:2:0:0:
19,326,256793,1,10,2:2:0:0:
19,326,257128,101,2,2:2:0:0:
201,384,257295,1,2,2:2:0:0:
201,384,257379,1,0,0:0:0:0:
201,384,257463,1,10,2:2:0:0:
259,202,257631,2,0,P|206:195|155:260,1,142.724833333333,2|0,2:2|0:0,0:0:0:0:
155,259,257966,2,0,L|206:253,1,47.9528333333333,2|0,2:2|1:0,0:0:0:0:
344,239,258133,1,10,2:2:0:0:
355,237,258217,1,0,0:0:0:0:
367,236,258301,1,0,0:0:0:0:
379,234,258385,1,0,0:0:0:0:
391,233,258469,1,10,2:2:0:0:
391,233,258804,101,10,2:2:0:0:
290,110,258971,1,2,2:2:0:0:
202,253,259139,1,10,2:2:0:0:
341,172,259307,1,2,2:2:0:0:
239,48,259474,1,10,2:2:0:0:
202,253,259642,1,2,2:2:0:0:
202,253,259726,1,0,0:0:0:0:
202,253,259809,1,10,2:2:0:0:
341,172,260145,5,10,2:2:0:0:
104,211,260312,1,2,2:2:0:0:
209,23,260480,1,10,2:2:0:0:
278,285,260647,1,2,2:2:0:0:
28,179,260815,1,10,2:2:0:0:
290,110,260983,1,2,2:2:0:0:
290,110,261066,1,0,0:0:0:0:
290,110,261150,102,0,L|273:15,1,95.3388333333333,10|2,2:2|2:2,0:0:0:0:
28,179,261485,5,2,2:2:0:0:
278,285,261653,2,0,L|261:380,1,95.3388333333333,10|2,2:2|2:2,0:0:0:0:
209,23,261988,5,2,2:2:0:0:
103,273,262156,1,10,2:2:0:0:
373,240,262323,1,0,1:0:0:0:
373,240,262407,1,0,1:0:0:0:
373,240,262491,38,0,L|417:248,1,45.6266,6|0,2:2|0:0,0:0:0:0:
497,167,263664,1,2,2:2:0:0:
492,156,263748,1,0,1:0:0:0:
487,145,263832,86,0,P|401:145|373:240,1,197.715257621257,14|2,2:2|2:2,0:0:0:0:
261,378,264335,2,0,P|238:288|146:283,1,197.715257621257,10|2,2:2|2:2,0:0:0:0:
14,376,264837,2,0,P|65:378|98:344,1,98.7999954772951,10|2,2:2|2:2,0:0:0:0:
104,354,265089,1,0,1:0:0:0:
104,354,265173,2,0,L|85:157,1,197.715257621257,14|2,2:2|2:2,0:0:0:0:
75,58,265675,1,10,2:2:0:0:
157,269,265843,38,0,P|180:226|180:177,1,99.1523821439618,2|2,2:2|2:2,0:0:0:0:
84,157,266178,2,0,P|61:200|61:249,1,99.1523821439618,10|2,2:2|2:2,0:0:0:0:
18,319,266430,1,0,0:0:0:0:
22,315,266513,70,0,P|124:295|160:370,1,197.715257621257,14|2,2:2|2:2,0:0:0:0:
295,218,267016,2,0,P|244:295|156:268,1,197.715257621257,10|2,2:2|2:2,0:0:0:0:
84,157,267519,2,0,L|182:147,1,99.1523821439618,10|2,2:2|2:2,0:0:0:0:
182,147,267770,1,0,0:0:0:0:
182,147,267854,37,14,2:2:0:0:
372,239,268022,1,2,2:2:0:0:
269,88,268189,1,2,1:2:0:0:
284,298,268357,1,10,2:2:0:0:
459,180,268525,86,0,L|361:194,1,99.1523821439618,2|2,2:2|2:2,0:0:0:0:
163,66,268860,2,0,L|261:80,1,98.7999954772951,10|2,2:2|2:2,0:0:0:0:
269,88,269111,1,0,1:0:0:0:
269,88,269195,38,0,P|266:155|190:197,1,152.088666666667,10|2,2:2|2:2,0:0:0:0:
104,148,269698,1,2,2:2:0:0:
28,159,269865,2,0,L|105:147,1,76.2710666666667,2|2,2:2|2:2,0:0:0:0:
199,197,270201,1,2,2:2:0:0:
313,28,270368,53,2,2:2:0:0:
313,28,270452,1,0,3:0:0:0:
313,28,270536,2,0,P|302:61|302:102,1,76.2710666666667,10|2,2:2|2:2,0:0:0:0:
187,123,270871,2,0,P|198:156|198:197,1,76.2710666666667,2|2,2:2|2:2,0:0:0:0:
313,218,271206,2,0,P|302:251|302:292,1,76.2710666666667,2|2,2:2|2:2,0:0:0:0:
151,326,271541,1,2,2:2:0:0:
226,308,271709,1,2,2:2:0:0:
398,198,271876,54,0,P|352:196|312:217,1,91.525277216797,10|2,2:2|2:2,0:0:0:0:
226,308,272212,5,2,2:2:0:0:
312,217,272379,1,2,2:2:0:0:
190,124,272547,5,2,2:2:0:0:
301,291,272714,1,2,2:2:0:0:
313,28,272882,37,2,2:2:0:0:
198,196,273050,1,2,2:2:0:0:
110,12,273217,21,14,2:2:0:0:
385,77,273385,1,10,2:2:0:0:
151,326,273552,69,10,2:2:0:0:
190,124,273720,1,10,2:2:0:0:
190,124,273804,1,0,0:0:0:0:
190,124,273888,1,10,2:2:0:0:
356,224,274055,22,0,L|310:216,1,46.0347186083985,10|0,2:2|0:0,0:0:0:0:
198,196,274223,1,6,2:2:0:0:
308,56,274390,70,0,L|300:102,1,46.0347186083985,0|0,1:0|0:0,0:0:0:0:
256,356,274558,86,0,B|277:322|320:319|320:319|270:233|150:269|117:369|117:369|71:369|45:340|45:340|89:212|221:192|221:192|300:183|335:88|294:-10|163:-32|68:59|109:167|164:199|221:192|221:192|322:184|373:254|373:254|418:325|489:310,1,1459.23491546875,6|8,2:2|2:1,0:0:0:0:
